Tags
Language
Tags

Renaissance - Renaissance (1969) [Reissue 2008]

Posted By: gribovar
Renaissance - Renaissance (1969) [Reissue 2008]

Renaissance - Renaissance (1969) [Reissue 2008]
EAC Rip | APE (image+.cue+log) - 275 MB | Covers - 37 MB
Genre: Progressive Rock | RAR 3% Rec. | Label: Repertoire Records (REP 5105)

This is the first Renaissance album: the singer is Jane Relf, not Annie Haslam. A completely different bunch of musicians, compared to the Renaissance of the 70's. Jane Relf's vocals are not really always in the foreground: other musicians also sing on this album. Considering the year (1969), the sound is very progressive and ambitions, comparing to the other major progressive bands such as Genesis and Yes, that are starting and doing a proto progressive sound. Although the line-up is completely different from the classic Renaissance albums, this is as good as the others.

Tracklist:
01. Kings And Queens
02. Innocence
03. Island
04. Wanderer
05. Bullet
06. The Sea (Bonus track)
07. Island (Single version, Bonus track)

Total time: 46:17

Exact Audio Copy V0.99 prebeta 4 from 23. January 2008

EAC extraction logfile from 8. May 2008, 0:08

Renaissance / Renaissance

Used drive : PLEXTOR DVDR PX-750A Adapter: 3 ID: 0

Read mode : Secure
Utilize accurate stream : Yes
Defeat audio cache : Yes
Make use of C2 pointers : No

Read offset correction : 102
Overread into Lead-In and Lead-Out : No
Fill up missing offset samples with silence : Yes
Delete leading and trailing silent blocks : No
Null samples used in CRC calculations : Yes
Used interface : Installed external ASPI interface

Used output format : Internal WAV Routines
Sample format : 44.100 Hz; 16 Bit; Stereo


TOC of the extracted CD

Track | Start | Length | Start sector | End sector
––––––––––––––––––––––––––––-
1 | 0:00.00 | 10:58.30 | 0 | 49379
2 | 10:58.30 | 7:08.55 | 49380 | 81534
3 | 18:07.10 | 5:59.59 | 81535 | 108518
4 | 24:06.69 | 4:03.51 | 108519 | 126794
5 | 28:10.45 | 11:25.49 | 126795 | 178218
6 | 39:36.19 | 3:05.22 | 178219 | 192115
7 | 42:41.41 | 3:35.48 | 192116 | 208288


Range status and errors

Selected range

Filename F:\Renaissance - Renaissance.wav

Peak level 98.8 %
Range quality 100.0 %
Copy CRC 604FDDCE
Copy OK

No errors occurred


AccurateRip summary

Track 1 not present in database
Track 2 not present in database
Track 3 not present in database
Track 4 not present in database
Track 5 not present in database
Track 6 not present in database
Track 7 not present in database

None of the tracks are present in the AccurateRip database

End of status report

[CUETools log; Date: 08.10.2019 12:16:36; Version: 2.1.4]
[CTDB TOCID: KiZV5NfBIBPdzKQXPynJ5wiaIts-] found.
Track | CTDB Status
1 | (31/32) Accurately ripped
2 | (31/32) Accurately ripped
3 | (32/32) Accurately ripped
4 | (32/32) Accurately ripped
5 | (31/32) Accurately ripped
6 | (32/32) Accurately ripped
7 | (32/32) Accurately ripped
[AccurateRip ID: 000e6ad5-0053cc8f-670ad907] found.
Track [ CRC | V2 ] Status
01 [af705fba|70729b2b] (08+18/26) Accurately ripped
02 [27070bc1|4ed4209d] (08+18/26) Accurately ripped
03 [ad520909|6e88ab11] (08+18/26) Accurately ripped
04 [b5ecec3d|581372d5] (08+18/26) Accurately ripped
05 [c0560666|bfb64fb0] (08+18/26) Accurately ripped
06 [df3f1afa|db099403] (08+18/26) Accurately ripped
07 [9e26630b|640c4034] (08+17/25) Accurately ripped

Track Peak [ CRC32 ] [W/O NULL] [ LOG ]
– 98,8 [604FDDCE] [37C70AB7] CRC32
01 98,8 [2C9C0BC5] [5644EA74]
02 98,8 [3BA32970] [669B9974]
03 98,8 [71DAF44E] [60F9EBD4]
04 98,8 [8EAEE2E5] [60D0EEC0]
05 98,8 [FB6D6A6E] [27A735E9]
06 98,8 [09FEB5CB] [C3B3B7D9]
07 98,8 [C595D66B] [5DB664AB]

Thanks to bumbo

See also:
Renaissance - 5 Studio Albums (1973-1978)