Tags
Language
Tags

Renata Scotto - Legendary Performances of Scotto (2007) (14 CD Box Set)

Posted By: murena
Renata Scotto - Legendary Performances of Scotto (2007) (14 CD Box Set)

Renata Scotto - Legendary Performances of Scotto (2007) (14 CD Box Set)
EAC Rip | FLAC (Image+.cue, log) | Covers included | 3,55 Gb
MP3 320 kbps | 14 Cds, 14:23:37 min | 1,94 Gb
Genre: Classical, Opera / Label: Bravissimo

All of these are live recordings so the sound is quite variable. The standard square box contains separate soft plastic sleeves in which the cds are inserted. The advantage is that the cds are well protected (minor risk for scrapes compared to cardboard), but there is no information printed on the sleeve since it is made of plastic. There is some basic information printed on each cd (name, composer, cd #, the act/s and the date of the recording). There is also a small 24pg booklet that introduces the box including some photos as well as content description for each disc (opera, singers, time and location as well as a list of the separate tracks). I have been collecting these boxes for a while and always find it worthwhile as there are gems nicely interspersed in these collections

CDs:
CD01. Verdi - Rigoletto
CD02. Donizetti - L'Elisir d'Amore
CD03. Donizetti - Lucia di Lammermoor
CD04. Bellini - I Capuleti e i Montecchi
CD05. Bellini - La Straniera
CD06. Puccini - Madama Butterfly
CD07. Verdi - La Traviata

Tracklist:

CD01. Verdi - Rigoletto; CD1:61'09; CD2:66'44
Giuseppe Verdi 1813-1901
CD1
01. Atto I. Prelude
02. Della mia mia bella incognita borghese
03. Questa o quella
04. Ch'io gli parli
05. Quel vecchio maledivami!
06. Pari siamo!
07. Figlia!… Mio padre!
08. Già da tre lune
09. Giovanna, ho dei rimorsi
10. È il sol dell'anima
11. Che m'ami, deh, ripetimi
12. Caro nome
13. Riedo!… Perchè?
14. Zitti, zitti

Exact Audio Copy V1.0 beta 3 from 29. August 2011

EAC extraction logfile from 20. August 2014, 23:19

Carlo Maria Giulini, Renata Scotto, Luciano Pavarotti / Verdi - Rigoletto CD1

Used drive : PIONEER DVD-RW DVR-218L Adapter: 0 ID: 0

Read mode : Secure
Utilize accurate stream : Yes
Defeat audio cache : Yes
Make use of C2 pointers : No

Read offset correction : 6
Overread into Lead-In and Lead-Out : No
Fill up missing offset samples with silence : Yes
Delete leading and trailing silent blocks : No
Null samples used in CRC calculations : Yes
Used interface : Native Win32 interface for Win NT & 2000

Used output format : User Defined Encoder
Selected bitrate : 128 kBit/s
Quality : High
Add ID3 tag : No
Command line compressor : C:\Program Files (x86)\Exact Audio Copy\Flac\flac.exe
Additional command line options : -V -8 -T "Date=%year%" -T "Genre=%genre%" %source%


TOC of the extracted CD

Track | Start | Length | Start sector | End sector
––––––––––––––––––––––––––––-
1 | 0:00.00 | 2:37.65 | 0 | 11839
2 | 2:37.65 | 1:49.68 | 11840 | 20082
3 | 4:27.58 | 7:15.38 | 20083 | 52745
4 | 11:43.21 | 4:54.64 | 52746 | 74859
5 | 16:38.10 | 5:02.00 | 74860 | 97509
6 | 21:40.10 | 4:34.14 | 97510 | 118073
7 | 26:14.24 | 5:40.31 | 118074 | 143604
8 | 31:54.55 | 7:29.29 | 143605 | 177308
9 | 39:24.09 | 3:03.36 | 177309 | 191069
10 | 42:27.45 | 3:30.28 | 191070 | 206847
11 | 45:57.73 | 2:43.39 | 206848 | 219111
12 | 48:41.37 | 6:57.57 | 219112 | 250443
13 | 55:39.19 | 2:21.10 | 250444 | 261028
14 | 58:00.29 | 3:08.50 | 261029 | 275178


Range status and errors

Selected range

Filename C:\Program Files (x86)\Exact Audio Copy\Flac\Verdi - Rigoletto CD1.wav

Peak level 96.5 %
Extraction speed 2.0 X
Range quality 100.0 %
Test CRC 7479E417
Copy CRC 7479E417
Copy OK

No errors occurred


AccurateRip summary

Track 1 cannot be verified as accurate (confidence 2) [1F707D6E], AccurateRip returned [BC894804] (AR v2)
Track 2 cannot be verified as accurate (confidence 2) [E3379F39], AccurateRip returned [15DC1310] (AR v2)
Track 3 cannot be verified as accurate (confidence 2) [EBBC0D39], AccurateRip returned [81B40C48] (AR v2)
Track 4 cannot be verified as accurate (confidence 2) [0AFD88AF], AccurateRip returned [7732B2D0] (AR v2)
Track 5 cannot be verified as accurate (confidence 2) [7DDC4A77], AccurateRip returned [FD5E4AB8] (AR v2)
Track 6 cannot be verified as accurate (confidence 2) [70446555], AccurateRip returned [A4B3FB54] (AR v2)
Track 7 cannot be verified as accurate (confidence 2) [263FD2CC], AccurateRip returned [93CE0124] (AR v2)
Track 8 cannot be verified as accurate (confidence 2) [5730D33E], AccurateRip returned [757C9266] (AR v2)
Track 9 cannot be verified as accurate (confidence 2) [F87FA58D], AccurateRip returned [BF71F2F7] (AR v2)
Track 10 cannot be verified as accurate (confidence 2) [A2D8B5EB], AccurateRip returned [0D4A29D7] (AR v2)
Track 11 cannot be verified as accurate (confidence 2) [E5D35601], AccurateRip returned [8C0FE3F1] (AR v2)
Track 12 cannot be verified as accurate (confidence 2) [43F25F80], AccurateRip returned [08CD6488] (AR v2)
Track 13 cannot be verified as accurate (confidence 2) [99B6514B], AccurateRip returned [F3D4F8CC] (AR v2)
Track 14 cannot be verified as accurate (confidence 2) [410F2BD0], AccurateRip returned [BCA69E10] (AR v2)

No tracks could be verified as accurate
You may have a different pressing from the one(s) in the database

End of status report

–– CUETools DB Plugin V2.1.3

[CTDB TOCID: YGKCww2zb.o5Us4dtsqSEMHirYM-] disk not present in database, Submit result: YGKCww2zb.o5Us4dtsqSEMHirYM- has been uploaded


==== Log checksum F6B4C3C1F4CCF794538AD4C8D1861A7903FA3967375A4D44E86F318B232D152B ====


CD2
01. Atto II. Ella mi fu rapita!
02. Parmi veder le lagrime
03. Duca, Duca! …Ebben?
04. Povero Rigoletto!
05. Cortigiani, vil razza dannate
06. Mio padre!… Dio! Mia Gilda!
07. Tutte le feste al tempio
08. Ah! Solo per me l'infamia
09. Poiché fosti invano da me maledetto
10. Atto III. E l'ami?… Sempre
11. La donna è mobile
12. Un di, se ben rammentomi
13. Bella figlia dell'amore
14. M'odi! Ritorna a casa
15. Maddalena? …Aspettate!
16. È amabile invero
17. Della vendetta alfin Giunge l'istante!
18. Chi è mai, chi è qui in sua vece?
19. V'ho ingannato… lassù in cielo

Exact Audio Copy V1.0 beta 3 from 29. August 2011

EAC extraction logfile from 21. August 2014, 0:46

Carlo Maria Giulini, Renata Scotto, Luciano Pavarotti / Verdi - Rigoletto CD2

Used drive : PIONEER DVD-RW DVR-218L Adapter: 0 ID: 0

Read mode : Secure
Utilize accurate stream : Yes
Defeat audio cache : Yes
Make use of C2 pointers : No

Read offset correction : 6
Overread into Lead-In and Lead-Out : No
Fill up missing offset samples with silence : Yes
Delete leading and trailing silent blocks : No
Null samples used in CRC calculations : Yes
Used interface : Native Win32 interface for Win NT & 2000

Used output format : User Defined Encoder
Selected bitrate : 128 kBit/s
Quality : High
Add ID3 tag : No
Command line compressor : C:\Program Files (x86)\Exact Audio Copy\Flac\flac.exe
Additional command line options : -V -8 -T "Date=%year%" -T "Genre=%genre%" %source%


TOC of the extracted CD

Track | Start | Length | Start sector | End sector
––––––––––––––––––––––––––––-
1 | 0:00.00 | 2:31.68 | 0 | 11392
2 | 2:31.68 | 3:16.28 | 11393 | 26120
3 | 5:48.21 | 2:32.69 | 26121 | 37589
4 | 8:21.15 | 3:48.20 | 37590 | 54709
5 | 12:09.35 | 5:32.45 | 54710 | 79654
6 | 17:42.05 | 2:19.51 | 79655 | 90130
7 | 20:01.56 | 3:37.17 | 90131 | 106422
8 | 23:38.73 | 5:03.74 | 106423 | 129221
9 | 28:42.72 | 3:20.15 | 129222 | 144236
10 | 32:03.12 | 2:14.23 | 144237 | 154309
11 | 34:17.35 | 3:15.50 | 154310 | 168984
12 | 37:33.10 | 1:43.03 | 168985 | 176712
13 | 39:16.13 | 4:43.56 | 176713 | 197993
14 | 43:59.69 | 1:26.05 | 197994 | 204448
15 | 45:25.74 | 2:51.35 | 204449 | 217308
16 | 48:17.34 | 6:21.30 | 217309 | 245913
17 | 54:38.64 | 4:47.12 | 245914 | 267450
18 | 59:26.01 | 1:59.17 | 267451 | 276392
19 | 61:25.18 | 5:18.44 | 276393 | 300286


Range status and errors

Selected range

Filename C:\Program Files (x86)\Exact Audio Copy\Flac\Verdi - Rigoletto CD2.wav

Peak level 96.5 %
Extraction speed 2.0 X
Range quality 100.0 %
Test CRC 05219800
Copy CRC 05219800
Copy OK

No errors occurred


AccurateRip summary

Track 1 cannot be verified as accurate (confidence 2) [12F4A5CB], AccurateRip returned [32C3EC83] (AR v2)
Track 2 cannot be verified as accurate (confidence 2) [1882BC60], AccurateRip returned [6A248B6A] (AR v2)
Track 3 cannot be verified as accurate (confidence 2) [E91E3ED5], AccurateRip returned [2C2F375B] (AR v2)
Track 4 cannot be verified as accurate (confidence 2) [1216091B], AccurateRip returned [30614308] (AR v2)
Track 5 cannot be verified as accurate (confidence 2) [C49A841B], AccurateRip returned [BBA6F3C0] (AR v2)
Track 6 cannot be verified as accurate (confidence 2) [91CA6CA2], AccurateRip returned [A03F03A1] (AR v2)
Track 7 cannot be verified as accurate (confidence 2) [57C56E11], AccurateRip returned [D9C229D8] (AR v2)
Track 8 cannot be verified as accurate (confidence 2) [14628120], AccurateRip returned [F2F96002] (AR v2)
Track 9 cannot be verified as accurate (confidence 2) [E30E7F61], AccurateRip returned [8A162CE9] (AR v2)
Track 10 cannot be verified as accurate (confidence 2) [034C904A], AccurateRip returned [E7DBE27E] (AR v2)
Track 11 cannot be verified as accurate (confidence 2) [27336E0B], AccurateRip returned [18450B20] (AR v2)
Track 12 cannot be verified as accurate (confidence 2) [37E6D7F6], AccurateRip returned [122DB888] (AR v2)
Track 13 cannot be verified as accurate (confidence 2) [1A387A28], AccurateRip returned [8B16EC2F] (AR v2)
Track 14 cannot be verified as accurate (confidence 2) [43C9D753], AccurateRip returned [60C6211F] (AR v2)
Track 15 cannot be verified as accurate (confidence 2) [3ADC501D], AccurateRip returned [FD23908F] (AR v2)
Track 16 cannot be verified as accurate (confidence 2) [1BEE2D37], AccurateRip returned [8729FDB2] (AR v2)
Track 17 cannot be verified as accurate (confidence 2) [FA9838F4], AccurateRip returned [EDD535CE] (AR v2)
Track 18 cannot be verified as accurate (confidence 2) [8CAF58F6], AccurateRip returned [E8F4F3E3] (AR v2)
Track 19 cannot be verified as accurate (confidence 2) [E90EE901], AccurateRip returned [6AF4F613] (AR v2)

No tracks could be verified as accurate
You may have a different pressing from the one(s) in the database

End of status report

–– CUETools DB Plugin V2.1.3

[CTDB TOCID: V5fOeDYQbCgxt_9LUAeThlGWN00-] disk not present in database, Submit result: V5fOeDYQbCgxt_9LUAeThlGWN00- has been uploaded


==== Log checksum C3258659E12541C74F6285AA90A25C60DB511C697D25B1C3371BE950C634565D ====



Personnel:
Duke of Mantua - Luciano Pavarotti
Gilda - Renata Scotto
Rigoletto - Kostas Paskalis
Sparafucile - Paolo Washington
Maddalena - Rosa Laghezza
Orchestra & Chorus of Teatro Comunale, Florence
Conductor - Carlo Maria Giulini

CD02. Donizetti - L'Elisir d'Amore; CD1:71'35; CD2:49'40
Gaetano Donizetti 1797-1848
CD1
01. Atto I. Bel conforto al mietitore
02. Quanto è bella
03. Benedette queste carte
04. Come Paride vezzoso
05. Or se m'ami, com'io t'amo
06. Intanto, o mia ragazza
07. Una parola, o Adina
08. Che vuol dire
09. Udite, udite, o rustici
10. Ardir! Ha forse il cielo
11. Caro elisir! Sei mio!
12. La-lara-la la
13. Tran tran… In guerra ed in amore
14. Signor sargente
15. Adina, credimi
16. Andiam, Belcore

Exact Audio Copy V1.0 beta 3 from 29. August 2011

EAC extraction logfile from 21. August 2014, 18:35

Gianandrea Gavazzeni, Renata Scotto, Carlo Bergonzi, Giuseppe Taddei / Donizetti - L'Elisir d'Amore CD1

Used drive : PIONEER DVD-RW DVR-218L Adapter: 0 ID: 0

Read mode : Secure
Utilize accurate stream : Yes
Defeat audio cache : Yes
Make use of C2 pointers : No

Read offset correction : 6
Overread into Lead-In and Lead-Out : No
Fill up missing offset samples with silence : Yes
Delete leading and trailing silent blocks : No
Null samples used in CRC calculations : Yes
Used interface : Native Win32 interface for Win NT & 2000

Used output format : User Defined Encoder
Selected bitrate : 128 kBit/s
Quality : High
Add ID3 tag : No
Command line compressor : C:\Program Files (x86)\Exact Audio Copy\Flac\flac.exe
Additional command line options : -V -8 -T "Date=%year%" -T "Genre=%genre%" %source%


TOC of the extracted CD

Track | Start | Length | Start sector | End sector
––––––––––––––––––––––––––––-
1 | 0:00.32 | 5:06.05 | 32 | 22986
2 | 5:06.37 | 3:37.63 | 22987 | 39324
3 | 8:44.25 | 6:14.50 | 39325 | 67424
4 | 14:59.00 | 3:06.42 | 67425 | 81416
5 | 18:05.42 | 3:25.70 | 81417 | 96861
6 | 21:31.37 | 0:30.38 | 96862 | 99149
7 | 22:02.00 | 8:26.25 | 99150 | 137124
8 | 30:28.25 | 2:15.62 | 137125 | 147311
9 | 32:44.12 | 7:49.50 | 147312 | 182536
10 | 40:33.62 | 7:39.38 | 182537 | 216999
11 | 48:13.25 | 2:23.25 | 217000 | 227749
12 | 50:36.50 | 6:01.37 | 227750 | 254861
13 | 56:38.12 | 3:42.50 | 254862 | 271561
14 | 60:20.62 | 2:54.38 | 271562 | 284649
15 | 63:15.25 | 4:48.62 | 284650 | 306311
16 | 68:04.12 | 3:30.63 | 306312 | 322124


Range status and errors

Selected range

Filename C:\Program Files (x86)\Exact Audio Copy\Flac\Donizetti - L'Elisir d'Amore CD1.wav

Peak level 96.2 %
Extraction speed 2.1 X
Range quality 100.0 %
Test CRC 0FB1C927
Copy CRC 0FB1C927
Copy OK

No errors occurred


AccurateRip summary

Track 1 cannot be verified as accurate (confidence 2) [144EB91D], AccurateRip returned [68C27782] (AR v2)
Track 2 cannot be verified as accurate (confidence 2) [1C76F214], AccurateRip returned [4CDD2B78] (AR v2)
Track 3 cannot be verified as accurate (confidence 2) [BA888C90], AccurateRip returned [89574329] (AR v2)
Track 4 cannot be verified as accurate (confidence 2) [B1803541], AccurateRip returned [240D20FE] (AR v2)
Track 5 cannot be verified as accurate (confidence 2) [196574F6], AccurateRip returned [1286AE05] (AR v2)
Track 6 cannot be verified as accurate (confidence 2) [D4972AE7], AccurateRip returned [74068E75] (AR v2)
Track 7 cannot be verified as accurate (confidence 2) [183C8093], AccurateRip returned [E9BF9B31] (AR v2)
Track 8 cannot be verified as accurate (confidence 2) [F3A22829], AccurateRip returned [E2FFA279] (AR v2)
Track 9 cannot be verified as accurate (confidence 2) [42161698], AccurateRip returned [054287E2] (AR v2)
Track 10 cannot be verified as accurate (confidence 2) [442A7C08], AccurateRip returned [0B09D8C8] (AR v2)
Track 11 cannot be verified as accurate (confidence 2) [C213A52C], AccurateRip returned [79EA60C3] (AR v2)
Track 12 cannot be verified as accurate (confidence 2) [6B7E5DF5], AccurateRip returned [41E1A424] (AR v2)
Track 13 cannot be verified as accurate (confidence 2) [ECAED890], AccurateRip returned [C60AE23D] (AR v2)
Track 14 cannot be verified as accurate (confidence 2) [3AFE7046], AccurateRip returned [C297897E] (AR v2)
Track 15 cannot be verified as accurate (confidence 2) [53AFF699], AccurateRip returned [A23B548C] (AR v2)
Track 16 cannot be verified as accurate (confidence 2) [B11FF19C], AccurateRip returned [C508FF00] (AR v2)

No tracks could be verified as accurate
You may have a different pressing from the one(s) in the database

End of status report

–– CUETools DB Plugin V2.1.3

[CTDB TOCID: w4Ilmo5VCPk3hHNtW3g7B4NH1VE-] disk not present in database, Submit result: discs with pregaps not supported in this protocol version


==== Log checksum A6EA535A9197BA404735CEE620E162CAA0F584492A87A80244658C5CA473E83D ====


CD2
01. Atto II. Cantiamo, facciam brindisi
02. Poichè cantar vi alletta
03. La Nina Gondoliera
04. Silenzio! È qua il notaro
05. Le feste nuziali
06. La donna è un animale
07. Saria possibile?
08. Dell'elisir mirabile
09. Come sen va contento!
10. Una furtiva lagrima
11. Prendi: per me sei libero
12. Alto! Fronte!
13. Ei corregge ogni difetto



Personnel:
Adina - Renata Scotto
Nemorino - Carlo Bergonzi
Belcore - Giuseppe Taddei
Dulcamara - Carlo Cava
Giannetta - Renza Jotti
Orchestra & Chorus of the Florenca May Festival
Conductor - Gianandrea Gavazzeni

Exact Audio Copy V1.0 beta 3 from 29. August 2011

EAC extraction logfile from 21. August 2014, 19:35

Gianandrea Gavazzeni, Renata Scotto, Carlo Bergonzi, Giuseppe Taddei / Donizetti - L'Elisir d'Amore CD2

Used drive : PIONEER DVD-RW DVR-218L Adapter: 0 ID: 0

Read mode : Secure
Utilize accurate stream : Yes
Defeat audio cache : Yes
Make use of C2 pointers : No

Read offset correction : 6
Overread into Lead-In and Lead-Out : No
Fill up missing offset samples with silence : Yes
Delete leading and trailing silent blocks : No
Null samples used in CRC calculations : Yes
Used interface : Native Win32 interface for Win NT & 2000

Used output format : User Defined Encoder
Selected bitrate : 128 kBit/s
Quality : High
Add ID3 tag : No
Command line compressor : C:\Program Files (x86)\Exact Audio Copy\Flac\flac.exe
Additional command line options : -V -8 -T "Date=%year%" -T "Genre=%genre%" %source%


TOC of the extracted CD

Track | Start | Length | Start sector | End sector
––––––––––––––––––––––––––––-
1 | 0:00.32 | 2:22.68 | 32 | 10749
2 | 2:23.25 | 0:41.25 | 10750 | 13849
3 | 3:04.50 | 2:36.50 | 13850 | 25599
4 | 5:41.25 | 2:03.25 | 25600 | 34849
5 | 7:44.50 | 1:51.62 | 34850 | 43236
6 | 9:36.37 | 8:10.25 | 43237 | 80011
7 | 17:46.62 | 4:15.13 | 80012 | 99149
8 | 22:02.00 | 2:17.25 | 99150 | 109449
9 | 24:19.25 | 8:33.25 | 109450 | 147949
10 | 32:52.50 | 6:26.37 | 147950 | 176936
11 | 39:19.12 | 7:07.38 | 176937 | 208999
12 | 46:26.50 | 0:44.37 | 209000 | 212336
13 | 47:11.12 | 2:28.63 | 212337 | 223499


Range status and errors

Selected range

Filename C:\Program Files (x86)\Exact Audio Copy\Flac\Donizetti - L'Elisir d'Amore CD2.wav

Peak level 96.3 %
Extraction speed 1.9 X
Range quality 100.0 %
Test CRC C5D03836
Copy CRC C5D03836
Copy OK

No errors occurred


AccurateRip summary

Track 1 cannot be verified as accurate (confidence 2) [B850E9F8], AccurateRip returned [09DBF529] (AR v2)
Track 2 cannot be verified as accurate (confidence 2) [2458CBB7], AccurateRip returned [2F4D9CF4] (AR v2)
Track 3 cannot be verified as accurate (confidence 2) [6FF85210], AccurateRip returned [3228E51B] (AR v2)
Track 4 cannot be verified as accurate (confidence 2) [77C1935B], AccurateRip returned [DDC28809] (AR v2)
Track 5 cannot be verified as accurate (confidence 2) [899BEA26], AccurateRip returned [D4737C57] (AR v2)
Track 6 cannot be verified as accurate (confidence 2) [58A982AF], AccurateRip returned [6B604902] (AR v2)
Track 7 cannot be verified as accurate (confidence 2) [D15D5089], AccurateRip returned [EB7DE300] (AR v2)
Track 8 cannot be verified as accurate (confidence 2) [B8FB4A48], AccurateRip returned [C5A24E85] (AR v2)
Track 9 cannot be verified as accurate (confidence 2) [EB4A9283], AccurateRip returned [A1052522] (AR v2)
Track 10 cannot be verified as accurate (confidence 2) [965A4ED8], AccurateRip returned [51B7041C] (AR v2)
Track 11 cannot be verified as accurate (confidence 2) [AF5479D3], AccurateRip returned [79F09AFF] (AR v2)
Track 12 cannot be verified as accurate (confidence 2) [8213162E], AccurateRip returned [7F7F8EB7] (AR v2)
Track 13 cannot be verified as accurate (confidence 2) [2A7B0E1A], AccurateRip returned [042B89E8] (AR v2)

No tracks could be verified as accurate
You may have a different pressing from the one(s) in the database

End of status report

–– CUETools DB Plugin V2.1.3

[CTDB TOCID: C83lf3OxhQ2lKxR573mqBEQ8XIo-] disk not present in database, Submit result: discs with pregaps not supported in this protocol version


==== Log checksum 5BD006C783798758905A9BACEAA0C15FE558FE91CFF500E6E2C828D04B5A5F1A ====


CD03. Donizetti - Lucia di Lammermoor; CD1:55'34; CD2:61'23
Gaetano Donizetti 1797-1848
CD1
01. Atto I. Prelude
02. Percorrete le spiagge vicine
03. Tu sei turbato!
04. Cruda, funesta smania
05. Il tuo dubbio è ormail certezza
06. Come vinti da stanchezza
07. La pietade in suo favore
08. Intermezzo
09. Ancor non giunse!
10. Regnava nel silenzio
11. Egli è luce a' giorni miei… Quando rapito in estasi
12. Lucia perdona
13. Sulla tomba che rinserra
14. Verranno a te sull'aure
15. Atto II. Introduction
16. Lucia fra poco a te verrà
17. Appressati, Lucia
18. Il pallor funesto, orrendo
19. Soffriva nel pianto
20. Se tradirmi tu potrai

Exact Audio Copy V1.0 beta 3 from 29. August 2011

EAC extraction logfile from 21. August 2014, 20:42

Francesco Molinari-Pradelli, R.Scotto, L.Pavarotti, P.Cappuccilli / Donizetti - Lucia di Lammermoor CD1

Used drive : PIONEER DVD-RW DVR-218L Adapter: 0 ID: 0

Read mode : Secure
Utilize accurate stream : Yes
Defeat audio cache : Yes
Make use of C2 pointers : No

Read offset correction : 6
Overread into Lead-In and Lead-Out : No
Fill up missing offset samples with silence : Yes
Delete leading and trailing silent blocks : No
Null samples used in CRC calculations : Yes
Used interface : Native Win32 interface for Win NT & 2000

Used output format : User Defined Encoder
Selected bitrate : 128 kBit/s
Quality : High
Add ID3 tag : No
Command line compressor : C:\Program Files (x86)\Exact Audio Copy\Flac\flac.exe
Additional command line options : -V -8 -T "Date=%year%" -T "Genre=%genre%" %source%


TOC of the extracted CD

Track | Start | Length | Start sector | End sector
––––––––––––––––––––––––––––-
1 | 0:00.33 | 2:14.25 | 33 | 10107
2 | 2:14.58 | 2:34.50 | 10108 | 21707
3 | 4:49.33 | 2:49.37 | 21708 | 34419
4 | 7:38.70 | 2:04.38 | 34420 | 43757
5 | 9:43.33 | 0:23.50 | 43758 | 45532
6 | 10:07.08 | 1:53.50 | 45533 | 54057
7 | 12:00.58 | 1:56.50 | 54058 | 62807
8 | 13:57.33 | 2:32.50 | 62808 | 74257
9 | 16:30.08 | 1:44.50 | 74258 | 82107
10 | 18:14.58 | 4:10.62 | 82108 | 100919
11 | 22:25.45 | 4:18.63 | 100920 | 120332
12 | 26:44.33 | 2:45.25 | 120333 | 132732
13 | 29:29.58 | 5:42.25 | 132733 | 158407
14 | 35:12.08 | 4:57.50 | 158408 | 180732
15 | 40:09.58 | 1:38.00 | 180733 | 188082
16 | 41:47.58 | 1:31.25 | 188083 | 194932
17 | 43:19.08 | 1:07.25 | 194933 | 199982
18 | 44:26.33 | 4:08.25 | 199983 | 218607
19 | 48:34.58 | 4:50.00 | 218608 | 240357
20 | 53:24.58 | 2:09.50 | 240358 | 250082


Range status and errors

Selected range

Filename C:\Program Files (x86)\Exact Audio Copy\Flac\Donizetti - Lucia di Lammermoor CD1.wav

Peak level 93.0 %
Extraction speed 1.9 X
Range quality 100.0 %
Test CRC 53756A7F
Copy CRC 53756A7F
Copy OK

No errors occurred


AccurateRip summary

Track 1 accurately ripped (confidence 1) [60671A36] (AR v2)
Track 2 accurately ripped (confidence 1) [4A511D6D] (AR v2)
Track 3 accurately ripped (confidence 1) [00466F1D] (AR v2)
Track 4 accurately ripped (confidence 1) [443161C7] (AR v2)
Track 5 accurately ripped (confidence 1) [BD7056FF] (AR v2)
Track 6 accurately ripped (confidence 1) [CC17D347] (AR v2)
Track 7 accurately ripped (confidence 1) [E9B984CA] (AR v2)
Track 8 accurately ripped (confidence 1) [C9A551E9] (AR v2)
Track 9 accurately ripped (confidence 1) [C16D4C4A] (AR v2)
Track 10 accurately ripped (confidence 1) [AE19D545] (AR v2)
Track 11 accurately ripped (confidence 1) [7DA28AD8] (AR v2)
Track 12 accurately ripped (confidence 1) [E072721B] (AR v2)
Track 13 accurately ripped (confidence 1) [391F2BD5] (AR v2)
Track 14 accurately ripped (confidence 1) [BC9F8767] (AR v2)
Track 15 accurately ripped (confidence 1) [EA24ED04] (AR v2)
Track 16 accurately ripped (confidence 1) [E8BBF2CC] (AR v2)
Track 17 accurately ripped (confidence 1) [92AFE588] (AR v2)
Track 18 accurately ripped (confidence 1) [F27C046D] (AR v2)
Track 19 accurately ripped (confidence 1) [6E661A82] (AR v2)
Track 20 accurately ripped (confidence 1) [2BF50B59] (AR v2)

All tracks accurately ripped

End of status report

–– CUETools DB Plugin V2.1.3

[CTDB TOCID: I5mR9FAikHibUOfPMwTeYHWpuLY-] disk not present in database, Submit result: discs with pregaps not supported in this protocol version


==== Log checksum 230693D9AAEE2B36F053B64FC8D420FDC6251A9A292C882F8E50675E11297081 ====


CD2
01. Per te d'immenso giubilo
02. Dov'è Lucia?
03. Ecco il tuo sposo
04. Edgardo!
05. Chi mi frena in tal momento?
06. T'allontana sciagurato
07. Atto III. Introduction
08. D'immenso giubilo
09. Cessi, ah, cessi, qual contento
10. Dalle stanze ove Lucia
11. Il dolce suono
12. Ardon gl'incensi
13. Spargi d'amaro pianto
14. Tombe degli avi miei
15. Fra pco a me ricovero
16. Oh meschina! Oh fato orrendo!
17. Ove corri, sventurato?
18. Tu che a Dio spiegasti l'ali

Exact Audio Copy V1.0 beta 3 from 29. August 2011

EAC extraction logfile from 21. August 2014, 22:04

Francesco Molinari-Pradelli, R.Scotto, L.Pavarotti, P.Cappuccilli / Donizetti - Lucia di Lammermoor CD2

Used drive : PIONEER DVD-RW DVR-218L Adapter: 0 ID: 0

Read mode : Secure
Utilize accurate stream : Yes
Defeat audio cache : Yes
Make use of C2 pointers : No

Read offset correction : 6
Overread into Lead-In and Lead-Out : No
Fill up missing offset samples with silence : Yes
Delete leading and trailing silent blocks : No
Null samples used in CRC calculations : Yes
Used interface : Native Win32 interface for Win NT & 2000

Used output format : User Defined Encoder
Selected bitrate : 128 kBit/s
Quality : High
Add ID3 tag : No
Command line compressor : C:\Program Files (x86)\Exact Audio Copy\Flac\flac.exe
Additional command line options : -V -8 -T "Date=%year%" -T "Genre=%genre%" %source%


TOC of the extracted CD

Track | Start | Length | Start sector | End sector
––––––––––––––––––––––––––––-
1 | 0:00.33 | 3:46.00 | 33 | 16982
2 | 3:46.33 | 2:04.37 | 16983 | 26319
3 | 5:50.70 | 1:40.38 | 26320 | 33857
4 | 7:31.33 | 0:26.25 | 33858 | 35832
5 | 7:57.58 | 3:48.00 | 35833 | 52932
6 | 11:45.58 | 5:04.50 | 52933 | 75782
7 | 16:50.33 | 0:35.00 | 75783 | 78407
8 | 17:25.33 | 1:19.00 | 78408 | 84332
9 | 18:44.33 | 0:38.00 | 84333 | 87182
10 | 19:22.33 | 5:07.25 | 87183 | 110232
11 | 24:29.58 | 6:56.00 | 110233 | 141432
12 | 31:25.58 | 8:56.50 | 141433 | 181682
13 | 40:22.33 | 4:00.00 | 181683 | 199682
14 | 44:22.33 | 4:21.00 | 199683 | 219257
15 | 48:43.33 | 3:13.00 | 219258 | 233732
16 | 51:56.33 | 3:28.00 | 233733 | 249332
17 | 55:24.33 | 1:07.25 | 249333 | 254382
18 | 56:31.58 | 4:51.50 | 254383 | 276257


Range status and errors

Selected range

Filename C:\Program Files (x86)\Exact Audio Copy\Flac\Donizetti - Lucia di Lammermoor CD2.wav

Peak level 98.1 %
Extraction speed 2.0 X
Range quality 100.0 %
Test CRC 516AA2EA
Copy CRC 516AA2EA
Copy OK

No errors occurred


AccurateRip summary

Track 1 accurately ripped (confidence 1) [F570AC45] (AR v2)
Track 2 accurately ripped (confidence 1) [658755BA] (AR v2)
Track 3 accurately ripped (confidence 1) [21904816] (AR v2)
Track 4 accurately ripped (confidence 1) [6B88D2DD] (AR v2)
Track 5 accurately ripped (confidence 1) [37515EC7] (AR v2)
Track 6 accurately ripped (confidence 1) [C6DCC072] (AR v2)
Track 7 accurately ripped (confidence 1) [478DEBD2] (AR v2)
Track 8 accurately ripped (confidence 1) [AA64B919] (AR v2)
Track 9 accurately ripped (confidence 1) [E3AEABFE] (AR v2)
Track 10 accurately ripped (confidence 1) [3CFC9E85] (AR v2)
Track 11 accurately ripped (confidence 1) [B9214AE5] (AR v2)
Track 12 accurately ripped (confidence 1) [C38B5EEF] (AR v2)
Track 13 accurately ripped (confidence 1) [07F1F226] (AR v2)
Track 14 accurately ripped (confidence 1) [3760ACC1] (AR v2)
Track 15 accurately ripped (confidence 1) [EFBAD78D] (AR v2)
Track 16 accurately ripped (confidence 1) [C456A488] (AR v2)
Track 17 accurately ripped (confidence 1) [03D744CE] (AR v2)
Track 18 accurately ripped (confidence 1) [1E52BF9D] (AR v2)

All tracks accurately ripped

End of status report

–– CUETools DB Plugin V2.1.3

[CTDB TOCID: GAH8NR1W6pG969FzRKWoCemPNjM-] disk not present in database, Submit result: discs with pregaps not supported in this protocol version


==== Log checksum 61B73CF603E4F19E832F42F8932AEA220E6BE2768DCAC5692566DBF68F2D81E9 ====


Personnel:
Sir Edgardo di Ravenswood - Luciano Pavarotti
Lucia di Lammermoor - Renata Scotto
Lord Enrico Ashton - Piero Cappuccilli
Lord Arturo Bucklaw - Gianfranco Maganotti
Raimondo Bidebent - Agostino Ferrin
Alisa - Anna di Stazio
Normanno - Franco Ricciardi
RAI Symphony Orchestra & Chorus, Turin
Conductor - Francesco Molinari-Pradelli

CD04. Bellini - I Capuleti e i Montecchi; CD1:71'52; CD2:49'36
Vincenzo Bellini 1801-1835
CD1
01. Overture
02. Atto I. Aggiorna appena, ed eccoci
03. O di Capellio, generosi amici
04. È serbata a questo acciaro
05. Vanne, Lorenzo… Lieto del dolce incarco
06. Ascolta! Se Romeo t'uccise un figlio
07. Eccomi in lieta veste… Oh! quante volte
08. Propizia è l'ora
09. Ah, crudel, d'onor ragioni
10. Vieni, ah! vieni, in me riposa
11. Lieta notte avventurosa
12. Deh! per pietà t'arresta
13. Tace il fragor
14. Oh notte, raddensa le tenebre
15. Accorriam… Romeo!

Exact Audio Copy V1.0 beta 3 from 29. August 2011

EAC extraction logfile from 22. August 2014, 11:51

Claudio Abbado, Renata Scotto, Giacomo Aragail, Luciano Pavarotti / Bellini - I Capuleti e i Montecchi CD1

Used drive : PIONEER DVD-RW DVR-218L Adapter: 0 ID: 0

Read mode : Secure
Utilize accurate stream : Yes
Defeat audio cache : Yes
Make use of C2 pointers : No

Read offset correction : 6
Overread into Lead-In and Lead-Out : No
Fill up missing offset samples with silence : Yes
Delete leading and trailing silent blocks : No
Null samples used in CRC calculations : Yes
Used interface : Native Win32 interface for Win NT & 2000

Used output format : User Defined Encoder
Selected bitrate : 128 kBit/s
Quality : High
Add ID3 tag : No
Command line compressor : C:\Program Files (x86)\Exact Audio Copy\Flac\flac.exe
Additional command line options : -V -8 -T "Date=%year%" -T "Genre=%genre%" %source%


TOC of the extracted CD

Track | Start | Length | Start sector | End sector
––––––––––––––––––––––––––––-
1 | 0:00.33 | 4:11.00 | 33 | 18857
2 | 4:11.33 | 3:34.55 | 18858 | 34962
3 | 7:46.13 | 2:16.07 | 34963 | 45169
4 | 10:02.20 | 7:20.68 | 45170 | 78237
5 | 17:23.13 | 1:32.20 | 78238 | 85157
6 | 18:55.33 | 1:59.47 | 85158 | 94129
7 | 20:55.05 | 4:49.28 | 94130 | 115832
8 | 25:44.33 | 9:59.55 | 115833 | 160812
9 | 35:44.13 | 6:11.32 | 160813 | 188669
10 | 41:55.45 | 5:34.63 | 188670 | 213782
11 | 47:30.33 | 3:56.00 | 213783 | 231482
12 | 51:26.33 | 3:01.00 | 231483 | 245057
13 | 54:27.33 | 3:14.00 | 245058 | 259607
14 | 57:41.33 | 9:56.00 | 259608 | 304307
15 | 67:37.33 | 4:14.74 | 304308 | 323431


Range status and errors

Selected range

Filename C:\Program Files (x86)\Exact Audio Copy\Flac\Bellini - I Capuleti e i Montecchi CD1.wav

Peak level 100.0 %
Extraction speed 2.1 X
Range quality 100.0 %
Test CRC 2AA1AA71
Copy CRC 2AA1AA71
Copy OK

No errors occurred


AccurateRip summary

Track 1 accurately ripped (confidence 1) [87794567] (AR v2)
Track 2 accurately ripped (confidence 1) [20BDF249] (AR v2)
Track 3 accurately ripped (confidence 1) [D6D30136] (AR v2)
Track 4 accurately ripped (confidence 1) [AEC72A8A] (AR v2)
Track 5 accurately ripped (confidence 1) [BA7FBB07] (AR v2)
Track 6 accurately ripped (confidence 1) [31E6BD48] (AR v2)
Track 7 accurately ripped (confidence 1) [74424EAA] (AR v2)
Track 8 accurately ripped (confidence 1) [803B41DA] (AR v2)
Track 9 accurately ripped (confidence 1) [9BCBAE2A] (AR v2)
Track 10 accurately ripped (confidence 1) [4A05477C] (AR v2)
Track 11 accurately ripped (confidence 1) [7C53DDF9] (AR v2)
Track 12 accurately ripped (confidence 1) [81F4BEB4] (AR v2)
Track 13 accurately ripped (confidence 1) [CED4D79A] (AR v2)
Track 14 accurately ripped (confidence 1) [D6E84ED6] (AR v2)
Track 15 accurately ripped (confidence 1) [49384657] (AR v2)

All tracks accurately ripped

End of status report

–– CUETools DB Plugin V2.1.3

[CTDB TOCID: Mt9e.se9i5yV0ytGJbMzLevPIfo-] disk not present in database, Submit result: discs with pregaps not supported in this protocol version


==== Log checksum 7C59F98F70DBD4DF106F50ADCBB86CF9DF3811A4007CD3727C6D92B1E71C4FB3 ====


CD2
01. Atto II. Nè alcun ritorna!
02. Morte io non temo il sai
03. Prendi gl'istanti volano
04. Deserto è il luogo
05. Chi sei tu, che ardisci
05. Ella è morta
07. Siam giunti
08. Ecco la tomba
09. Tu sola, o mia Giulietta
10. Ah! Qual sospiro

Exact Audio Copy V1.0 beta 3 from 29. August 2011

EAC extraction logfile from 22. August 2014, 12:49

Claudio Abbado, Renata Scotto, Giacomo Aragail, Luciano Pavarotti / Bellini - I Capuleti e i Montecchi CD2

Used drive : PIONEER DVD-RW DVR-218L Adapter: 0 ID: 0

Read mode : Secure
Utilize accurate stream : Yes
Defeat audio cache : Yes
Make use of C2 pointers : No

Read offset correction : 6
Overread into Lead-In and Lead-Out : No
Fill up missing offset samples with silence : Yes
Delete leading and trailing silent blocks : No
Null samples used in CRC calculations : Yes
Used interface : Native Win32 interface for Win NT & 2000

Used output format : User Defined Encoder
Selected bitrate : 128 kBit/s
Quality : High
Add ID3 tag : No
Command line compressor : C:\Program Files (x86)\Exact Audio Copy\Flac\flac.exe
Additional command line options : -V -8 -T "Date=%year%" -T "Genre=%genre%" %source%


TOC of the extracted CD

Track | Start | Length | Start sector | End sector
––––––––––––––––––––––––––––-
1 | 0:00.33 | 4:07.00 | 33 | 18557
2 | 4:07.33 | 3:48.00 | 18558 | 35657
3 | 7:55.33 | 7:09.00 | 35658 | 67832
4 | 15:04.33 | 4:11.45 | 67833 | 86702
5 | 19:16.03 | 6:08.30 | 86703 | 114332
6 | 25:24.33 | 3:20.00 | 114333 | 129332
7 | 28:44.33 | 3:37.00 | 129333 | 145607
8 | 32:21.33 | 5:41.20 | 145608 | 171202
9 | 38:02.53 | 4:53.30 | 171203 | 193207
10 | 42:56.08 | 6:40.24 | 193208 | 223231


Range status and errors

Selected range

Filename C:\Program Files (x86)\Exact Audio Copy\Flac\Bellini - I Capuleti e i Montecchi CD2.wav

Peak level 98.5 %
Extraction speed 1.9 X
Range quality 100.0 %
Test CRC 6FD312AA
Copy CRC 6FD312AA
Copy OK

No errors occurred


AccurateRip summary

Track 1 accurately ripped (confidence 1) [FF9FCEA0] (AR v2)
Track 2 accurately ripped (confidence 1) [394024D0] (AR v2)
Track 3 accurately ripped (confidence 1) [8D9EEB54] (AR v2)
Track 4 accurately ripped (confidence 1) [FE3F321A] (AR v2)
Track 5 accurately ripped (confidence 1) [1CD601FC] (AR v2)
Track 6 accurately ripped (confidence 1) [4C4AFCB2] (AR v2)
Track 7 accurately ripped (confidence 1) [E4AE5560] (AR v2)
Track 8 accurately ripped (confidence 1) [E150CD77] (AR v2)
Track 9 accurately ripped (confidence 1) [527F21A7] (AR v2)
Track 10 accurately ripped (confidence 1) [F342CFDB] (AR v2)

All tracks accurately ripped

End of status report

–– CUETools DB Plugin V2.1.3

[CTDB TOCID: J1.vFxqvuX2bTcxTcm.jXw7Hunc-] disk not present in database, Submit result: discs with pregaps not supported in this protocol version


==== Log checksum 99C2250CE19807FA4082CE5F329FA63C0B90DEF6AA1D5B06ABAB0BD0ECDA25ED ====


Personnel:
Romeo - Giacomo Aragail
Giulietta - Renata Scotto
Tebaldo - Luciano Pavarotti
Lorenzo - Alfredo Giacomotti
Capellio - Gaetano Ferrin
Orchestra & Chorus of La Scala, Milan
Conductor - Claudio Abbado

CD05. Bellini - La Straniera; CD1:63'21; CD2:54'37
Vincenzo Bellini 1801-1835
CD1
01. Atto I. Voga, voga, il vento tace
02. Nè alcun ritorna? Ah! Se non m'ami più
03. Giovin rosa, il vergin seno
04. Oh tu, che sai gli spasimi
05. È sgombro il loco
06. Qual suon! Ah! Essa è Alaide
07. In queste soglie, sciagurato, che cerchi?
08. Ah! M'odi: io t'offesi… Serba i tuoi segreti
09. Ah! Se tu vuoi fuggir il mondo
10. Odi… qual suon!… Si adunano i cacciatori intorno
11. Campo ai veltri… il cervo e uscito
12. Ti trovo alfin
13. Eccola… Cielo!
14. No: non ti son rivale
15. Che mai penso?

Exact Audio Copy V1.0 beta 3 from 29. August 2011

EAC extraction logfile from 22. August 2014, 14:01

Ettore Gracis, Renata Scotto, Beniamino Prior / Bellini - La Straniera CD1

Used drive : PIONEER DVD-RW DVR-218L Adapter: 0 ID: 0

Read mode : Secure
Utilize accurate stream : Yes
Defeat audio cache : Yes
Make use of C2 pointers : No

Read offset correction : 6
Overread into Lead-In and Lead-Out : No
Fill up missing offset samples with silence : Yes
Delete leading and trailing silent blocks : No
Null samples used in CRC calculations : Yes
Used interface : Native Win32 interface for Win NT & 2000

Used output format : User Defined Encoder
Selected bitrate : 128 kBit/s
Quality : High
Add ID3 tag : No
Command line compressor : C:\Program Files (x86)\Exact Audio Copy\Flac\flac.exe
Additional command line options : -V -8 -T "Date=%year%" -T "Genre=%genre%" %source%


TOC of the extracted CD

Track | Start | Length | Start sector | End sector
––––––––––––––––––––––––––––-
1 | 0:00.00 | 4:46.29 | 0 | 21478
2 | 4:46.29 | 9:19.43 | 21479 | 63446
3 | 14:05.72 | 2:05.72 | 63447 | 72893
4 | 16:11.69 | 2:57.71 | 72894 | 86239
5 | 19:09.65 | 4:29.37 | 86240 | 106451
6 | 23:39.27 | 3:41.19 | 106452 | 123045
7 | 27:20.46 | 3:17.66 | 123046 | 137886
8 | 30:38.37 | 4:14.04 | 137887 | 156940
9 | 34:52.41 | 3:08.50 | 156941 | 171090
10 | 38:01.16 | 3:41.36 | 171091 | 187701
11 | 41:42.52 | 3:24.09 | 187702 | 203010
12 | 45:06.61 | 2:58.26 | 203011 | 216386
13 | 48:05.12 | 2:55.70 | 216387 | 229581
14 | 51:01.07 | 6:13.06 | 229582 | 257562
15 | 57:14.13 | 6:07.02 | 257563 | 285089


Range status and errors

Selected range

Filename C:\Program Files (x86)\Exact Audio Copy\Flac\Bellini - La Straniera CD1.wav

Peak level 96.5 %
Extraction speed 2.0 X
Range quality 100.0 %
Test CRC E33DABDB
Copy CRC E33DABDB
Copy OK

No errors occurred


AccurateRip summary

Track 1 accurately ripped (confidence 1) [CADC7B46] (AR v2)
Track 2 accurately ripped (confidence 1) [2B1E258A] (AR v2)
Track 3 accurately ripped (confidence 1) [4D5D8641] (AR v2)
Track 4 accurately ripped (confidence 1) [5923CB83] (AR v2)
Track 5 accurately ripped (confidence 1) [41116E75] (AR v2)
Track 6 accurately ripped (confidence 1) [D4D63C28] (AR v2)
Track 7 accurately ripped (confidence 1) [7534D6FF] (AR v2)
Track 8 accurately ripped (confidence 1) [85811048] (AR v2)
Track 9 accurately ripped (confidence 1) [CD21A056] (AR v2)
Track 10 accurately ripped (confidence 1) [246BA694] (AR v2)
Track 11 accurately ripped (confidence 1) [D7D1A4C7] (AR v2)
Track 12 accurately ripped (confidence 1) [17263AB0] (AR v2)
Track 13 accurately ripped (confidence 1) [4F7EE13C] (AR v2)
Track 14 accurately ripped (confidence 1) [53F59FA7] (AR v2)
Track 15 accurately ripped (confidence 1) [662461CD] (AR v2)

All tracks accurately ripped

End of status report

–– CUETools DB Plugin V2.1.3

[CTDB TOCID: AC1AA3RjXRq_N6tOvJkB8B5to1o-] disk not present in database, Submit result: AC1AA3RjXRq_N6tOvJkB8B5to1o- has been uploaded


==== Log checksum 500E9FF955D8D12F0B21E97ABE72AD61CCB940826C16950F1DE87AC35ACE802E ====


CD2
01. Ah! Non partir
02. Qual rumor! Chi vegg'io?
03. Un grido io sento
04. Atto II. Udimmo. Il tuo racconto avvalora i sospetti
05. Ti appressa e il ver respondi
06. Si, il sciogliete, o giudici
07. Meco tu vieni, o misera
08. A tempo io giungo
09. Sulla salma del fratello
10. È dolce la vergine
11. Che far vuoi tu?
12. Sono all'ara… Ciel pietoso
13. Pari all'amor degli angioli
14. Or sei pago, o ciel tremendo

Exact Audio Copy V1.0 beta 3 from 29. August 2011

EAC extraction logfile from 22. August 2014, 15:05

Ettore Gracis, Renata Scotto, Beniamino Prior / Bellini - La Straniera CD2

Used drive : PIONEER DVD-RW DVR-218L Adapter: 0 ID: 0

Read mode : Secure
Utilize accurate stream : Yes
Defeat audio cache : Yes
Make use of C2 pointers : No

Read offset correction : 6
Overread into Lead-In and Lead-Out : No
Fill up missing offset samples with silence : Yes
Delete leading and trailing silent blocks : No
Null samples used in CRC calculations : Yes
Used interface : Native Win32 interface for Win NT & 2000

Used output format : User Defined Encoder
Selected bitrate : 128 kBit/s
Quality : High
Add ID3 tag : No
Command line compressor : C:\Program Files (x86)\Exact Audio Copy\Flac\flac.exe
Additional command line options : -V -8 -T "Date=%year%" -T "Genre=%genre%" %source%


TOC of the extracted CD

Track | Start | Length | Start sector | End sector
––––––––––––––––––––––––––––-
1 | 0:00.00 | 5:01.20 | 0 | 22594
2 | 5:01.20 | 3:04.15 | 22595 | 36409
3 | 8:05.35 | 5:31.35 | 36410 | 61269
4 | 13:36.70 | 2:07.47 | 61270 | 70841
5 | 15:44.42 | 3:39.67 | 70842 | 87333
6 | 19:24.34 | 2:25.67 | 87334 | 98275
7 | 21:50.26 | 3:31.49 | 98276 | 114149
8 | 25:22.00 | 3:15.46 | 114150 | 128820
9 | 28:37.46 | 5:58.50 | 128821 | 155720
10 | 34:36.21 | 3:31.74 | 155721 | 171619
11 | 38:08.20 | 3:27.38 | 171620 | 187182
12 | 41:35.58 | 4:41.03 | 187183 | 208260
13 | 46:16.61 | 4:50.23 | 208261 | 230033
14 | 51:07.09 | 3:30.15 | 230034 | 245798


Range status and errors

Selected range

Filename C:\Program Files (x86)\Exact Audio Copy\Flac\Bellini - La Straniera CD2.wav

Peak level 96.5 %
Extraction speed 1.9 X
Range quality 100.0 %
Test CRC C79A2522
Copy CRC C79A2522
Copy OK

No errors occurred


AccurateRip summary

Track 1 accurately ripped (confidence 1) [561D4CAB] (AR v2)
Track 2 accurately ripped (confidence 1) [487FD843] (AR v2)
Track 3 accurately ripped (confidence 1) [02C53895] (AR v2)
Track 4 accurately ripped (confidence 1) [E8B274DC] (AR v2)
Track 5 accurately ripped (confidence 1) [A53E10B9] (AR v2)
Track 6 accurately ripped (confidence 1) [DF5F4749] (AR v2)
Track 7 accurately ripped (confidence 1) [1731BD14] (AR v2)
Track 8 accurately ripped (confidence 1) [52573CAD] (AR v2)
Track 9 accurately ripped (confidence 1) [E74E59CF] (AR v2)
Track 10 accurately ripped (confidence 1) [E083F010] (AR v2)
Track 11 accurately ripped (confidence 1) [1FDCEB10] (AR v2)
Track 12 accurately ripped (confidence 1) [480AC0CC] (AR v2)
Track 13 accurately ripped (confidence 1) [62623E69] (AR v2)
Track 14 accurately ripped (confidence 1) [F0954873] (AR v2)

All tracks accurately ripped

End of status report

–– CUETools DB Plugin V2.1.3

[CTDB TOCID: 53Pdoyx5iSMV2vI_lNTYtoVcK3Y-] disk not present in database, Submit result: 53Pdoyx5iSMV2vI_lNTYtoVcK3Y- has been uploaded


==== Log checksum DCCE5BB55EE8F66FE6A3D20D3244166E33780544B57858C26555DBA80DD3BE6F ====


Personnel:
Alaide - Renata Scotto
Arturo - Beniamino Prior
Valdeburgo - Domenico Trimarchi
Prior - Maurizio Mazzieri
Isoletta - Elena Zilio
Montolino - Francesco Signor
Osburgo - Florindo Andreolli
Orchestra & Chorus of Teatro La Fenice
Conductor - Ettore Gracis

CD06. Puccini - Madama Butterfly; CD1:63'21; CD2:54'37
Giacomo Puccini 1858-1924
CD1
01. Atto I. E soffitto… e pareti…
02. Dovunque al mondo
03. Ler l'altro, il Consolato sen' venne a visitar!
04. Ecco. Son giunti al sommo del pendio… Ah! Quanto cielo!
05. Bimba, bimba non piangere
06. Viene la sera
07. Vogliatemi bene
08. Atto II. E lzaghi ed lzanami
09. Un bel di, vedremo

Exact Audio Copy V1.0 beta 3 from 29. August 2011

EAC extraction logfile from 29. August 2014, 11:40

Arturo Basile, Renata Scotto, Renato Cioni / Puccini - Madama Butterfly CD1

Used drive : PIONEER DVD-RW DVR-218L Adapter: 0 ID: 0

Read mode : Secure
Utilize accurate stream : Yes
Defeat audio cache : Yes
Make use of C2 pointers : No

Read offset correction : 6
Overread into Lead-In and Lead-Out : No
Fill up missing offset samples with silence : Yes
Delete leading and trailing silent blocks : No
Null samples used in CRC calculations : Yes
Used interface : Native Win32 interface for Win NT & 2000

Used output format : User Defined Encoder
Selected bitrate : 128 kBit/s
Quality : High
Add ID3 tag : No
Command line compressor : C:\Program Files (x86)\Exact Audio Copy\Flac\flac.exe
Additional command line options : -V -8 -T "Date=%year%" -T "Genre=%genre%" %source%


TOC of the extracted CD

Track | Start | Length | Start sector | End sector
––––––––––––––––––––––––––––-
1 | 0:00.00 | 6:27.32 | 0 | 29056
2 | 6:27.32 | 5:01.45 | 29057 | 51676
3 | 11:29.02 | 1:55.30 | 51677 | 60331
4 | 13:24.32 | 20:29.43 | 60332 | 152549
5 | 33:54.00 | 2:02.27 | 152550 | 161726
6 | 35:56.27 | 7:18.50 | 161727 | 194626
7 | 43:15.02 | 8:10.68 | 194627 | 231444
8 | 51:25.70 | 7:04.15 | 231445 | 263259
9 | 58:30.10 | 4:47.07 | 263260 | 284791


Range status and errors

Selected range

Filename C:\Program Files (x86)\Exact Audio Copy\Flac\Puccini - Madama Butterfly CD1.wav

Peak level 100.0 %
Extraction speed 2.0 X
Range quality 100.0 %
Test CRC 479463A6
Copy CRC 479463A6
Copy OK

No errors occurred


AccurateRip summary

Track 1 accurately ripped (confidence 1) [90F7F0DB] (AR v2)
Track 2 accurately ripped (confidence 1) [BBDEF397] (AR v2)
Track 3 accurately ripped (confidence 1) [AFCF3B73] (AR v2)
Track 4 accurately ripped (confidence 1) [1CD2219D] (AR v2)
Track 5 accurately ripped (confidence 1) [CD74046B] (AR v2)
Track 6 accurately ripped (confidence 1) [E7F975C4] (AR v2)
Track 7 accurately ripped (confidence 1) [8F80EB4A] (AR v2)
Track 8 accurately ripped (confidence 1) [D4BEDA62] (AR v2)
Track 9 accurately ripped (confidence 1) [FD7C512F] (AR v2)

All tracks accurately ripped

End of status report

–– CUETools DB Plugin V2.1.3

[CTDB TOCID: fzuGvwgJH0b1mdjoGd2oGZFP54Q-] found, Submit result: fzuGvwgJH0b1mdjoGd2oGZFP54Q- has been confirmed
[4095aafa] (2/2) Accurately ripped


==== Log checksum 23751389222F2EAF2CF893148742F6038E73D3D285BC35E6F03FC3E12393A7DB ====


CD2
01. C'è. Entrate
02. Incominciate
03. Due cose potrei far
04. Che tua madre dovrà
05. Il cannone del porto!
06. Scuoti quella fronda di ciliegio
07. Humming Chorus
08. Atto III. Intermezzo
09. Già il sole
10. Io so che alle sue pene
11. Addio, fiorito asil
12. "Con onor muore"

Exact Audio Copy V1.0 beta 3 from 29. August 2011

EAC extraction logfile from 29. August 2014, 12:55

Arturo Basile, Renata Scotto, Renato Cioni / Puccini - Madama Butterfly CD2

Used drive : PIONEER DVD-RW DVR-218L Adapter: 0 ID: 0

Read mode : Secure
Utilize accurate stream : Yes
Defeat audio cache : Yes
Make use of C2 pointers : No

Read offset correction : 6
Overread into Lead-In and Lead-Out : No
Fill up missing offset samples with silence : Yes
Delete leading and trailing silent blocks : No
Null samples used in CRC calculations : Yes
Used interface : Native Win32 interface for Win NT & 2000

Used output format : User Defined Encoder
Selected bitrate : 128 kBit/s
Quality : High
Add ID3 tag : No
Command line compressor : C:\Program Files (x86)\Exact Audio Copy\Flac\flac.exe
Additional command line options : -V -8 -T "Date=%year%" -T "Genre=%genre%" %source%


TOC of the extracted CD

Track | Start | Length | Start sector | End sector
––––––––––––––––––––––––––––-
1 | 0:00.00 | 9:31.00 | 0 | 42824
2 | 9:31.00 | 2:34.25 | 42825 | 54399
3 | 12:05.25 | 4:25.45 | 54400 | 74319
4 | 16:30.70 | 6:20.65 | 74320 | 102884
5 | 22:51.60 | 2:45.42 | 102885 | 115301
6 | 25:37.27 | 10:43.55 | 115302 | 163581
7 | 36:21.07 | 3:18.15 | 163582 | 178446
8 | 39:39.22 | 7:26.68 | 178447 | 211964
9 | 47:06.15 | 4:28.25 | 211965 | 232089
10 | 51:34.40 | 3:19.30 | 232090 | 247044
11 | 54:53.70 | 11:59.60 | 247045 | 301029
12 | 66:53.55 | 5:25.65 | 301030 | 325469


Range status and errors

Selected range

Filename C:\Program Files (x86)\Exact Audio Copy\Flac\Puccini - Madama Butterfly CD2.wav

Peak level 100.0 %
Extraction speed 2.1 X
Range quality 99.9 %
Test CRC A68089CF
Copy CRC A68089CF
Copy OK

No errors occurred


AccurateRip summary

Track 1 accurately ripped (confidence 1) [B9D08E22] (AR v2)
Track 2 accurately ripped (confidence 1) [DD761749] (AR v2)
Track 3 accurately ripped (confidence 1) [3040B5C5] (AR v2)
Track 4 accurately ripped (confidence 1) [EFE4CF96] (AR v2)
Track 5 accurately ripped (confidence 1) [4F5A2D61] (AR v2)
Track 6 accurately ripped (confidence 1) [C77F9E0E] (AR v2)
Track 7 accurately ripped (confidence 1) [4B91266F] (AR v2)
Track 8 accurately ripped (confidence 1) [B8208EA4] (AR v2)
Track 9 accurately ripped (confidence 1) [41E032BB] (AR v2)
Track 10 accurately ripped (confidence 1) [CBF10290] (AR v2)
Track 11 accurately ripped (confidence 1) [24678AE5] (AR v2)
Track 12 accurately ripped (confidence 1) [28F83040] (AR v2)

All tracks accurately ripped

End of status report

–– CUETools DB Plugin V2.1.3

[CTDB TOCID: 26KLXZXsYhiGBxolrHKX4JY8jWI-] found, Submit result: 26KLXZXsYhiGBxolrHKX4JY8jWI- has been confirmed
[806645fd] (2/2) Accurately ripped


==== Log checksum 4043F7460D8B53A4F9337A3D4A5F7782939A01B4244BC285021ED5CCC16D40C7 ====


Personnel:
Butterfly - Renata Scotto
B.F.Pinkerton - Renato Cioni
Sharpless - Alberto Rinaldi
Suzuki - Franca Mattiucci
Goro - Franco Ricciardi
Yamadori - Silvio Maionica
Bonze - Vito Susca
Kate Pinkerton - Luciana Palombi
RAI Symphony Orchestra & Chorus, Turin
Conductor - Arturo Basile

CD07. Verdi - La Traviata; CD1:58'17; CD2:65'52
Giuseppe Verdi 1813-1901
CD1
01. Preludio
02. Atto I. Dell'invito trascorsa è già l'ora
03. Libiamo ne' lieti calici
04. Che è ciò?
05. Oh, qual pallor!
06. Un di, felice, eterea
07. Ebben? che diavol fate?
08. Si ridesta in ciel l'aurora
09. È strano!… Ah, fors' è lui
10. Follie! Follie!… Sempra libera
11. Atto II. Lunge da lei… De' miei bollenti spiriti
12. Annina, donde vieni?
13. Alfredo?… Per Parigi or partiva
14. Madamigella Valery?
15. Pura siccome un angelo
16. Ah, dite alla giovine
17. Inponete… Morro! La mia memoria

Exact Audio Copy V1.0 beta 3 from 29. August 2011

EAC extraction logfile from 29. August 2014, 14:31

Nino Verchi, Renata Scotto, José Carreras, Sesto Bruscantini / Verdi - La Traviata CD1

Used drive : PIONEER DVD-RW DVR-218L Adapter: 0 ID: 0

Read mode : Secure
Utilize accurate stream : Yes
Defeat audio cache : Yes
Make use of C2 pointers : No

Read offset correction : 6
Overread into Lead-In and Lead-Out : No
Fill up missing offset samples with silence : Yes
Delete leading and trailing silent blocks : No
Null samples used in CRC calculations : Yes
Used interface : Native Win32 interface for Win NT & 2000

Used output format : User Defined Encoder
Selected bitrate : 128 kBit/s
Quality : High
Add ID3 tag : No
Command line compressor : C:\Program Files (x86)\Exact Audio Copy\Flac\flac.exe
Additional command line options : -V -8 -T "Date=%year%" -T "Genre=%genre%" %source%


TOC of the extracted CD

Track | Start | Length | Start sector | End sector
––––––––––––––––––––––––––––-
1 | 0:00.00 | 3:42.68 | 0 | 16717
2 | 3:42.68 | 5:09.52 | 16718 | 39944
3 | 8:52.45 | 3:16.28 | 39945 | 54672
4 | 12:08.73 | 1:02.50 | 54673 | 59372
5 | 13:11.48 | 1:24.02 | 59373 | 65674
6 | 14:35.50 | 3:53.00 | 65675 | 83149
7 | 18:28.50 | 1:23.39 | 83150 | 89413
8 | 19:52.14 | 1:36.34 | 89414 | 96647
9 | 21:28.48 | 5:11.42 | 96648 | 120014
10 | 26:40.15 | 5:43.25 | 120015 | 145764
11 | 32:23.40 | 4:05.37 | 145765 | 164176
12 | 36:29.02 | 0:50.34 | 164177 | 167960
13 | 37:19.36 | 0:52.50 | 167961 | 171910
14 | 38:12.11 | 3:15.28 | 171911 | 186563
15 | 41:27.39 | 6:53.61 | 186564 | 217599
16 | 48:21.25 | 5:04.37 | 217600 | 240436
17 | 53:25.62 | 4:51.06 | 240437 | 262267


Range status and errors

Selected range

Filename C:\Program Files (x86)\Exact Audio Copy\Flac\Verdi - La Traviata CD1.wav

Peak level 96.6 %
Extraction speed 1.9 X
Range quality 100.0 %
Test CRC 34935006
Copy CRC 34935006
Copy OK

No errors occurred


AccurateRip summary

Track 1 accurately ripped (confidence 2) [60262E22] (AR v2)
Track 2 accurately ripped (confidence 2) [8ED0ACB6] (AR v2)
Track 3 accurately ripped (confidence 2) [1AA85797] (AR v2)
Track 4 accurately ripped (confidence 2) [6B5E9A0F] (AR v2)
Track 5 accurately ripped (confidence 2) [C149C6C3] (AR v2)
Track 6 accurately ripped (confidence 2) [4EB814A2] (AR v2)
Track 7 accurately ripped (confidence 2) [6DCA7993] (AR v2)
Track 8 accurately ripped (confidence 2) [F99D2064] (AR v2)
Track 9 accurately ripped (confidence 2) [5D1DB356] (AR v2)
Track 10 accurately ripped (confidence 2) [23ACF37B] (AR v2)
Track 11 accurately ripped (confidence 2) [9D6309EF] (AR v2)
Track 12 accurately ripped (confidence 2) [FC6C8255] (AR v2)
Track 13 accurately ripped (confidence 2) [F7026088] (AR v2)
Track 14 accurately ripped (confidence 2) [F0B806AB] (AR v2)
Track 15 accurately ripped (confidence 2) [45D79D84] (AR v2)
Track 16 accurately ripped (confidence 2) [CD885989] (AR v2)
Track 17 accurately ripped (confidence 2) [2EFF9737] (AR v2)

All tracks accurately ripped

End of status report

–– CUETools DB Plugin V2.1.3

[CTDB TOCID: dw28LnqKbYm2Jw5Qxa0gYhgxNUI-] found, Submit result: dw28LnqKbYm2Jw5Qxa0gYhgxNUI- has been confirmed
[ea75a00f] (6/6) Accurately ripped


==== Log checksum 52242C154DAF4BFDDF4D2D20538E7CA801EE18FE46A364AAE5BAD4A2A6F63EC7 ====


CD2
01. Dammi tu forza, o cielo!
02. Che fai?
03. Ah, vive sol quel core
04. Di Provensa il mar, il suol
05. Né rispondi d'un padre all'affetto?
06. Avrem lieta di maschere la notte
07. Di Madride no siam mattadori
08. Alfredo! Voi!
09. Invitato a qui seguirmi
10. Ogni suo aver tal femmina
11. Di sprezzo degno
12. Atto III. Prelude
13. Annina?… Comandate?
14. Teneste la promessa … Attendo, ne a me guigon mai
15. Largo al quadrupede
16. Parigi, o cara
17. Ah, no più!… Gran Dio! Morir sì giovine
18. Ah, Violetta! - Voi, signor!
19. Prendi, quest'é l'imagine

Exact Audio Copy V1.0 beta 3 from 29. August 2011

EAC extraction logfile from 29. August 2014, 15:45

Nino Verchi, Renata Scotto, José Carreras, Sesto Bruscantini / Verdi - La Traviata CD2

Used drive : PIONEER DVD-RW DVR-218L Adapter: 0 ID: 0

Read mode : Secure
Utilize accurate stream : Yes
Defeat audio cache : Yes
Make use of C2 pointers : No

Read offset correction : 6
Overread into Lead-In and Lead-Out : No
Fill up missing offset samples with silence : Yes
Delete leading and trailing silent blocks : No
Null samples used in CRC calculations : Yes
Used interface : Native Win32 interface for Win NT & 2000

Used output format : User Defined Encoder
Selected bitrate : 128 kBit/s
Quality : High
Add ID3 tag : No
Command line compressor : C:\Program Files (x86)\Exact Audio Copy\Flac\flac.exe
Additional command line options : -V -8 -T "Date=%year%" -T "Genre=%genre%" %source%


TOC of the extracted CD

Track | Start | Length | Start sector | End sector
––––––––––––––––––––––––––––-
1 | 0:00.00 | 1:43.12 | 0 | 7736
2 | 1:43.12 | 2:46.54 | 7737 | 20240
3 | 4:29.66 | 2:13.49 | 20241 | 30264
4 | 6:43.40 | 5:52.32 | 30265 | 56696
5 | 12:35.72 | 1:23.60 | 56697 | 62981
6 | 13:59.57 | 4:02.71 | 62982 | 81202
7 | 18:02.53 | 3:04.70 | 81203 | 95072
8 | 21:07.48 | 4:18.03 | 95073 | 114425
9 | 25:25.51 | 2:26.08 | 114426 | 125383
10 | 27:51.59 | 1:35.64 | 125384 | 132572
11 | 29:27.48 | 6:38.57 | 132573 | 162479
12 | 36:06.30 | 3:42.45 | 162480 | 179174
13 | 39:49.00 | 4:28.58 | 179175 | 199332
14 | 44:17.58 | 5:06.41 | 199333 | 222323
15 | 49:24.24 | 2:06.61 | 222324 | 231834
16 | 51:31.10 | 4:11.22 | 231835 | 250681
17 | 55:42.32 | 3:35.63 | 250682 | 266869
18 | 59:18.20 | 1:49.70 | 266870 | 275114
19 | 61:08.15 | 4:43.30 | 275115 | 296369


Range status and errors

Selected range

Filename C:\Program Files (x86)\Exact Audio Copy\Flac\Verdi - La Traviata CD2.wav

Peak level 96.6 %
Extraction speed 2.0 X
Range quality 100.0 %
Test CRC 0978B0F4
Copy CRC 0978B0F4
Copy OK

No errors occurred


AccurateRip summary

Track 1 accurately ripped (confidence 2) [5AC90941] (AR v2)
Track 2 accurately ripped (confidence 2) [C075259D] (AR v2)
Track 3 accurately ripped (confidence 2) [86A3C0E8] (AR v2)
Track 4 accurately ripped (confidence 2) [A02EC409] (AR v2)
Track 5 accurately ripped (confidence 2) [B41E5A44] (AR v2)
Track 6 accurately ripped (confidence 2) [28098A57] (AR v2)
Track 7 accurately ripped (confidence 2) [9D2C640D] (AR v2)
Track 8 accurately ripped (confidence 2) [189795CC] (AR v2)
Track 9 accurately ripped (confidence 2) [E3F6EC9D] (AR v2)
Track 10 accurately ripped (confidence 2) [B80E77AA] (AR v2)
Track 11 accurately ripped (confidence 2) [88277BF4] (AR v2)
Track 12 accurately ripped (confidence 2) [DD06DCE6] (AR v2)
Track 13 accurately ripped (confidence 2) [95F35458] (AR v2)
Track 14 accurately ripped (confidence 2) [08C66BE0] (AR v2)
Track 15 accurately ripped (confidence 2) [D37958A3] (AR v2)
Track 16 accurately ripped (confidence 2) [EB7BF93B] (AR v2)
Track 17 accurately ripped (confidence 2) [A0F66C13] (AR v2)
Track 18 accurately ripped (confidence 2) [DEBB2BDC] (AR v2)
Track 19 accurately ripped (confidence 2) [59EE7B43] (AR v2)

All tracks accurately ripped

End of status report

–– CUETools DB Plugin V2.1.3

[CTDB TOCID: uFZ1ZaNeGFW3kzs8CebR_hIL9Bc-] found, Submit result: uFZ1ZaNeGFW3kzs8CebR_hIL9Bc- has been confirmed
[39c39651] (6/6) Accurately ripped


==== Log checksum 25A08384453C0911ABD035930B6D93FB87DAEEF380F1821EA6016A04158D9F4C ====


Personnel:
Violetta Valery - Renata Scotto
Alfredo Germont - José Carreras
Giorgio Germont - Sesto Bruscantini
Annina - Anna Pedrotti
Baron Douphol - Guido Mazzini
Gastone - Fernando Jacopucci
Merquis d'Obigny - Franco Lombardi
Doctor Grenvil - Carlo Meliciani
Conductor - Nino Verchi

Thanks to original ripper.