Tags
Language
Tags

Renaud Capuçon, Simon Rattle, London Symphony Orchestra, Stephen Hough - Edward Elgar: Violin Concerto; Violin Sonata (2021)

Posted By: ArlegZ
Renaud Capuçon, Simon Rattle, London Symphony Orchestra, Stephen Hough - Edward Elgar: Violin Concerto; Violin Sonata (2021)

Renaud Capuçon, Simon Rattle, London Symphony Orchestra, Stephen Hough - Edward Elgar: Violin Concerto; Violin Sonata (2021)
EAC | FLAC | Image (Cue & Log) ~ 310 Mb | Total time: 74:31 | Scans included
Classical | Label: Erato | # 0190295112820 | Recorded: 2020

Elgar's violin concerto - distinctively passionate and nostalgic - is one of the great late-Romantic concertos. "It is a huge piece," says Renaud Capuçon "both in terms of it's length and it's romantic and noble nature." This is Capuçon's first recording with Sir Simon Rattle, here conducting the London Symphony Orchestra. When Rattle chose Elgar's Enigma Variations for his inaugural concert as the LSO's music director in 2017, he was celebrating the close historic links between the composer and the orchestra. Not only did the LSO accompany Fritz Kreisler in the premiere of the violin concerto in 1910, Elgar became it's Principal Conductor the following year. Paired with the concerto on this album is his violin sonata, first performed in 1919. Renaud Capuçon, who calls the sonata "a work of nobility and tenderness", is joined by one of the leading British pianists of today, Stephen Hough.

Performer:
Renaud Capuçon, violin
Stephen Hough, piano
London Symphony Orchestra
Simon Rattle, conductor

Track List:
Violin Concerto in B Minor, Op. 61 (1910)
01. I. Allegro
02. II. Andante
03. III. Allegro molto
Violin Sonata in E Minor, Op. 82 (1918)
04. I. Allegro
05. II. Romance. Andante
06. III. Allegro non troppo


Exact Audio Copy V1.3 from 2. September 2016

EAC extraction logfile from 22. March 2021, 23:23

Renaud Capuçon / Elgar - Violin Concerto; Violin Sonata

Used drive : HL-DT-STDVDRAM GH24NS95 Adapter: 1 ID: 0

Read mode : Secure
Utilize accurate stream : Yes
Defeat audio cache : Yes
Make use of C2 pointers : No

Read offset correction : 6
Overread into Lead-In and Lead-Out : No
Fill up missing offset samples with silence : Yes
Delete leading and trailing silent blocks : No
Null samples used in CRC calculations : Yes
Used interface : Native Win32 interface for Win NT & 2000

Used output format : User Defined Encoder
Selected bitrate : 768 kBit/s
Quality : High
Add ID3 tag : No
Command line compressor : C:\Program Files\Exact Audio Copy\FLAC\FLAC.EXE
Additional command line options : -6 -V -T "ARTIST=%artist%" -T "TITLE=%title%" -T "ALBUM=%albumtitle%" -T "DATE=%year%" -T "TRACKNUMBER=%tracknr%" -T "GENRE=%genre%" -T "COMMENT=%comment%" -T "BAND=%albuminterpret%" -T "ALBUMARTIST=%albuminterpret%" -T "COMPOSER=%composer%" %haslyrics%–tag-from-file=LYRICS="%lyricsfile%"%haslyrics% -T "DISCNUMBER=%cdnumber%" -T "TOTALDISCS=%totalcds%" -T "TOTALTRACKS=%numtracks%" %hascover%–picture="%coverfile%"%hascover% %source% -o %dest%


TOC of the extracted CD

Track | Start | Length | Start sector | End sector
––––––––––––––––––––––––––––-
1 | 0:00.00 | 18:30.37 | 0 | 83286
2 | 18:30.37 | 12:51.16 | 83287 | 141127
3 | 31:21.53 | 18:55.23 | 141128 | 226275
4 | 50:17.01 | 7:41.11 | 226276 | 260861
5 | 57:58.12 | 7:36.34 | 260862 | 295095
6 | 65:34.46 | 8:41.13 | 295096 | 334183


Range status and errors

Selected range

Filename C:\Program Files\Exact Audio Copy\Renaud Capucon - Elgar - Violin Concerto; Violin Sonata.wav

Peak level 96.9 %
Extraction speed 2.1 X
Range quality 99.9 %
Test CRC 3655A80F
Copy CRC 3655A80F
Copy OK

No errors occurred


AccurateRip summary

Track 1 not present in database
Track 2 not present in database
Track 3 not present in database
Track 4 not present in database
Track 5 not present in database
Track 6 not present in database

None of the tracks are present in the AccurateRip database

End of status report

Renaud Capuçon, Simon Rattle, London Symphony Orchestra, Stephen Hough - Edward Elgar: Violin Concerto; Violin Sonata (2021)

Thanks to the original releaser