Tags
Language
Tags

Rene Jacobs, Ensemble 415, Chiara Banchini - J.S. Bach: Cantates pour alto BWV 35, 53 & 82 (2003) (Repost)

Posted By: tirexiss
Rene Jacobs, Ensemble 415, Chiara Banchini - J.S. Bach: Cantates pour alto BWV 35, 53 & 82 (2003) (Repost)

Rene Jacobs, Ensemble 415, Chiara Banchini - J.S. Bach: Cantates pour alto BWV 35, 53 & 82 (2003)
EAC | FLAC (image+.cue, log) | Covers Included | 58:58 | 319 MB
Genre: Classical, Vocal | Label: Harmonia Mundi | Catalog: HMA 1951273

René Jacobs began his career as a countertenor and quickly earned the reputation as one of the finest of his time. But he gradually turned to conducting and since the turn of the new century has rarely sung in concert. As a countertenor Jacobs championed a string of forgotten Baroque composers on his recordings: Antonio Cesti, Sigismondo d'India, Luca Marenzio, Pierre Guédron, Michel Lambert, and others. But he also sang, in both concert and opera, many standards by Monteverdi, J.S. Bach, Handel, Telemann, and Mozart. As a conductor, he has led many performances of sacred music by J.S. Bach, Buxtehude, and others, and has focused heavily on the operas of Monteverdi, Handel, and Mozart. He has conducted purely orchestral music as well, notably symphonies by Haydn and Mozart. Many of Jacobs' 100-plus recordings are available on Harmonia Mundi, Deutsche Harmonia Mundi, Berlin Classics, Capriccio, and Arthaus Musik.

Rene Jacobs, Ensemble 415, Chiara Banchini - J.S. Bach: Cantates pour alto BWV 35, 53 & 82 (2003) (Repost)

Track List:

Geist und Seele wird verwirret BWV 35
Prima parte
[1] Concerto 5’29
[2] Aria Geist und Seele 7’42
[3| Recitativo Ich wundre mich 1’31
[4| Aria Gott hat alles wohlgemacht 3’23
Seconda parte
[5] Sinfonia 3’28
[6] Recitativo Ach, starker Gott 1’10
[7] Aria Ich wünsche nur, bei Gott zu leben 1’58
Ich habe genung BWV 82
[8] Aria Ich habe genung 7’41
[9] Recitativo Ich habe genung 1’22
[10] Aria Schlummert ein, ihr matten Augen 10’49
[11] Recitativo Mein Gott! 0’51
[12] Aria Ich freue mich auf meinen Tod 3’58
[13] Schlage doch, gewünschte Stunde BWV 53 8’09

Performers:
Rene Jacobs, contre-tenor
Paul Dombrecht, hautbois
Gordon Murray, orgue
Ensemble 415
Chiara Banchini, violon et direction

Exact Audio Copy V0.99 prebeta 5 from 4. May 2009

EAC extraction logfile from 2. April 2010, 22:40

Chiara Banchini / Bach: Alto Cantatas

Used drive : Optiarc DVD RW AD-7203S Adapter: 5 ID: 0

Read mode : Secure
Utilize accurate stream : Yes
Defeat audio cache : Yes
Make use of C2 pointers : No

Read offset correction : 48
Overread into Lead-In and Lead-Out : No
Fill up missing offset samples with silence : Yes
Delete leading and trailing silent blocks : No
Null samples used in CRC calculations : Yes
Used interface : Installed external ASPI interface

Used output format : User Defined Encoder
Selected bitrate : 896 kBit/s
Quality : High
Add ID3 tag : No
Command line compressor : E:\Programms\wavpack-4.60.1\wavpack.exe
Additional command line options : -hlmx2 %s


TOC of the extracted CD

Track | Start | Length | Start sector | End sector
––––––––––––––––––––––––––––-
1 | 0:00.00 | 5:33.67 | 0 | 25041
2 | 5:33.67 | 7:44.33 | 25042 | 59874
3 | 13:18.25 | 1:31.45 | 59875 | 66744
4 | 14:49.70 | 3:26.70 | 66745 | 82264
5 | 18:16.65 | 3:28.07 | 82265 | 97871
6 | 21:44.72 | 1:09.58 | 97872 | 103104
7 | 22:54.55 | 3:01.02 | 103105 | 116681
8 | 25:55.57 | 7:46.48 | 116682 | 151679
9 | 33:42.30 | 1:21.67 | 151680 | 157821
10 | 35:04.22 | 10:51.05 | 157822 | 206651
11 | 45:55.27 | 0:52.20 | 206652 | 210571
12 | 46:47.47 | 4:01.55 | 210572 | 228701
13 | 50:49.27 | 8:08.48 | 228702 | 265349


Range status and errors

Selected range

Filename H:\Audio CD\Bach 415\Chiara Banchini - Bach Alto Cantatas.wav

Peak level 97.5 %
Range quality 100.0 %
Test CRC 202337CD
Copy CRC 202337CD
Copy OK

No errors occurred


AccurateRip summary

Track 1 accurately ripped (confidence 6) [1609C327]
Track 2 accurately ripped (confidence 5) [A997D279]
Track 3 accurately ripped (confidence 4) [2E2EAF8C]
Track 4 accurately ripped (confidence 5) [6BFDEC78]
Track 5 accurately ripped (confidence 5) [42F460BE]
Track 6 accurately ripped (confidence 5) [9EE8C76A]
Track 7 accurately ripped (confidence 5) [DA07E245]
Track 8 accurately ripped (confidence 5) [6A8591CA]
Track 9 accurately ripped (confidence 5) [052F7BA3]
Track 10 accurately ripped (confidence 5) [FC003F1D]
Track 11 accurately ripped (confidence 5) [7A02CFEC]
Track 12 accurately ripped (confidence 5) [755E75EE]
Track 13 accurately ripped (confidence 5) [B6596A72]

All tracks accurately ripped

End of status report

Thanks to the Original ripper (unknown)!

Download: