Subcategories

Sophia Jaffe, Rundfunk-Sinfonieorchester Berlin & Marcus Bosch - Reznicek: Orchestral Works (2016)

Posted By: SERTiL
Sophia Jaffe, Rundfunk-Sinfonieorchester Berlin & Marcus Bosch - Reznicek: Orchestral Works (2016)

Sophia Jaffe, Rundfunk-Sinfonieorchester Berlin & Marcus Bosch - Reznicek: Orchestral Works
Classical | WEB FLAC (tracks) & d. booklet | 67:59 min | 337 MB
Label: CPO | Tracks: 08 | Rls.date: 2016

The musical chameleon Emil Nikolaus von Reznicek is one of the late German Romantic composers, whose multifaceted style makes him difficult to classify. Prior to the inauguration of CPO's grand edition of Reznicek's major works a few years ago, he was known to classical music fans solely as the composer of the Donna Diana Overture. In the meantime things have changed: on our many Reznicek releases listeners can experience for themselves all the Stunts seriously intended ones, mind you performed by this master of metamorphosis.

Well worth a listen if you are curious about a figure once hailed as the equal to Strauss and Pfitzner. –Gramophone,Dec'16

Genial and generous works, beautifully and lovingly played and recorded. –Music Web, Feb'17

TRACKLIST
01. Goldpirol Overture (In deutschen Wald)
02. Wie Till Eulenspiegel lebte
03. Konzertstück in E Major: I. Allegro moderato
04. Konzertstück in E Major: II. Tranquillo-Andante espressivo-Adagio-Con espressivo-Largo
05. Konzertstück in E Major: III. Allegro ma non troppo
06. Präludium und Fuge in C Minor: Präludium
07. Präludium und Fuge in C Minor: Fuge
08. Nachtstück

PERFORMER: auCDtect Task Manager, ver. 1.6.0 RC1 build 1.6.0.1
Copyright © 2008-2010 y-soft. All rights reserved

ANALYZER: auCDtect: CD records authenticity detector, version 0.8.2
Copyright © 2004 Oleg Berngardt. All rights reserved.
Copyright © 2004 Alexander Djourik. All rights reserved.


FILE: 08. Nachtstück - Erez Ofer.flac
Size: 36629645 Hash: A5D799A00A2C9C49B34A71A800AAECF9 Accuracy: -m0
Conclusion: CDDA 100%
Signature: EDD184954121F90A215225B3F3B497A80D9070F2
FILE: 07. Präludium und Fuge in C Minor Fuge - Rundfunk-Sinfonieorchester Berlin.flac
Size: 34492457 Hash: 8B9D55ACCF48D5CAAD8277F9220DAC3A Accuracy: -m0
Conclusion: CDDA 100%
Signature: 06D4B43E03DE0A24A735CFB91D577DEC3A5D3886
FILE: 06. Präludium und Fuge in C Minor Präludium - Rundfunk-Sinfonieorchester Berlin.flac
Size: 12838213 Hash: 2292EA680747545DB8A40E76B2412013 Accuracy: -m0
Conclusion: CDDA 100%
Signature: E8516398BA9B1392A1828AFFF108A469F684FB20
FILE: 05. Konzertstück in E Major III. Allegro ma non troppo - Sophia Jaffé.flac
Size: 46195979 Hash: E10A1439FA9AC1880577A951D7278B7B Accuracy: -m0
Conclusion: CDDA 100%
Signature: FE7FD26AFE23E128344E27308CF4682C420BEC2A
FILE: 04. Konzertstück in E Major II. Tranquillo-Andante espressivo-Adagio-Con espressivo-Largo - Sophia Jaffé.flac
Size: 32690505 Hash: 6DCFE6685B3E4C1D37AD26436E7A7413 Accuracy: -m0
Conclusion: CDDA 100%
Signature: F935F92705D8EF1154035DDEE1F818078D96175C
FILE: 03. Konzertstück in E Major I. Allegro moderato - - Sophia Jaffé.flac
Size: 30947557 Hash: A9247F360F6A5DD6D0FFE2A40EB78076 Accuracy: -m0
Conclusion: CDDA 99%
Signature: D8A0FB503B191E728B3F4AB603240B7C0E265040
FILE: 02. Wie Till Eulenspiegel lebte - Rundfunk-Sinfonieorchester Berlin.flac
Size: 67312987 Hash: B05CF9CAE099C10993FC93F71857D204 Accuracy: -m0
Conclusion: CDDA 100%
Signature: EC1F5C47476CC8EB26451281E8F8D48955B983BE
FILE: 01. Goldpirol Overture (In deutschen Wald) - Rundfunk-Sinfonieorchester Berlin.flac
Size: 50897786 Hash: 507C837B417C8966C5D552B3C6AA975B Accuracy: -m0
Conclusion: CDDA 100%
Signature: 44257A336D3E18BA3FCA90BF3A29463118671FE0

foobar2000 1.3.7 / Dynamic Range Meter 1.1.1
log date: 2017-10-10 21:07:33

––––––––––––––––––––––––––––––––––––––––
Analyzed: - Sophia Jaffé / Reznicek: Orchestral Works (1)
Erez Ofer / Reznicek: Orchestral Works (2)
Rundfunk-Sinfonieorchester Berlin / Reznicek: Orchestral Works (3-6)
Sophia Jaffé / Reznicek: Orchestral Works (7-8)
––––––––––––––––––––––––––––––––––––––––

DR Peak RMS Duration Track
––––––––––––––––––––––––––––––––––––––––
DR16 -4.03 dB -26.21 dB 6:15 03-Konzertstück in E Major: I. Allegro moderato
DR13 -10.58 dB -30.66 dB 8:42 08-Nachtstück
DR15 -2.10 dB -22.90 dB 11:27 01-Goldpirol Overture (In deutschen Wald)
DR15 -1.02 dB -21.09 dB 14:04 02-Wie Till Eulenspiegel lebte
DR14 -5.32 dB -27.59 dB 3:23 06-Präludium und Fuge in C Minor: Präludium
DR15 -0.05 dB -20.75 dB 7:40 07-Präludium und Fuge in C Minor: Fuge
DR14 -8.80 dB -31.93 dB 7:37 04-Konzertstück in E Major: II. Tranquillo-Andante espressivo-Adagio-Con espressivo-Largo
DR18 -0.03 dB -24.67 dB 8:55 05-Konzertstück in E Major: III. Allegro ma non troppo
––––––––––––––––––––––––––––––––––––––––

Number of tracks: 8
Official DR value: DR15

Samplerate: 44100 Hz
Channels: 2
Bits per sample: 16
Bitrate: 686 kbps
Codec: FLAC
================================================================================


Sophia Jaffe, Rundfunk-Sinfonieorchester Berlin & Marcus Bosch - Reznicek: Orchestral Works (2016)


Thanks to the Original customer.