Subcategories

Ricercar Consort, La Pastorella - Telemann: Les Plaisirs de la Table (2008)

Posted By: tirexiss
Ricercar Consort, La Pastorella - Telemann: Les Plaisirs de la Table (2008)

Ricercar Consort, La Pastorella - Telemann: Les Plaisirs de la Table (2008)
XLD | FLAC (image+.cue, log) | Covers Included | 07:52:50 | 2,33 Gb
Genre: Classical | Label: Ricercar | Catalog: RIC 270

This bargain box contains recordings made between 1988 and 1999 accompanied by extensive introductory material. Alongside five CDs devoted exclusively to Telemann, and almost every work for recorder that he composed, are one of music for French horn and another of music for the rarer instruments of the baroque flute family. Works by composers contemporary with the Hamburg Kapellmeister have also been included in this new selection of re-releases from the Ricercar back catalogue.

Ricercar Consort, La Pastorella - Telemann: Les Plaisirs de la Table (2008)

Track List:

CD 1:
Konzert a-moll
Flûte à bec alto, viole de gambe, violon, alto,
basse continue (violoncelle, contrebasse, clavecin)
1. Grave
2. Allegro
3. Dolce
4. Allegro
Konzert F-Dur
Flûte à bec, basson, deux violons, alto,
basse continue (violoncelle, contrebasse, clavecin)
5. Largo
6. (Allegro)
7. (Grave)
8. Allegro
Konzert e-moll
Flûte à bec, flûte traversière, deux violons, alto, basse continue (violoncelle, contrebasse, clavecin)
9. Largo
10. Allegro
11. Largo
12. Presto
Suite a-moll
Flûte à bec, deux violons, alto, basse continue (violoncelle, contrebasse, clavecin)
13.Ouverture
14. Les Plaisirs
15. Air à l'Italien
16. Menuets I & II
17. Réjouissance
18. Passepieds I & II
19. Polonaise
Frédéric de ROOS, flûte à bec
Philippe PIERLOT, basse de viole
Marc MINKOWSKI, basson
Patrick BEUCKELS, flûte traversière
RICERCAR CONSORT
François FERNANDEZ, violon
Mihoko KIMURA, violon
Annette SICHELSCHMIDT, violon
Ghislaine WAUTERS, alto
Ageet ZWEISTRA, violoncelle
Eric MATHOT, contrebasse
Guy PENSON, clavecin

X Lossless Decoder version 20161007 (149.3)
XLD extraction logfile from 2017-08-27 13:38:28 +0200
Frédéric de Roos / Ricercar Consort / Les Plaisirs de la table 1: Doppelkonzerte mit Blockflöte
Used drive : TSSTcorp CDDVDW SE-208GB (revision MF00)
Media type : Pressed CD
Ripper mode : XLD Secure Ripper
Disable audio cache : OK for the drive with a cache less than 1375KiB
Make use of C2 pointers : NO
Read offset correction : 6
Max retry count : 20
Gap status : Analyzed, Appended
TOC of the extracted CD
Track | Start | Length | Start sector | End sector
––––––––––––––––––––––––––––-
1 | 00:00:00 | 03:36:45 | 0 | 16244
2 | 03:36:45 | 04:02:40 | 16245 | 34434
3 | 07:39:10 | 03:08:41 | 34435 | 48575
4 | 10:47:51 | 03:43:29 | 48576 | 65329
5 | 14:31:05 | 04:20:24 | 65330 | 84853
6 | 18:51:29 | 05:11:70 | 84854 | 108248
7 | 24:03:24 | 04:28:44 | 108249 | 128392
8 | 28:31:68 | 03:53:00 | 128393 | 145867
9 | 32:24:68 | 03:38:50 | 145868 | 162267
10 | 36:03:43 | 04:10:56 | 162268 | 181073
11 | 40:14:24 | 03:16:18 | 181074 | 195791
12 | 43:30:42 | 02:38:22 | 195792 | 207663
13 | 46:08:64 | 06:58:28 | 207664 | 239041
14 | 53:07:17 | 02:48:48 | 239042 | 251689
15 | 55:55:65 | 07:02:63 | 251690 | 283402
16 | 62:58:53 | 03:12:32 | 283403 | 297834
17 | 66:11:10 | 02:13:70 | 297835 | 307879
18 | 68:25:05 | 01:56:10 | 307880 | 316589
19 | 70:21:15 | 03:27:72 | 316590 | 332186

AccurateRip Summary (DiscID: 0033fe0f-02da1896-10114d13)
Track 01 : OK (v1+v2, confidence 4/4)
Track 02 : OK (v1+v2, confidence 4/4)
Track 03 : OK (v1+v2, confidence 4/4)
Track 04 : OK (v1+v2, confidence 4/4)
Track 05 : OK (v1+v2, confidence 4/4)
Track 06 : OK (v1+v2, confidence 4/4)
Track 07 : OK (v1+v2, confidence 4/4)
Track 08 : OK (v1+v2, confidence 4/4)
Track 09 : OK (v1+v2, confidence 4/4)
Track 10 : OK (v1+v2, confidence 4/4)
Track 11 : OK (v1+v2, confidence 4/4)
Track 12 : OK (v1+v2, confidence 4/4)
Track 13 : OK (v1+v2, confidence 4/4)
Track 14 : OK (v1+v2, confidence 4/4)
Track 15 : OK (v1+v2, confidence 4/4)
Track 16 : OK (v1+v2, confidence 4/4)
Track 17 : OK (v1+v2, confidence 4/4)
Track 18 : OK (v1+v2, confidence 4/4)
Track 19 : OK (v1+v2, confidence 4/4)
->All tracks accurately ripped.

All Tracks
Filename : /Users/loicchahine/Downloads/PlaiTab/1/Les Plaisirs de la table 1: Doppelkonzerte mit Blockflöte.flac
CRC32 hash : B55B129B
CRC32 hash (skip zero) : E6DADC41
Statistics
Read error : 0
Jitter error (maybe fixed) : 0
Retry sector count : 0
Damaged sector count : 0

Track 01
Pre-gap length : 00:02:00
CRC32 hash : 90674F09
CRC32 hash (skip zero) : D52EDC09
AccurateRip v1 signature : B17E1D65
AccurateRip v2 signature : 69A67F1C
->Accurately ripped (v1+v2, confidence 2+2/4)
Statistics
Read error : 0
Jitter error (maybe fixed) : 0
Retry sector count : 0
Damaged sector count : 0

Track 02
CRC32 hash : 7DF1107C
CRC32 hash (skip zero) : C253732E
AccurateRip v1 signature : 5089463C
AccurateRip v2 signature : 2CAC9D88
->Accurately ripped (v1+v2, confidence 2+2/4)
Statistics
Read error : 0
Jitter error (maybe fixed) : 0
Retry sector count : 0
Damaged sector count : 0

Track 03
CRC32 hash : 2196CF07
CRC32 hash (skip zero) : AB7FD28F
AccurateRip v1 signature : 10FF8140
AccurateRip v2 signature : 4631838E
->Accurately ripped (v1+v2, confidence 2+2/4)
Statistics
Read error : 0
Jitter error (maybe fixed) : 0
Retry sector count : 0
Damaged sector count : 0

Track 04
CRC32 hash : 3B6B77D3
CRC32 hash (skip zero) : 0E67D22E
AccurateRip v1 signature : 07355AA5
AccurateRip v2 signature : 6CE0F9F8
->Accurately ripped (v1+v2, confidence 2+2/4)
Statistics
Read error : 0
Jitter error (maybe fixed) : 0
Retry sector count : 0
Damaged sector count : 0

Track 05
CRC32 hash : D461F66A
CRC32 hash (skip zero) : 39A7825C
AccurateRip v1 signature : FAFB9AF9
AccurateRip v2 signature : 82B95B68
->Accurately ripped (v1+v2, confidence 2+2/4)
Statistics
Read error : 0
Jitter error (maybe fixed) : 0
Retry sector count : 0
Damaged sector count : 0

Track 06
CRC32 hash : 301D1770
CRC32 hash (skip zero) : 2FBDC228
AccurateRip v1 signature : 150916E0
AccurateRip v2 signature : 90301FAB
->Accurately ripped (v1+v2, confidence 2+2/4)
Statistics
Read error : 0
Jitter error (maybe fixed) : 0
Retry sector count : 0
Damaged sector count : 0

Track 07
CRC32 hash : D73148C1
CRC32 hash (skip zero) : 8A1D450F
AccurateRip v1 signature : 63BADC51
AccurateRip v2 signature : 9D15A3F2
->Accurately ripped (v1+v2, confidence 2+2/4)
Statistics
Read error : 0
Jitter error (maybe fixed) : 0
Retry sector count : 0
Damaged sector count : 0

Track 08
CRC32 hash : BABE714D
CRC32 hash (skip zero) : 228586E2
AccurateRip v1 signature : FBF8F3F7
AccurateRip v2 signature : 6B869375
->Accurately ripped (v1+v2, confidence 2+2/4)
Statistics
Read error : 0
Jitter error (maybe fixed) : 0
Retry sector count : 0
Damaged sector count : 0

Track 09
CRC32 hash : 596C6222
CRC32 hash (skip zero) : FEFE9562
AccurateRip v1 signature : 1A1B00D2
AccurateRip v2 signature : CB433266
->Accurately ripped (v1+v2, confidence 2+2/4)
Statistics
Read error : 0
Jitter error (maybe fixed) : 0
Retry sector count : 0
Damaged sector count : 0

Track 10
CRC32 hash : 47E24E88
CRC32 hash (skip zero) : 7998D63F
AccurateRip v1 signature : 27317B0B
AccurateRip v2 signature : BC55B334
->Accurately ripped (v1+v2, confidence 2+2/4)
Statistics
Read error : 0
Jitter error (maybe fixed) : 0
Retry sector count : 0
Damaged sector count : 0

Track 11
CRC32 hash : 9559CBA7
CRC32 hash (skip zero) : 9CC12EE5
AccurateRip v1 signature : 33AB221A
AccurateRip v2 signature : 40918FAB
->Accurately ripped (v1+v2, confidence 2+2/4)
Statistics
Read error : 0
Jitter error (maybe fixed) : 0
Retry sector count : 0
Damaged sector count : 0

Track 12
CRC32 hash : 6B046884
CRC32 hash (skip zero) : 29CCC993
AccurateRip v1 signature : 0C7340A6
AccurateRip v2 signature : 7939FD4A
->Accurately ripped (v1+v2, confidence 2+2/4)
Statistics
Read error : 0
Jitter error (maybe fixed) : 0
Retry sector count : 0
Damaged sector count : 0

Track 13
CRC32 hash : D46495CD
CRC32 hash (skip zero) : 4FB5B5BA
AccurateRip v1 signature : 4791A4CF
AccurateRip v2 signature : 4C62E23D
->Accurately ripped (v1+v2, confidence 2+2/4)
Statistics
Read error : 0
Jitter error (maybe fixed) : 0
Retry sector count : 0
Damaged sector count : 0

Track 14
CRC32 hash : 6FF52F36
CRC32 hash (skip zero) : E32EDC6B
AccurateRip v1 signature : E504E997
AccurateRip v2 signature : 53C541C1
->Accurately ripped (v1+v2, confidence 2+2/4)
Statistics
Read error : 0
Jitter error (maybe fixed) : 0
Retry sector count : 0
Damaged sector count : 0

Track 15
CRC32 hash : 5CEC9AE7
CRC32 hash (skip zero) : C829CAB9
AccurateRip v1 signature : 07FA37F1
AccurateRip v2 signature : 1308CB76
->Accurately ripped (v1+v2, confidence 2+2/4)
Statistics
Read error : 0
Jitter error (maybe fixed) : 0
Retry sector count : 0
Damaged sector count : 0

Track 16
CRC32 hash : 3273BBAD
CRC32 hash (skip zero) : A9E71BFA
AccurateRip v1 signature : 141DEC29
AccurateRip v2 signature : C033F2D1
->Accurately ripped (v1+v2, confidence 2+2/4)
Statistics
Read error : 0
Jitter error (maybe fixed) : 0
Retry sector count : 0
Damaged sector count : 0

Track 17
CRC32 hash : 0DF89F02
CRC32 hash (skip zero) : FAC8ADAF
AccurateRip v1 signature : 23313E5D
AccurateRip v2 signature : D3FFB4D4
->Accurately ripped (v1+v2, confidence 2+2/4)
Statistics
Read error : 0
Jitter error (maybe fixed) : 0
Retry sector count : 0
Damaged sector count : 0

Track 18
CRC32 hash : 42AFA1AE
CRC32 hash (skip zero) : 0F5EC3F2
AccurateRip v1 signature : A1519179
AccurateRip v2 signature : AB68B7C9
->Accurately ripped (v1+v2, confidence 2+2/4)
Statistics
Read error : 0
Jitter error (maybe fixed) : 0
Retry sector count : 0
Damaged sector count : 0

Track 19
CRC32 hash : 05C862A8
CRC32 hash (skip zero) : C1B810FD
AccurateRip v1 signature : E8CCB612
AccurateRip v2 signature : B7110C34
->Accurately ripped (v1+v2, confidence 2+2/4)
Statistics
Read error : 0
Jitter error (maybe fixed) : 0
Retry sector count : 0
Damaged sector count : 0

No errors occurred

End of status report

[CUETools log; Date: 07.09.2017 10:56:46; Version: 2.1.5]
[CTDB TOCID: h41qtX5lRmZtvMuREkb0lyTQkvA-] found.
Track | CTDB Status
1 | (6/6) Accurately ripped
2 | (6/6) Accurately ripped
3 | (6/6) Accurately ripped
4 | (6/6) Accurately ripped
5 | (6/6) Accurately ripped
6 | (6/6) Accurately ripped
7 | (6/6) Accurately ripped
8 | (6/6) Accurately ripped
9 | (6/6) Accurately ripped
10 | (6/6) Accurately ripped
11 | (6/6) Accurately ripped
12 | (6/6) Accurately ripped
13 | (6/6) Accurately ripped
14 | (6/6) Accurately ripped
15 | (6/6) Accurately ripped
16 | (6/6) Accurately ripped
17 | (6/6) Accurately ripped
18 | (6/6) Accurately ripped
19 | (6/6) Accurately ripped
[AccurateRip ID: 0033fe0f-02da1896-10114d13] found.
Track [ CRC | V2 ] Status
01 [b17e1d65|69a67f1c] (2+2/4) Accurately ripped
02 [5089463c|2cac9d88] (2+2/4) Accurately ripped
03 [10ff8140|4631838e] (2+2/4) Accurately ripped
04 [07355aa5|6ce0f9f8] (2+2/4) Accurately ripped
05 [fafb9af9|82b95b68] (2+2/4) Accurately ripped
06 [150916e0|90301fab] (2+2/4) Accurately ripped
07 [63badc51|9d15a3f2] (2+2/4) Accurately ripped
08 [fbf8f3f7|6b869375] (2+2/4) Accurately ripped
09 [1a1b00d2|cb433266] (2+2/4) Accurately ripped
10 [27317b0b|bc55b334] (2+2/4) Accurately ripped
11 [33ab221a|40918fab] (2+2/4) Accurately ripped
12 [0c7340a6|7939fd4a] (2+2/4) Accurately ripped
13 [4791a4cf|4c62e23d] (2+2/4) Accurately ripped
14 [e504e997|53c541c1] (2+2/4) Accurately ripped
15 [07fa37f1|1308cb76] (2+2/4) Accurately ripped
16 [141dec29|c033f2d1] (2+2/4) Accurately ripped
17 [23313e5d|d3ffb4d4] (2+2/4) Accurately ripped
18 [a1519179|ab68b7c9] (2+2/4) Accurately ripped
19 [e8ccb612|b7110c34] (2+2/4) Accurately ripped

Track Peak [ CRC32 ] [W/O NULL]
– 99,8 [B55B129B] [E6DADC41]
01 86,0 [90674F09] [D52EDC09]
02 91,1 [7DF1107C] [C253732E]
03 63,7 [2196CF07] [AB7FD28F]
04 96,9 [3B6B77D3] [0E67D22E]
05 77,4 [D461F66A] [39A7825C]
06 74,2 [301D1770] [2FBDC228]
07 91,3 [D73148C1] [8A1D450F]
08 77,0 [BABE714D] [228586E2]
09 63,3 [596C6222] [FEFE9562]
10 71,7 [47E24E88] [7998D63F]
11 64,4 [9559CBA7] [9CC12EE5]
12 99,8 [6B046884] [29CCC993]
13 68,8 [D46495CD] [4FB5B5BA]
14 44,2 [6FF52F36] [E32EDC6B]
15 41,1 [5CEC9AE7] [C829CAB9]
16 51,4 [3273BBAD] [A9E71BFA]
17 42,0 [0DF89F02] [FAC8ADAF]
18 38,1 [42AFA1AE] [0F5EC3F2]
19 42,7 [05C862A8] [C1B810FD]

CD 2:
Konzert a-moll
Flûte à bec, hautbois violon,
basse continue (basse de viole, clavecin)
1. Adagio
2. Allegro
3. Adagio
4. Vivace
Trio Sonate, F-Dur (Essercizii Musici)
Flûte à bec, viole de gambe,
basse continue (basse de viole, clavecin)
5. Vivace
6. Mesto
7. Allegro
Trio Sonate, c-moll (Essercizii Musici)
Flûte à bec, hautbois,
base continue (basse de viole, clavecin)
8. Largo
9. Vivace
10. Andante
11. Allegro
Trio Sonate a-moll (Essercizii Musici)
Flûte à bec, violon,
basse continue (basse de viole, clavecin)
12. Largo
13. Vivace
14. Affettuoso
15. Allegro
Trio Sonate F-Dur
2 flûtes à bec, basse continue (basson, clavecin)
16. Affettuoso
17. Allegro
18. Adagio
19. Vivace
Trio Sonate d-moll
Flûte à bec, dessus de viole,
basse continue (basse de viole, clavecin)
20. Andante
21. Vivace
22. Adagio
23. Allegro
Quartet F-Dur
Flûte à bec, hautbois, violon,
basse continue (basse de viole, clavecin)
24. Allegro
25. Grave
26. Allegro
Frédéric de ROOS, flûte à bec
François FERNANDEZ, violon
Marcel PONSEELE, hautbois
Patrick DENECKER, flûte à bec (16 à 19)
Philippe PIERLOT, dessus et basse de viole
Sophie WATILLON, basse de viole
(continuo, 5 à 7, 20 à 23)
Marc VALLON, basson
Guy PENSON, clavecin

X Lossless Decoder version 20161007 (149.3)
XLD extraction logfile from 2017-08-27 13:50:46 +0200
Ricercar Consort, Frédéric de Roos / G. P. Telemann - Kammermusik mit Blockflöte
Used drive : TSSTcorp CDDVDW SE-208GB (revision MF00)
Media type : Pressed CD
Ripper mode : XLD Secure Ripper
Disable audio cache : OK for the drive with a cache less than 1375KiB
Make use of C2 pointers : NO
Read offset correction : 6
Max retry count : 20
Gap status : Analyzed, Appended
TOC of the extracted CD
Track | Start | Length | Start sector | End sector
––––––––––––––––––––––––––––-
1 | 00:00:00 | 02:53:41 | 0 | 13015
2 | 02:53:41 | 01:41:19 | 13016 | 20609
3 | 04:34:60 | 01:43:57 | 20610 | 28391
4 | 06:18:42 | 04:10:04 | 28392 | 47145
5 | 10:28:46 | 02:43:35 | 47146 | 59405
6 | 13:12:06 | 01:30:22 | 59406 | 66177
7 | 14:42:28 | 02:39:37 | 66178 | 78139
8 | 17:21:65 | 02:57:23 | 78140 | 91437
9 | 20:19:13 | 02:53:04 | 91438 | 104416
10 | 23:12:17 | 02:15:47 | 104417 | 114588
11 | 25:27:64 | 03:27:30 | 114589 | 130143
12 | 28:55:19 | 02:33:48 | 130144 | 141666
13 | 31:28:67 | 02:34:43 | 141667 | 153259
14 | 34:03:35 | 02:52:71 | 153260 | 166230
15 | 36:56:31 | 03:05:30 | 166231 | 180135
16 | 40:01:61 | 02:11:05 | 180136 | 189965
17 | 42:12:66 | 01:31:51 | 189966 | 196841
18 | 43:44:42 | 01:34:63 | 196842 | 203954
19 | 45:19:30 | 01:54:68 | 203955 | 212572
20 | 47:14:23 | 02:17:35 | 212573 | 222882
21 | 49:31:58 | 01:29:48 | 222883 | 229605
22 | 51:01:31 | 01:20:04 | 229606 | 235609
23 | 52:21:35 | 01:52:04 | 235610 | 244013
24 | 54:13:39 | 02:45:60 | 244014 | 256448
25 | 56:59:24 | 02:02:67 | 256449 | 265665
26 | 59:02:16 | 02:53:13 | 265666 | 278653

AccurateRip Summary (DiscID: 003bfb6c-04550d69-620e831a)
Track 01 : OK (v2, confidence 2/2)
Track 02 : OK (v2, confidence 2/2)
Track 03 : OK (v2, confidence 2/2)
Track 04 : OK (v2, confidence 2/2)
Track 05 : OK (v2, confidence 2/2)
Track 06 : OK (v2, confidence 2/2)
Track 07 : OK (v2, confidence 2/2)
Track 08 : OK (v2, confidence 2/2)
Track 09 : OK (v2, confidence 2/2)
Track 10 : OK (v2, confidence 2/2)
Track 11 : OK (v2, confidence 2/2)
Track 12 : OK (v2, confidence 2/2)
Track 13 : OK (v2, confidence 2/2)
Track 14 : OK (v2, confidence 2/2)
Track 15 : OK (v2, confidence 2/2)
Track 16 : OK (v2, confidence 2/2)
Track 17 : OK (v2, confidence 2/2)
Track 18 : OK (v2, confidence 2/2)
Track 19 : OK (v2, confidence 2/2)
Track 20 : OK (v2, confidence 2/2)
Track 21 : OK (v2, confidence 2/2)
Track 22 : OK (v2, confidence 2/2)
Track 23 : OK (v2, confidence 2/2)
Track 24 : OK (v2, confidence 2/2)
Track 25 : OK (v2, confidence 2/2)
Track 26 : OK (v2, confidence 2/2)
->All tracks accurately ripped.

All Tracks
Filename : /Users/loicchahine/Downloads/PlaiTab/2/G. P. Telemann - Kammermusik mit Blockflöte.flac
CRC32 hash : 8F1C63CB
CRC32 hash (skip zero) : CB922595
Statistics
Read error : 0
Jitter error (maybe fixed) : 0
Retry sector count : 0
Damaged sector count : 0

Track 01
Pre-gap length : 00:02:00
CRC32 hash : D9133592
CRC32 hash (skip zero) : E49772A9
AccurateRip v1 signature : 0FFC95A6
AccurateRip v2 signature : AC21C0B7
->Accurately ripped (v2, confidence 2/2)
Statistics
Read error : 0
Jitter error (maybe fixed) : 0
Retry sector count : 0
Damaged sector count : 0

Track 02
CRC32 hash : 060118A3
CRC32 hash (skip zero) : D9967A53
AccurateRip v1 signature : F2C0C6FC
AccurateRip v2 signature : 9FF5765B
->Accurately ripped (v2, confidence 2/2)
Statistics
Read error : 0
Jitter error (maybe fixed) : 0
Retry sector count : 0
Damaged sector count : 0

Track 03
CRC32 hash : 77CCF05B
CRC32 hash (skip zero) : EBE75F31
AccurateRip v1 signature : 0779CA4F
AccurateRip v2 signature : 66FB0267
->Accurately ripped (v2, confidence 2/2)
Statistics
Read error : 0
Jitter error (maybe fixed) : 0
Retry sector count : 0
Damaged sector count : 0

Track 04
CRC32 hash : 0D595DA6
CRC32 hash (skip zero) : 582F6D31
AccurateRip v1 signature : CEE94F53
AccurateRip v2 signature : 28F8FBD3
->Accurately ripped (v2, confidence 2/2)
Statistics
Read error : 0
Jitter error (maybe fixed) : 0
Retry sector count : 0
Damaged sector count : 0

Track 05
CRC32 hash : F9601562
CRC32 hash (skip zero) : D56A4522
AccurateRip v1 signature : 0088EC47
AccurateRip v2 signature : DF67C5E4
->Accurately ripped (v2, confidence 2/2)
Statistics
Read error : 0
Jitter error (maybe fixed) : 0
Retry sector count : 0
Damaged sector count : 0

Track 06
CRC32 hash : B134D5F6
CRC32 hash (skip zero) : 541DAE88
AccurateRip v1 signature : 0BA4F6D3
AccurateRip v2 signature : 446C2E48
->Accurately ripped (v2, confidence 2/2)
Statistics
Read error : 0
Jitter error (maybe fixed) : 0
Retry sector count : 0
Damaged sector count : 0

Track 07
CRC32 hash : 1E8585F6
CRC32 hash (skip zero) : 0BF34340
AccurateRip v1 signature : F63A5E66
AccurateRip v2 signature : 7EAD97BD
->Accurately ripped (v2, confidence 2/2)
Statistics
Read error : 0
Jitter error (maybe fixed) : 0
Retry sector count : 0
Damaged sector count : 0

Track 08
CRC32 hash : 8C79313A
CRC32 hash (skip zero) : 8166F2A7
AccurateRip v1 signature : 652E137D
AccurateRip v2 signature : 4F2F6307
->Accurately ripped (v2, confidence 2/2)
Statistics
Read error : 0
Jitter error (maybe fixed) : 0
Retry sector count : 0
Damaged sector count : 0

Track 09
CRC32 hash : DFE29FDC
CRC32 hash (skip zero) : FBBD4D48
AccurateRip v1 signature : 31242EC8
AccurateRip v2 signature : 1D4C7431
->Accurately ripped (v2, confidence 2/2)
Statistics
Read error : 0
Jitter error (maybe fixed) : 0
Retry sector count : 0
Damaged sector count : 0

Track 10
CRC32 hash : 9192F4CD
CRC32 hash (skip zero) : 46A7364A
AccurateRip v1 signature : 051BD5F4
AccurateRip v2 signature : E33D84E2
->Accurately ripped (v2, confidence 2/2)
Statistics
Read error : 0
Jitter error (maybe fixed) : 0
Retry sector count : 0
Damaged sector count : 0

Track 11
CRC32 hash : 5C6FD02D
CRC32 hash (skip zero) : 31675F8A
AccurateRip v1 signature : 2C1B58F9
AccurateRip v2 signature : 78557E56
->Accurately ripped (v2, confidence 2/2)
Statistics
Read error : 0
Jitter error (maybe fixed) : 0
Retry sector count : 0
Damaged sector count : 0

Track 12
CRC32 hash : 6A75B8AB
CRC32 hash (skip zero) : 2798D5CE
AccurateRip v1 signature : F1530F86
AccurateRip v2 signature : 654C9F57
->Accurately ripped (v2, confidence 2/2)
Statistics
Read error : 0
Jitter error (maybe fixed) : 0
Retry sector count : 0
Damaged sector count : 0

Track 13
CRC32 hash : 454AF18D
CRC32 hash (skip zero) : B63C758F
AccurateRip v1 signature : E564A866
AccurateRip v2 signature : 600E5278
->Accurately ripped (v2, confidence 2/2)
Statistics
Read error : 0
Jitter error (maybe fixed) : 0
Retry sector count : 0
Damaged sector count : 0

Track 14
CRC32 hash : BEDA19CE
CRC32 hash (skip zero) : 62E5FC47
AccurateRip v1 signature : B59DD78D
AccurateRip v2 signature : DD4CE27E
->Accurately ripped (v2, confidence 2/2)
Statistics
Read error : 0
Jitter error (maybe fixed) : 0
Retry sector count : 0
Damaged sector count : 0

Track 15
CRC32 hash : AC4D61C3
CRC32 hash (skip zero) : 6BD886D0
AccurateRip v1 signature : B7353C6A
AccurateRip v2 signature : 2308208B
->Accurately ripped (v2, confidence 2/2)
Statistics
Read error : 0
Jitter error (maybe fixed) : 0
Retry sector count : 0
Damaged sector count : 0

Track 16
CRC32 hash : CAA73240
CRC32 hash (skip zero) : 0597FB43
AccurateRip v1 signature : D73CF724
AccurateRip v2 signature : 3A42ADFE
->Accurately ripped (v2, confidence 2/2)
Statistics
Read error : 0
Jitter error (maybe fixed) : 0
Retry sector count : 0
Damaged sector count : 0

Track 17
CRC32 hash : DB422347
CRC32 hash (skip zero) : AFC0C59A
AccurateRip v1 signature : EA4249C5
AccurateRip v2 signature : D66B31F3
->Accurately ripped (v2, confidence 2/2)
Statistics
Read error : 0
Jitter error (maybe fixed) : 0
Retry sector count : 0
Damaged sector count : 0

Track 18
CRC32 hash : 5E27B41F
CRC32 hash (skip zero) : 6478AE5F
AccurateRip v1 signature : 8C23ADC9
AccurateRip v2 signature : 5C396199
->Accurately ripped (v2, confidence 2/2)
Statistics
Read error : 0
Jitter error (maybe fixed) : 0
Retry sector count : 0
Damaged sector count : 0

Track 19
CRC32 hash : 1569374B
CRC32 hash (skip zero) : 6FAAEB15
AccurateRip v1 signature : 9A95F5BF
AccurateRip v2 signature : 2CD4F5EE
->Accurately ripped (v2, confidence 2/2)
Statistics
Read error : 0
Jitter error (maybe fixed) : 0
Retry sector count : 0
Damaged sector count : 0

Track 20
CRC32 hash : A7148A17
CRC32 hash (skip zero) : F3CA1C4A
AccurateRip v1 signature : B404EE0F
AccurateRip v2 signature : 16371B59
->Accurately ripped (v2, confidence 2/2)
Statistics
Read error : 0
Jitter error (maybe fixed) : 0
Retry sector count : 0
Damaged sector count : 0

Track 21
CRC32 hash : 1845437F
CRC32 hash (skip zero) : BA41A958
AccurateRip v1 signature : 514F2112
AccurateRip v2 signature : 8245575E
->Accurately ripped (v2, confidence 2/2)
Statistics
Read error : 0
Jitter error (maybe fixed) : 0
Retry sector count : 0
Damaged sector count : 0

Track 22
CRC32 hash : 616BAAB3
CRC32 hash (skip zero) : 9EDDB02C
AccurateRip v1 signature : E7FF042D
AccurateRip v2 signature : 4AFD0E71
->Accurately ripped (v2, confidence 2/2)
Statistics
Read error : 0
Jitter error (maybe fixed) : 0
Retry sector count : 0
Damaged sector count : 0

Track 23
CRC32 hash : 2762C13F
CRC32 hash (skip zero) : 8B0693AB
AccurateRip v1 signature : A6C3CC44
AccurateRip v2 signature : 208F7860
->Accurately ripped (v2, confidence 2/2)
Statistics
Read error : 0
Jitter error (maybe fixed) : 0
Retry sector count : 0
Damaged sector count : 0

Track 24
CRC32 hash : 3E7D1C41
CRC32 hash (skip zero) : 46FC1672
AccurateRip v1 signature : 8835B00B
AccurateRip v2 signature : 6AEAAB66
->Accurately ripped (v2, confidence 2/2)
Statistics
Read error : 0
Jitter error (maybe fixed) : 0
Retry sector count : 0
Damaged sector count : 0

Track 25
CRC32 hash : A29EE9A1
CRC32 hash (skip zero) : AD274A1C
AccurateRip v1 signature : 1F448EBA
AccurateRip v2 signature : B0ADF841
->Accurately ripped (v2, confidence 2/2)
Statistics
Read error : 0
Jitter error (maybe fixed) : 0
Retry sector count : 0
Damaged sector count : 0

Track 26
CRC32 hash : A6DB2BB1
CRC32 hash (skip zero) : AF8E6045
AccurateRip v1 signature : E9B07D2F
AccurateRip v2 signature : 12E33951
->Accurately ripped (v2, confidence 2/2)
Statistics
Read error : 0
Jitter error (maybe fixed) : 0
Retry sector count : 0
Damaged sector count : 0

No errors occurred

End of status report

[CUETools log; Date: 07.09.2017 10:58:47; Version: 2.1.5]
[CTDB TOCID: wtTZ_.L4VKhCnij.XG4o5jsFXsE-] found.
Track | CTDB Status
1 | (6/6) Accurately ripped
2 | (6/6) Accurately ripped
3 | (6/6) Accurately ripped
4 | (6/6) Accurately ripped
5 | (6/6) Accurately ripped
6 | (6/6) Accurately ripped
7 | (6/6) Accurately ripped
8 | (6/6) Accurately ripped
9 | (6/6) Accurately ripped
10 | (6/6) Accurately ripped
11 | (6/6) Accurately ripped
12 | (6/6) Accurately ripped
13 | (6/6) Accurately ripped
14 | (6/6) Accurately ripped
15 | (6/6) Accurately ripped
16 | (6/6) Accurately ripped
17 | (6/6) Accurately ripped
18 | (6/6) Accurately ripped
19 | (6/6) Accurately ripped
20 | (6/6) Accurately ripped
21 | (6/6) Accurately ripped
22 | (6/6) Accurately ripped
23 | (6/6) Accurately ripped
24 | (6/6) Accurately ripped
25 | (6/6) Accurately ripped
26 | (6/6) Accurately ripped
[AccurateRip ID: 003bfb6c-04550d69-620e831a] found.
Track [ CRC | V2 ] Status
01 [0ffc95a6|ac21c0b7] (0+2/2) Accurately ripped
02 [f2c0c6fc|9ff5765b] (0+2/2) Accurately ripped
03 [0779ca4f|66fb0267] (0+2/2) Accurately ripped
04 [cee94f53|28f8fbd3] (0+2/2) Accurately ripped
05 [0088ec47|df67c5e4] (0+2/2) Accurately ripped
06 [0ba4f6d3|446c2e48] (0+2/2) Accurately ripped
07 [f63a5e66|7ead97bd] (0+2/2) Accurately ripped
08 [652e137d|4f2f6307] (0+2/2) Accurately ripped
09 [31242ec8|1d4c7431] (0+2/2) Accurately ripped
10 [051bd5f4|e33d84e2] (0+2/2) Accurately ripped
11 [2c1b58f9|78557e56] (0+2/2) Accurately ripped
12 [f1530f86|654c9f57] (0+2/2) Accurately ripped
13 [e564a866|600e5278] (0+2/2) Accurately ripped
14 [b59dd78d|dd4ce27e] (0+2/2) Accurately ripped
15 [b7353c6a|2308208b] (0+2/2) Accurately ripped
16 [d73cf724|3a42adfe] (0+2/2) Accurately ripped
17 [ea4249c5|d66b31f3] (0+2/2) Accurately ripped
18 [8c23adc9|5c396199] (0+2/2) Accurately ripped
19 [9a95f5bf|2cd4f5ee] (0+2/2) Accurately ripped
20 [b404ee0f|16371b59] (0+2/2) Accurately ripped
21 [514f2112|8245575e] (0+2/2) Accurately ripped
22 [e7ff042d|4afd0e71] (0+2/2) Accurately ripped
23 [a6c3cc44|208f7860] (0+2/2) Accurately ripped
24 [8835b00b|6aeaab66] (0+2/2) Accurately ripped
25 [1f448eba|b0adf841] (0+2/2) Accurately ripped
26 [e9b07d2f|12e33951] (0+2/2) Accurately ripped

Track Peak [ CRC32 ] [W/O NULL]
– 93,4 [8F1C63CB] [CB922595]
01 88,5 [D9133592] [E49772A9]
02 81,2 [060118A3] [D9967A53]
03 78,7 [77CCF05B] [EBE75F31]
04 74,1 [0D595DA6] [582F6D31]
05 72,7 [F9601562] [D56A4522]
06 49,3 [B134D5F6] [541DAE88]
07 51,2 [1E8585F6] [0BF34340]
08 79,3 [8C79313A] [8166F2A7]
09 82,4 [DFE29FDC] [FBBD4D48]
10 93,4 [9192F4CD] [46A7364A]
11 85,8 [5C6FD02D] [31675F8A]
12 67,5 [6A75B8AB] [2798D5CE]
13 64,6 [454AF18D] [B63C758F]
14 68,1 [BEDA19CE] [62E5FC47]
15 67,0 [AC4D61C3] [6BD886D0]
16 69,6 [CAA73240] [0597FB43]
17 71,0 [DB422347] [AFC0C59A]
18 71,5 [5E27B41F] [6478AE5F]
19 85,9 [1569374B] [6FAAEB15]
20 57,3 [A7148A17] [F3CA1C4A]
21 78,2 [1845437F] [BA41A958]
22 64,6 [616BAAB3] [9EDDB02C]
23 83,8 [2762C13F] [8B0693AB]
24 68,1 [3E7D1C41] [46FC1672]
25 65,6 [A29EE9A1] [AD274A1C]
26 70,4 [A6DB2BB1] [AF8E6045]

CD 3:
Sonate C Dur (Essercizii Musici)
Flûte alto, basse continue (basse de viole, clavecin)
1. Adagio-Allegro-Adagio
2. Larghetto
3. Vivace
Sonate f-moll (Getreue Musikmeister)
Flûte alto, basse continue (basse de viole,orgue)
4. Triste
5. Allegro
6. Andante
7. Vivace
Sonate B Dur (Methodische Sonaten)
Flûte de voix,
basse continue (basse de viole, orgue, archiluth)
8. Cantabile
9. Vivace
10. Mesto
11. Spirituoso
Sonate G-Dur
Flûte soprano,
basse continue (basse de viole, orgue, archiluth)
12. Largo
13. Allegro
14. Adagio
15. Allegro
Sonate B-Dur (Getreue Musikmeister)
Deux flûtes alto
16. Affettuoso
17. Allegro
18. Andante
19. Presto
Sonate F Dur (Getreue Musikmeister)
Flûte alto, basse continue (archiluth, orgue)
20. Vivace
21. Largo
22. Allegro
Sonate d-moll (Essercizii musici)
Flûte alto, basse continue (basse de viole, clavecin)
23. Affettuoso
24. Presto
25. Grave
26. Allegro
Sonate C-Dur (Getreue Musikmeister)
Flûte alto, basse continue (basse de viole, orgue)
27. Cantabile
28. Allegro
29. Grave
30. Vivace
Frédéric de ROOS, flûtes à bec
Guy PENSON, clavecin et orgue
Philippe MALFEYT, archiluth
Sophie WATILLON, basse de viole
Patrick DENECKER, flûte à bec (pl. 16 à 19)

X Lossless Decoder version 20161007 (149.3)
XLD extraction logfile from 2017-08-27 14:04:53 +0200
Ricercar Consort, Frédéric De Roos / Blokflöte Sonaten
Used drive : TSSTcorp CDDVDW SE-208GB (revision MF00)
Media type : Pressed CD
Ripper mode : XLD Secure Ripper
Disable audio cache : OK for the drive with a cache less than 1375KiB
Make use of C2 pointers : NO
Read offset correction : 6
Max retry count : 20
Gap status : Analyzed, Appended
TOC of the extracted CD
Track | Start | Length | Start sector | End sector
––––––––––––––––––––––––––––-
1 | 00:00:00 | 02:53:53 | 0 | 13027
2 | 02:53:53 | 02:27:01 | 13028 | 24053
3 | 05:20:54 | 03:06:12 | 24054 | 38015
4 | 08:26:66 | 03:37:24 | 38016 | 54314
5 | 12:04:15 | 04:10:65 | 54315 | 73129
6 | 16:15:05 | 01:36:27 | 73130 | 80356
7 | 17:51:32 | 02:27:25 | 80357 | 91406
8 | 20:18:57 | 02:46:66 | 91407 | 103922
9 | 23:05:48 | 03:26:49 | 103923 | 119421
10 | 26:32:22 | 03:28:64 | 119422 | 135085
11 | 30:01:11 | 02:44:46 | 135086 | 147431
12 | 32:45:57 | 02:17:09 | 147432 | 157715
13 | 35:02:66 | 02:31:60 | 157716 | 169100
14 | 37:34:51 | 02:52:51 | 169101 | 182051
15 | 40:27:27 | 02:18:35 | 182052 | 192436
16 | 42:45:62 | 01:48:36 | 192437 | 200572
17 | 44:34:23 | 01:20:59 | 200573 | 206631
18 | 45:55:07 | 02:02:49 | 206632 | 215830
19 | 47:57:56 | 01:27:69 | 215831 | 222424
20 | 49:25:50 | 02:33:04 | 222425 | 233903
21 | 51:58:54 | 02:14:23 | 233904 | 243976
22 | 54:13:02 | 01:46:10 | 243977 | 251936
23 | 55:59:12 | 01:53:45 | 251937 | 260456
24 | 57:52:57 | 03:18:02 | 260457 | 275308
25 | 61:10:59 | 01:00:32 | 275309 | 279840
26 | 62:11:16 | 02:52:38 | 279841 | 292778
27 | 65:03:54 | 01:47:58 | 292779 | 300861
28 | 66:51:37 | 01:48:02 | 300862 | 308963
29 | 68:39:39 | 01:57:27 | 308964 | 317765
30 | 70:36:66 | 02:06:18 | 317766 | 327233

AccurateRip Summary (DiscID: 00543a5f-06daaed1-c2110b1e)
Track 01 : OK (v2, confidence 2/2)
Track 02 : OK (v2, confidence 2/2)
Track 03 : OK (v2, confidence 2/2)
Track 04 : OK (v2, confidence 2/2)
Track 05 : OK (v2, confidence 2/2)
Track 06 : OK (v2, confidence 2/2)
Track 07 : OK (v2, confidence 2/2)
Track 08 : OK (v2, confidence 2/2)
Track 09 : OK (v2, confidence 2/2)
Track 10 : OK (v2, confidence 2/2)
Track 11 : OK (v2, confidence 2/2)
Track 12 : OK (v2, confidence 2/2)
Track 13 : OK (v2, confidence 2/2)
Track 14 : OK (v2, confidence 2/2)
Track 15 : OK (v2, confidence 2/2)
Track 16 : OK (v2, confidence 2/2)
Track 17 : OK (v2, confidence 2/2)
Track 18 : OK (v2, confidence 2/2)
Track 19 : OK (v2, confidence 2/2)
Track 20 : OK (v2, confidence 2/2)
Track 21 : OK (v2, confidence 2/2)
Track 22 : OK (v2, confidence 2/2)
Track 23 : OK (v2, confidence 2/2)
Track 24 : OK (v2, confidence 2/2)
Track 25 : OK (v2, confidence 2/2)
Track 26 : OK (v2, confidence 2/2)
Track 27 : OK (v2, confidence 2/2)
Track 28 : OK (v2, confidence 2/2)
Track 29 : OK (v2, confidence 2/2)
Track 30 : OK (v2, confidence 2/2)
->All tracks accurately ripped.

All Tracks
Filename : /Users/loicchahine/Downloads/PlaiTab/3/Blokflöte Sonaten.flac
CRC32 hash : 7084517B
CRC32 hash (skip zero) : 5EB6BEDD
Statistics
Read error : 0
Jitter error (maybe fixed) : 0
Retry sector count : 0
Damaged sector count : 0

Track 01
Pre-gap length : 00:02:00
CRC32 hash : 0A667DFD
CRC32 hash (skip zero) : E9959B24
AccurateRip v1 signature : F67C84E0
AccurateRip v2 signature : C0309CBC
->Accurately ripped (v2, confidence 2/2)
Statistics
Read error : 0
Jitter error (maybe fixed) : 0
Retry sector count : 0
Damaged sector count : 0

Track 02
CRC32 hash : A070E5E7
CRC32 hash (skip zero) : B5301200
AccurateRip v1 signature : 5A58D93A
AccurateRip v2 signature : 64F68904
->Accurately ripped (v2, confidence 2/2)
Statistics
Read error : 0
Jitter error (maybe fixed) : 0
Retry sector count : 0
Damaged sector count : 0

Track 03
CRC32 hash : 14F6F639
CRC32 hash (skip zero) : 20597EB5
AccurateRip v1 signature : 722FBC36
AccurateRip v2 signature : 7ACCB443
->Accurately ripped (v2, confidence 2/2)
Statistics
Read error : 0
Jitter error (maybe fixed) : 0
Retry sector count : 0
Damaged sector count : 0

Track 04
CRC32 hash : 66DBE55D
CRC32 hash (skip zero) : 587C199B
AccurateRip v1 signature : 4DF92BDC
AccurateRip v2 signature : 0A525F5C
->Accurately ripped (v2, confidence 2/2)
Statistics
Read error : 0
Jitter error (maybe fixed) : 0
Retry sector count : 0
Damaged sector count : 0

Track 05
CRC32 hash : 2F0B8DC2
CRC32 hash (skip zero) : 89576E7E
AccurateRip v1 signature : F45CE772
AccurateRip v2 signature : 59D8D25D
->Accurately ripped (v2, confidence 2/2)
Statistics
Read error : 0
Jitter error (maybe fixed) : 0
Retry sector count : 0
Damaged sector count : 0

Track 06
CRC32 hash : 10310B48
CRC32 hash (skip zero) : D03BA528
AccurateRip v1 signature : 0198AE74
AccurateRip v2 signature : EEF615D8
->Accurately ripped (v2, confidence 2/2)
Statistics
Read error : 0
Jitter error (maybe fixed) : 0
Retry sector count : 0
Damaged sector count : 0

Track 07
CRC32 hash : 19069ADC
CRC32 hash (skip zero) : 7C698018
AccurateRip v1 signature : 39852C7B
AccurateRip v2 signature : 2CE2517B
->Accurately ripped (v2, confidence 2/2)
Statistics
Read error : 0
Jitter error (maybe fixed) : 0
Retry sector count : 0
Damaged sector count : 0

Track 08
CRC32 hash : 7355DD39
CRC32 hash (skip zero) : EB67FC42
AccurateRip v1 signature : 0276DE6F
AccurateRip v2 signature : 3D8071D6
->Accurately ripped (v2, confidence 2/2)
Statistics
Read error : 0
Jitter error (maybe fixed) : 0
Retry sector count : 0
Damaged sector count : 0

Track 09
CRC32 hash : 63844ACC
CRC32 hash (skip zero) : ED1CAFE9
AccurateRip v1 signature : 91F6601C
AccurateRip v2 signature : 657CACD2
->Accurately ripped (v2, confidence 2/2)
Statistics
Read error : 0
Jitter error (maybe fixed) : 0
Retry sector count : 0
Damaged sector count : 0

Track 10
CRC32 hash : A274B177
CRC32 hash (skip zero) : 73F7CE3A
AccurateRip v1 signature : 637A645D
AccurateRip v2 signature : FDCC3480
->Accurately ripped (v2, confidence 2/2)
Statistics
Read error : 0
Jitter error (maybe fixed) : 0
Retry sector count : 0
Damaged sector count : 0

Track 11
CRC32 hash : CA1B6F27
CRC32 hash (skip zero) : 776BE277
AccurateRip v1 signature : 704D6462
AccurateRip v2 signature : 12C94945
->Accurately ripped (v2, confidence 2/2)
Statistics
Read error : 0
Jitter error (maybe fixed) : 0
Retry sector count : 0
Damaged sector count : 0

Track 12
CRC32 hash : 39170088
CRC32 hash (skip zero) : EF281861
AccurateRip v1 signature : 5B7E11B0
AccurateRip v2 signature : 04ACFD1D
->Accurately ripped (v2, confidence 2/2)
Statistics
Read error : 0
Jitter error (maybe fixed) : 0
Retry sector count : 0
Damaged sector count : 0

Track 13
CRC32 hash : A84FB3D7
CRC32 hash (skip zero) : 102273A5
AccurateRip v1 signature : 47CD9D2F
AccurateRip v2 signature : 216260C7
->Accurately ripped (v2, confidence 2/2)
Statistics
Read error : 0
Jitter error (maybe fixed) : 0
Retry sector count : 0
Damaged sector count : 0

Track 14
CRC32 hash : 2CA49447
CRC32 hash (skip zero) : ABAC0344
AccurateRip v1 signature : 0FA7E4C4
AccurateRip v2 signature : A1127F16
->Accurately ripped (v2, confidence 2/2)
Statistics
Read error : 0
Jitter error (maybe fixed) : 0
Retry sector count : 0
Damaged sector count : 0

Track 15
CRC32 hash : 82C935B5
CRC32 hash (skip zero) : 36656C01
AccurateRip v1 signature : 045F670F
AccurateRip v2 signature : E08312EA
->Accurately ripped (v2, confidence 2/2)
Statistics
Read error : 0
Jitter error (maybe fixed) : 0
Retry sector count : 0
Damaged sector count : 0

Track 16
CRC32 hash : 8BC29F88
CRC32 hash (skip zero) : DA9CFE30
AccurateRip v1 signature : B8EB131D
AccurateRip v2 signature : 10AE62C7
->Accurately ripped (v2, confidence 2/2)
Statistics
Read error : 0
Jitter error (maybe fixed) : 0
Retry sector count : 0
Damaged sector count : 0

Track 17
CRC32 hash : 449BCC8B
CRC32 hash (skip zero) : 8B27163B
AccurateRip v1 signature : 86C0072B
AccurateRip v2 signature : 858D6056
->Accurately ripped (v2, confidence 2/2)
Statistics
Read error : 0
Jitter error (maybe fixed) : 0
Retry sector count : 0
Damaged sector count : 0

Track 18
CRC32 hash : 8588E8A2
CRC32 hash (skip zero) : 6FE757C5
AccurateRip v1 signature : BD71609D
AccurateRip v2 signature : C807C5F6
->Accurately ripped (v2, confidence 2/2)
Statistics
Read error : 0
Jitter error (maybe fixed) : 0
Retry sector count : 0
Damaged sector count : 0

Track 19
CRC32 hash : B6B5A94F
CRC32 hash (skip zero) : E48F3567
AccurateRip v1 signature : 117F3744
AccurateRip v2 signature : 1B88F418
->Accurately ripped (v2, confidence 2/2)
Statistics
Read error : 0
Jitter error (maybe fixed) : 0
Retry sector count : 0
Damaged sector count : 0

Track 20
CRC32 hash : B8F7C73D
CRC32 hash (skip zero) : FF1DEDA3
AccurateRip v1 signature : 4D92D52D
AccurateRip v2 signature : D1232EF0
->Accurately ripped (v2, confidence 2/2)
Statistics
Read error : 0
Jitter error (maybe fixed) : 0
Retry sector count : 0
Damaged sector count : 0

Track 21
CRC32 hash : 0DE0CB9A
CRC32 hash (skip zero) : D4DB1C46
AccurateRip v1 signature : E27BCD9B
AccurateRip v2 signature : EE6A5086
->Accurately ripped (v2, confidence 2/2)
Statistics
Read error : 0
Jitter error (maybe fixed) : 0
Retry sector count : 0
Damaged sector count : 0

Track 22
CRC32 hash : 21BC5BDA
CRC32 hash (skip zero) : A18B080A
AccurateRip v1 signature : F5DCDFBE
AccurateRip v2 signature : 83AE5EA1
->Accurately ripped (v2, confidence 2/2)
Statistics
Read error : 0
Jitter error (maybe fixed) : 0
Retry sector count : 0
Damaged sector count : 0

Track 23
CRC32 hash : 28B4CCAF
CRC32 hash (skip zero) : 6D8BF79B
AccurateRip v1 signature : 22A78778
AccurateRip v2 signature : DF9BFDC5
->Accurately ripped (v2, confidence 2/2)
Statistics
Read error : 0
Jitter error (maybe fixed) : 0
Retry sector count : 0
Damaged sector count : 0

Track 24
CRC32 hash : F6C75291
CRC32 hash (skip zero) : 58AE6536
AccurateRip v1 signature : 8ED796E2
AccurateRip v2 signature : 7B8AF610
->Accurately ripped (v2, confidence 2/2)
Statistics
Read error : 0
Jitter error (maybe fixed) : 0
Retry sector count : 0
Damaged sector count : 0

Track 25
CRC32 hash : 711F347D
CRC32 hash (skip zero) : C4D14FA7
AccurateRip v1 signature : B3C2B365
AccurateRip v2 signature : 144317B6
->Accurately ripped (v2, confidence 2/2)
Statistics
Read error : 0
Jitter error (maybe fixed) : 0
Retry sector count : 0
Damaged sector count : 0

Track 26
CRC32 hash : B9DE7FBD
CRC32 hash (skip zero) : 2F949B26
AccurateRip v1 signature : 0C81FB80
AccurateRip v2 signature : BEFC903A
->Accurately ripped (v2, confidence 2/2)
Statistics
Read error : 0
Jitter error (maybe fixed) : 0
Retry sector count : 0
Damaged sector count : 0

Track 27
CRC32 hash : 8784377A
CRC32 hash (skip zero) : ED07B7E3
AccurateRip v1 signature : FF74D578
AccurateRip v2 signature : E09FBAE7
->Accurately ripped (v2, confidence 2/2)
Statistics
Read error : 0
Jitter error (maybe fixed) : 0
Retry sector count : 0
Damaged sector count : 0

Track 28
CRC32 hash : 7D837122
CRC32 hash (skip zero) : F0743733
AccurateRip v1 signature : 38021E2B
AccurateRip v2 signature : 6480E20A
->Accurately ripped (v2, confidence 2/2)
Statistics
Read error : 0
Jitter error (maybe fixed) : 0
Retry sector count : 0
Damaged sector count : 0

Track 29
CRC32 hash : F87F3AAC
CRC32 hash (skip zero) : 69B35B52
AccurateRip v1 signature : 95CE669A
AccurateRip v2 signature : EEED68C2
->Accurately ripped (v2, confidence 2/2)
Statistics
Read error : 0
Jitter error (maybe fixed) : 0
Retry sector count : 0
Damaged sector count : 0

Track 30
CRC32 hash : E1BB034C
CRC32 hash (skip zero) : 4D12D362
AccurateRip v1 signature : AC6A3E35
AccurateRip v2 signature : D0429E8F
->Accurately ripped (v2, confidence 2/2)
Statistics
Read error : 0
Jitter error (maybe fixed) : 0
Retry sector count : 0
Damaged sector count : 0

No errors occurred

End of status report

[CUETools log; Date: 07.09.2017 11:01:45; Version: 2.1.5]
[CTDB TOCID: IC9XQyrOz8VTHPbU1TrINtrzB3M-] found.
Track | CTDB Status
1 | (6/6) Accurately ripped
2 | (6/6) Accurately ripped
3 | (6/6) Accurately ripped
4 | (6/6) Accurately ripped
5 | (6/6) Accurately ripped
6 | (6/6) Accurately ripped
7 | (6/6) Accurately ripped
8 | (6/6) Accurately ripped
9 | (6/6) Accurately ripped
10 | (6/6) Accurately ripped
11 | (6/6) Accurately ripped
12 | (6/6) Accurately ripped
13 | (6/6) Accurately ripped
14 | (6/6) Accurately ripped
15 | (6/6) Accurately ripped
16 | (6/6) Accurately ripped
17 | (6/6) Accurately ripped
18 | (6/6) Accurately ripped
19 | (6/6) Accurately ripped
20 | (6/6) Accurately ripped
21 | (6/6) Accurately ripped
22 | (6/6) Accurately ripped
23 | (6/6) Accurately ripped
24 | (6/6) Accurately ripped
25 | (6/6) Accurately ripped
26 | (6/6) Accurately ripped
27 | (6/6) Accurately ripped
28 | (6/6) Accurately ripped
29 | (6/6) Accurately ripped
30 | (6/6) Accurately ripped
[AccurateRip ID: 00543a5f-06daaed1-c2110b1e] found.
Track [ CRC | V2 ] Status
01 [f67c84e0|c0309cbc] (0+2/2) Accurately ripped
02 [5a58d93a|64f68904] (0+2/2) Accurately ripped
03 [722fbc36|7accb443] (0+2/2) Accurately ripped
04 [4df92bdc|0a525f5c] (0+2/2) Accurately ripped
05 [f45ce772|59d8d25d] (0+2/2) Accurately ripped
06 [0198ae74|eef615d8] (0+2/2) Accurately ripped
07 [39852c7b|2ce2517b] (0+2/2) Accurately ripped
08 [0276de6f|3d8071d6] (0+2/2) Accurately ripped
09 [91f6601c|657cacd2] (0+2/2) Accurately ripped
10 [637a645d|fdcc3480] (0+2/2) Accurately ripped
11 [704d6462|12c94945] (0+2/2) Accurately ripped
12 [5b7e11b0|04acfd1d] (0+2/2) Accurately ripped
13 [47cd9d2f|216260c7] (0+2/2) Accurately ripped
14 [0fa7e4c4|a1127f16] (0+2/2) Accurately ripped
15 [045f670f|e08312ea] (0+2/2) Accurately ripped
16 [b8eb131d|10ae62c7] (0+2/2) Accurately ripped
17 [86c0072b|858d6056] (0+2/2) Accurately ripped
18 [bd71609d|c807c5f6] (0+2/2) Accurately ripped
19 [117f3744|1b88f418] (0+2/2) Accurately ripped
20 [4d92d52d|d1232ef0] (0+2/2) Accurately ripped
21 [e27bcd9b|ee6a5086] (0+2/2) Accurately ripped
22 [f5dcdfbe|83ae5ea1] (0+2/2) Accurately ripped
23 [22a78778|df9bfdc5] (0+2/2) Accurately ripped
24 [8ed796e2|7b8af610] (0+2/2) Accurately ripped
25 [b3c2b365|144317b6] (0+2/2) Accurately ripped
26 [0c81fb80|befc903a] (0+2/2) Accurately ripped
27 [ff74d578|e09fbae7] (0+2/2) Accurately ripped
28 [38021e2b|6480e20a] (0+2/2) Accurately ripped
29 [95ce669a|eeed68c2] (0+2/2) Accurately ripped
30 [ac6a3e35|d0429e8f] (0+2/2) Accurately ripped

Track Peak [ CRC32 ] [W/O NULL]
– 100,0 [7084517B] [5EB6BEDD]
01 52,0 [0A667DFD] [E9959B24]
02 49,6 [A070E5E7] [B5301200]
03 81,1 [14F6F639] [20597EB5]
04 76,6 [66DBE55D] [587C199B]
05 79,3 [2F0B8DC2] [89576E7E]
06 87,4 [10310B48] [D03BA528]
07 72,0 [19069ADC] [7C698018]
08 73,8 [7355DD39] [EB67FC42]
09 84,0 [63844ACC] [ED1CAFE9]
10 61,4 [A274B177] [73F7CE3A]
11 90,2 [CA1B6F27] [776BE277]
12 81,2 [39170088] [EF281861]
13 72,4 [A84FB3D7] [102273A5]
14 75,0 [2CA49447] [ABAC0344]
15 100,0 [82C935B5] [36656C01]
16 66,4 [8BC29F88] [DA9CFE30]
17 73,1 [449BCC8B] [8B27163B]
18 62,7 [8588E8A2] [6FE757C5]
19 57,9 [B6B5A94F] [E48F3567]
20 68,9 [B8F7C73D] [FF1DEDA3]
21 46,5 [0DE0CB9A] [D4DB1C46]
22 63,2 [21BC5BDA] [A18B080A]
23 78,6 [28B4CCAF] [6D8BF79B]
24 85,0 [F6C75291] [58AE6536]
25 76,6 [711F347D] [C4D14FA7]
26 92,3 [B9DE7FBD] [2F949B26]
27 68,4 [8784377A] [ED07B7E3]
28 60,7 [7D837122] [F0743733]
29 63,6 [F87F3AAC] [69B35B52]
30 57,0 [E1BB034C] [4D12D362]

CD 4:
Quadri a violino, flauto traversière, viola di Gamba e fondamento (1730)
Concerto secondo D-Dur
1. Allegro
2. Affettuoso
3. Vivace
Sonata prima, A-Dur
4. Soave
5. Allegro
6. Andante
7. Vivace
Première Suite, e-moll
8. Prélude (vitement)
9. Rigaudon
10. Air
11. Replique
12. Menuets I & II
13. Gigue
Sonata seconda, g-moll
14. Andante
15. Allegro
16. Largo
17. Allegro
Concerto primo, D-Dur
18. Grave-Allegro-Grave-Allegro
19. Allegro
François FERNANDEZ, violon
Danièle ETIENNE, flûte
Philippe PIERLOT, basse de viole
Bernard FOCCROULLE, clavecin

X Lossless Decoder version 20161007 (149.3)
XLD extraction logfile from 2017-08-27 14:16:51 +0200
Ricercar Consort / Trio-Sonaten & Quartette
Used drive : TSSTcorp CDDVDW SE-208GB (revision MF00)
Media type : Pressed CD
Ripper mode : XLD Secure Ripper
Disable audio cache : OK for the drive with a cache less than 1375KiB
Make use of C2 pointers : NO
Read offset correction : 6
Max retry count : 20
Gap status : Analyzed, Appended
TOC of the extracted CD
Track | Start | Length | Start sector | End sector
––––––––––––––––––––––––––––-
1 | 00:00:00 | 02:51:29 | 0 | 12853
2 | 02:51:29 | 02:32:31 | 12854 | 24284
3 | 05:23:60 | 01:39:73 | 24285 | 31782
4 | 07:03:58 | 03:01:36 | 31783 | 45393
5 | 10:05:19 | 02:16:41 | 45394 | 55634
6 | 12:21:60 | 01:31:49 | 55635 | 62508
7 | 13:53:34 | 01:58:67 | 62509 | 71425
8 | 15:52:26 | 01:49:61 | 71426 | 79661
9 | 17:42:12 | 02:59:32 | 79662 | 93118
10 | 20:41:44 | 02:45:24 | 93119 | 105517
11 | 23:26:68 | 03:16:05 | 105518 | 120222
12 | 26:42:73 | 02:55:15 | 120223 | 133362
13 | 29:38:13 | 02:25:51 | 133363 | 144288
14 | 32:03:64 | 02:04:41 | 144289 | 153629
15 | 34:08:30 | 02:12:67 | 153630 | 163596
16 | 36:21:22 | 02:52:07 | 163597 | 176503
17 | 39:13:29 | 02:00:43 | 176504 | 185546
18 | 41:13:72 | 02:01:43 | 185547 | 194664
19 | 43:15:40 | 02:19:29 | 194665 | 205118
20 | 45:34:69 | 01:35:46 | 205119 | 212289
21 | 47:10:40 | 01:21:51 | 212290 | 218415
22 | 48:32:16 | 02:11:24 | 218416 | 228264
23 | 50:43:40 | 01:48:08 | 228265 | 236372
24 | 52:31:48 | 02:19:35 | 236373 | 246832
25 | 54:51:08 | 02:15:46 | 246833 | 257003

AccurateRip Summary (DiscID: 0034c4ff-03b09217-550d6219)
Track 01 : OK (v2, confidence 2/2)
Track 02 : OK (v2, confidence 2/2)
Track 03 : OK (v2, confidence 2/2)
Track 04 : OK (v2, confidence 2/2)
Track 05 : OK (v2, confidence 2/2)
Track 06 : OK (v2, confidence 2/2)
Track 07 : OK (v2, confidence 2/2)
Track 08 : OK (v2, confidence 2/2)
Track 09 : OK (v2, confidence 2/2)
Track 10 : OK (v2, confidence 2/2)
Track 11 : OK (v2, confidence 2/2)
Track 12 : OK (v2, confidence 2/2)
Track 13 : OK (v2, confidence 2/2)
Track 14 : OK (v2, confidence 2/2)
Track 15 : OK (v2, confidence 2/2)
Track 16 : OK (v2, confidence 2/2)
Track 17 : OK (v2, confidence 2/2)
Track 18 : OK (v2, confidence 2/2)
Track 19 : OK (v2, confidence 2/2)
Track 20 : OK (v2, confidence 2/2)
Track 21 : OK (v2, confidence 3/3)
Track 22 : OK (v2, confidence 2/2)
Track 23 : OK (v2, confidence 2/2)
Track 24 : OK (v2, confidence 2/2)
Track 25 : OK (v2, confidence 2/2)
->All tracks accurately ripped.

All Tracks
Filename : /Users/loicchahine/Downloads/PlaiTab/4/Trio-Sonaten & Quartette.flac
CRC32 hash : 05C7CDE9
CRC32 hash (skip zero) : 11EFFDB3
Statistics
Read error : 0
Jitter error (maybe fixed) : 0
Retry sector count : 0
Damaged sector count : 0

Track 01
Pre-gap length : 00:02:00
CRC32 hash : 75D88B37
CRC32 hash (skip zero) : EDC5FFE6
AccurateRip v1 signature : C6BB60BB
AccurateRip v2 signature : 598E10AD
->Accurately ripped (v2, confidence 2/2)
Statistics
Read error : 0
Jitter error (maybe fixed) : 0
Retry sector count : 0
Damaged sector count : 0

Track 02
CRC32 hash : B63514D4
CRC32 hash (skip zero) : 6FA9D1F2
AccurateRip v1 signature : EED6FDA5
AccurateRip v2 signature : BF7762DC
->Accurately ripped (v2, confidence 2/2)
Statistics
Read error : 0
Jitter error (maybe fixed) : 0
Retry sector count : 0
Damaged sector count : 0

Track 03
CRC32 hash : 732569C1
CRC32 hash (skip zero) : 48278E9B
AccurateRip v1 signature : 16FA4115
AccurateRip v2 signature : 45A7B0A5
->Accurately ripped (v2, confidence 2/2)
Statistics
Read error : 0
Jitter error (maybe fixed) : 0
Retry sector count : 0
Damaged sector count : 0

Track 04
CRC32 hash : 56A91D4A
CRC32 hash (skip zero) : 6ADDAAD3
AccurateRip v1 signature : 5BC4247E
AccurateRip v2 signature : 4D366470
->Accurately ripped (v2, confidence 2/2)
Statistics
Read error : 0
Jitter error (maybe fixed) : 0
Retry sector count : 0
Damaged sector count : 0

Track 05
CRC32 hash : C587C8FE
CRC32 hash (skip zero) : D8394E7E
AccurateRip v1 signature : C5EC1331
AccurateRip v2 signature : 4637AFCF
->Accurately ripped (v2, confidence 2/2)
Statistics
Read error : 0
Jitter error (maybe fixed) : 0
Retry sector count : 0
Damaged sector count : 0

Track 06
CRC32 hash : 38B733FC
CRC32 hash (skip zero) : E282D838
AccurateRip v1 signature : 57C003BD
AccurateRip v2 signature : A1F7A1E6
->Accurately ripped (v2, confidence 2/2)
Statistics
Read error : 0
Jitter error (maybe fixed) : 0
Retry sector count : 0
Damaged sector count : 0

Track 07
CRC32 hash : 825C67CF
CRC32 hash (skip zero) : 09837048
AccurateRip v1 signature : CEF81717
AccurateRip v2 signature : B0AD166C
->Accurately ripped (v2, confidence 2/2)
Statistics
Read error : 0
Jitter error (maybe fixed) : 0
Retry sector count : 0
Damaged sector count : 0

Track 08
CRC32 hash : DED0090C
CRC32 hash (skip zero) : 40C91D67
AccurateRip v1 signature : 3BED6644
AccurateRip v2 signature : E02C0822
->Accurately ripped (v2, confidence 2/2)
Statistics
Read error : 0
Jitter error (maybe fixed) : 0
Retry sector count : 0
Damaged sector count : 0

Track 09
CRC32 hash : B399D906
CRC32 hash (skip zero) : 017F0D47
AccurateRip v1 signature : C1E90BBD
AccurateRip v2 signature : B774F88F
->Accurately ripped (v2, confidence 2/2)
Statistics
Read error : 0
Jitter error (maybe fixed) : 0
Retry sector count : 0
Damaged sector count : 0

Track 10
CRC32 hash : E5E93D97
CRC32 hash (skip zero) : B42D0D49
AccurateRip v1 signature : CF73EB8A
AccurateRip v2 signature : 1D57536E
->Accurately ripped (v2, confidence 2/2)
Statistics
Read error : 0
Jitter error (maybe fixed) : 0
Retry sector count : 0
Damaged sector count : 0

Track 11
CRC32 hash : 3E6F39C3
CRC32 hash (skip zero) : 437503DB
AccurateRip v1 signature : A34F3376
AccurateRip v2 signature : E00B5011
->Accurately ripped (v2, confidence 2/2)
Statistics
Read error : 0
Jitter error (maybe fixed) : 0
Retry sector count : 0
Damaged sector count : 0

Track 12
CRC32 hash : 43D15D9A
CRC32 hash (skip zero) : FFDA6B01
AccurateRip v1 signature : FAE3F6B0
AccurateRip v2 signature : A31B8DA0
->Accurately ripped (v2, confidence 2/2)
Statistics
Read error : 0
Jitter error (maybe fixed) : 0
Retry sector count : 0
Damaged sector count : 0

Track 13
CRC32 hash : 87D2D592
CRC32 hash (skip zero) : BDC76233
AccurateRip v1 signature : DF457679
AccurateRip v2 signature : D7BC2A6F
->Accurately ripped (v2, confidence 2/2)
Statistics
Read error : 0
Jitter error (maybe fixed) : 0
Retry sector count : 0
Damaged sector count : 0

Track 14
CRC32 hash : F55FEEB4
CRC32 hash (skip zero) : 2F2B291D
AccurateRip v1 signature : E56AFBAD
AccurateRip v2 signature : 4607E16E
->Accurately ripped (v2, confidence 2/2)
Statistics
Read error : 0
Jitter error (maybe fixed) : 0
Retry sector count : 0
Damaged sector count : 0

Track 15
CRC32 hash : C8B170B9
CRC32 hash (skip zero) : 10B268DB
AccurateRip v1 signature : 3DD1C749
AccurateRip v2 signature : 335FBBF9
->Accurately ripped (v2, confidence 2/2)
Statistics
Read error : 0
Jitter error (maybe fixed) : 0
Retry sector count : 0
Damaged sector count : 0

Track 16
CRC32 hash : DF9B5971
CRC32 hash (skip zero) : EBF58AC6
AccurateRip v1 signature : 41586D24
AccurateRip v2 signature : 2C2CFCB6
->Accurately ripped (v2, confidence 2/2)
Statistics
Read error : 0
Jitter error (maybe fixed) : 0
Retry sector count : 0
Damaged sector count : 0

Track 17
CRC32 hash : 17E72739
CRC32 hash (skip zero) : 13801599
AccurateRip v1 signature : 49CD34E2
AccurateRip v2 signature : B1332079
->Accurately ripped (v2, confidence 2/2)
Statistics
Read error : 0
Jitter error (maybe fixed) : 0
Retry sector count : 0
Damaged sector count : 0

Track 18
CRC32 hash : BF72BE07
CRC32 hash (skip zero) : C85BF798
AccurateRip v1 signature : 54025FFA
AccurateRip v2 signature : 1AC2BA05
->Accurately ripped (v2, confidence 2/2)
Statistics
Read error : 0
Jitter error (maybe fixed) : 0
Retry sector count : 0
Damaged sector count : 0

Track 19
CRC32 hash : 67A94A66
CRC32 hash (skip zero) : 9931281E
AccurateRip v1 signature : 37C222C9
AccurateRip v2 signature : 3055BF8B
->Accurately ripped (v2, confidence 2/2)
Statistics
Read error : 0
Jitter error (maybe fixed) : 0
Retry sector count : 0
Damaged sector count : 0

Track 20
CRC32 hash : 1E8F7A1D
CRC32 hash (skip zero) : 27EC3696
AccurateRip v1 signature : 4BFEBBC7
AccurateRip v2 signature : 18E40BEE
->Accurately ripped (v2, confidence 2/2)
Statistics
Read error : 0
Jitter error (maybe fixed) : 0
Retry sector count : 0
Damaged sector count : 0

Track 21
CRC32 hash : F8B1554F
CRC32 hash (skip zero) : E1326768
AccurateRip v1 signature : 388F3AA1
AccurateRip v2 signature : 7290171F
->Accurately ripped (v2, confidence 3/3)
Statistics
Read error : 0
Jitter error (maybe fixed) : 0
Retry sector count : 0
Damaged sector count : 0

Track 22
CRC32 hash : 0BD2D3BB
CRC32 hash (skip zero) : B9FC6532
AccurateRip v1 signature : CC6790F0
AccurateRip v2 signature : A9DABA2E
->Accurately ripped (v2, confidence 2/2)
Statistics
Read error : 0
Jitter error (maybe fixed) : 0
Retry sector count : 0
Damaged sector count : 0

Track 23
CRC32 hash : 3D0137FD
CRC32 hash (skip zero) : 8A4F3898
AccurateRip v1 signature : A7E23AEF
AccurateRip v2 signature : 94F1F955
->Accurately ripped (v2, confidence 2/2)
Statistics
Read error : 0
Jitter error (maybe fixed) : 0
Retry sector count : 0
Damaged sector count : 0

Track 24
CRC32 hash : BC43584A
CRC32 hash (skip zero) : 9280D6AF
AccurateRip v1 signature : CD431A86
AccurateRip v2 signature : C57F5E40
->Accurately ripped (v2, confidence 2/2)
Statistics
Read error : 0
Jitter error (maybe fixed) : 0
Retry sector count : 0
Damaged sector count : 0

Track 25
CRC32 hash : 50FCEE39
CRC32 hash (skip zero) : A52CCD19
AccurateRip v1 signature : 4A6BD64C
AccurateRip v2 signature : A0954DAF
->Accurately ripped (v2, confidence 2/2)
Statistics
Read error : 0
Jitter error (maybe fixed) : 0
Retry sector count : 0
Damaged sector count : 0

No errors occurred

End of status report

[CUETools log; Date: 07.09.2017 11:03:20; Version: 2.1.5]
[CTDB TOCID: 387NKslHPF9F3AzbB6MoW5Z4X7k-] found.
Track | CTDB Status
1 | (6/6) Accurately ripped
2 | (6/6) Accurately ripped
3 | (6/6) Accurately ripped
4 | (6/6) Accurately ripped
5 | (6/6) Accurately ripped
6 | (6/6) Accurately ripped
7 | (6/6) Accurately ripped
8 | (6/6) Accurately ripped
9 | (6/6) Accurately ripped
10 | (6/6) Accurately ripped
11 | (6/6) Accurately ripped
12 | (6/6) Accurately ripped
13 | (6/6) Accurately ripped
14 | (6/6) Accurately ripped
15 | (6/6) Accurately ripped
16 | (6/6) Accurately ripped
17 | (6/6) Accurately ripped
18 | (6/6) Accurately ripped
19 | (6/6) Accurately ripped
20 | (6/6) Accurately ripped
21 | (6/6) Accurately ripped
22 | (6/6) Accurately ripped
23 | (6/6) Accurately ripped
24 | (6/6) Accurately ripped
25 | (6/6) Accurately ripped
[AccurateRip ID: 0034c4ff-03b09217-550d6219] found.
Track [ CRC | V2 ] Status
01 [c6bb60bb|598e10ad] (0+2/2) Accurately ripped
02 [eed6fda5|bf7762dc] (0+2/2) Accurately ripped
03 [16fa4115|45a7b0a5] (0+2/2) Accurately ripped
04 [5bc4247e|4d366470] (0+2/2) Accurately ripped
05 [c5ec1331|4637afcf] (0+2/2) Accurately ripped
06 [57c003bd|a1f7a1e6] (0+2/2) Accurately ripped
07 [cef81717|b0ad166c] (0+2/2) Accurately ripped
08 [3bed6644|e02c0822] (0+2/2) Accurately ripped
09 [c1e90bbd|b774f88f] (0+2/2) Accurately ripped
10 [cf73eb8a|1d57536e] (0+2/2) Accurately ripped
11 [a34f3376|e00b5011] (0+2/2) Accurately ripped
12 [fae3f6b0|a31b8da0] (0+2/2) Accurately ripped
13 [df457679|d7bc2a6f] (0+2/2) Accurately ripped
14 [e56afbad|4607e16e] (0+2/2) Accurately ripped
15 [3dd1c749|335fbbf9] (0+2/2) Accurately ripped
16 [41586d24|2c2cfcb6] (0+2/2) Accurately ripped
17 [49cd34e2|b1332079] (0+2/2) Accurately ripped
18 [54025ffa|1ac2ba05] (0+2/2) Accurately ripped
19 [37c222c9|3055bf8b] (0+2/2) Accurately ripped
20 [4bfebbc7|18e40bee] (0+2/2) Accurately ripped
21 [388f3aa1|7290171f] (0+3/3) Accurately ripped
22 [cc6790f0|a9daba2e] (0+2/2) Accurately ripped
23 [a7e23aef|94f1f955] (0+2/2) Accurately ripped
24 [cd431a86|c57f5e40] (0+2/2) Accurately ripped
25 [4a6bd64c|a0954daf] (0+2/2) Accurately ripped

Track Peak [ CRC32 ] [W/O NULL]
– 99,3 [05C7CDE9] [11EFFDB3]
01 82,3 [75D88B37] [EDC5FFE6]
02 77,4 [B63514D4] [6FA9D1F2]
03 72,6 [732569C1] [48278E9B]
04 81,1 [56A91D4A] [6ADDAAD3]
05 61,2 [C587C8FE] [D8394E7E]
06 67,5 [38B733FC] [E282D838]
07 75,7 [825C67CF] [09837048]
08 61,9 [DED0090C] [40C91D67]
09 88,6 [B399D906] [017F0D47]
10 93,1 [E5E93D97] [B42D0D49]
11 74,3 [3E6F39C3] [437503DB]
12 94,5 [43D15D9A] [FFDA6B01]
13 55,1 [87D2D592] [BDC76233]
14 65,7 [F55FEEB4] [2F2B291D]
15 37,4 [C8B170B9] [10B268DB]
16 52,5 [DF9B5971] [EBF58AC6]
17 84,0 [17E72739] [13801599]
18 86,1 [BF72BE07] [C85BF798]
19 88,3 [67A94A66] [9931281E]
20 84,0 [1E8F7A1D] [27EC3696]
21 88,0 [F8B1554F] [E1326768]
22 99,3 [0BD2D3BB] [B9FC6532]
23 77,1 [3D0137FD] [8A4F3898]
24 72,4 [BC43584A] [9280D6AF]
25 86,6 [50FCEE39] [A52CCD19]

CD 5:
Quartet g-moll
Hautbois, violon, viole de gambe,
basse continue (clavecin, basse de viole)
1. Lento
2. Vivace
3. Adagio
4. Allegro
Trio Sonate a-moll
Flûte traversière, viole de gambe,
basse continue (clavecin, basse de viole
5. Andante
6. Allegro
7. Adagio
8. Allegro
Trio Sonate e-moll
(Musique de Table, Production II)
Hautbois, flûte traversière,
basse continue (clavecin, basse de viole)
9. Affettuoso
10. Allegro
11. Dolce
12. Vivace
Trio Sonate g-moll (Six Trios …)
Violon, viole de gambe,
basse continue (orgue, basse de viole)
13. Adagio
14. Vivace
15. Adagio
16. Allegro (Gigue)
Trio Sonate d-moll (Essercizii Musici)
Flûte traversière, hautbois,
base continue (clavecin, basse de viole)
17. Largo
18. Allegro
19.Affettuoso
20. Presto
Deuxième Suite (Quadri…)
Flûte traversière, violon, basse de viole,
continuo (basse de viole, clavecin)
23. Prélude (Gaiement)
24. Air (Modérément)
25. Réjouissance
26. Courante
27. Passepied
RICERCAR CONSORT
François FERNANDEZ, violon
Philippe PIERLOT, basse de viole
Sophie WATILLON, basse de viole
(continuo, 1 à 8, 13 à16)
Patrick BEUCKELS, flûte traversière
Marcel PONSEELE, hautbois
Guy PENSON, clavecin, orgue

X Lossless Decoder version 20161007 (149.3)
XLD extraction logfile from 2017-08-27 14:32:29 +0200
François Fernandez / Telemann: Les Plaisirs de la table [Disc 5]
Used drive : TSSTcorp CDDVDW SE-208GB (revision MF00)
Media type : Pressed CD
Ripper mode : XLD Secure Ripper
Disable audio cache : OK for the drive with a cache less than 1375KiB
Make use of C2 pointers : NO
Read offset correction : 6
Max retry count : 20
Gap status : Analyzed, Appended
TOC of the extracted CD
Track | Start | Length | Start sector | End sector
––––––––––––––––––––––––––––-
1 | 00:00:00 | 03:45:46 | 0 | 16920
2 | 03:45:46 | 04:14:71 | 16921 | 36041
3 | 08:00:42 | 03:46:59 | 36042 | 53050
4 | 11:47:26 | 04:08:01 | 53051 | 71651
5 | 15:55:27 | 02:19:73 | 71652 | 82149
6 | 18:15:25 | 03:54:58 | 82150 | 99757
7 | 22:10:08 | 02:33:31 | 99758 | 111263
8 | 24:43:39 | 01:31:48 | 111264 | 118136
9 | 26:15:12 | 02:54:03 | 118137 | 131189
10 | 29:09:15 | 03:06:18 | 131190 | 145157
11 | 32:15:33 | 03:03:05 | 145158 | 158887
12 | 35:18:38 | 05:38:35 | 158888 | 184272
13 | 40:56:73 | 02:59:70 | 184273 | 197767
14 | 43:56:68 | 02:52:32 | 197768 | 210699
15 | 46:49:25 | 02:37:57 | 210700 | 222531
16 | 49:27:07 | 02:45:51 | 222532 | 234957
17 | 52:12:58 | 02:50:39 | 234958 | 247746
18 | 55:03:22 | 06:44:71 | 247747 | 278117
19 | 61:48:18 | 04:31:61 | 278118 | 298503

AccurateRip Summary (DiscID: 002c3b7b-026667ad-150f8c13)
Track 01 : OK (v2, confidence 2/2)
Track 02 : OK (v2, confidence 2/2)
Track 03 : OK (v2, confidence 2/2)
Track 04 : OK (v2, confidence 2/2)
Track 05 : OK (v2, confidence 2/2)
Track 06 : OK (v2, confidence 2/2)
Track 07 : OK (v2, confidence 2/2)
Track 08 : OK (v2, confidence 3/3)
Track 09 : OK (v2, confidence 3/3)
Track 10 : OK (v2, confidence 3/3)
Track 11 : OK (v2, confidence 3/3)
Track 12 : OK (v2, confidence 3/3)
Track 13 : OK (v2, confidence 3/3)
Track 14 : OK (v2, confidence 2/2)
Track 15 : OK (v2, confidence 2/2)
Track 16 : OK (v2, confidence 2/2)
Track 17 : OK (v2, confidence 2/2)
Track 18 : OK (v2, confidence 2/2)
Track 19 : OK (v2, confidence 2/2)
->All tracks accurately ripped.

All Tracks
Filename : /Users/loicchahine/Downloads/PlaiTab/5/Telemann: Les Plaisirs de la table [Disc 5].flac
CRC32 hash : 5411423A
CRC32 hash (skip zero) : 13491337
Statistics
Read error : 0
Jitter error (maybe fixed) : 0
Retry sector count : 0
Damaged sector count : 0

Track 01
Pre-gap length : 00:02:00
CRC32 hash : 0C879B2D
CRC32 hash (skip zero) : 48D8C6EE
AccurateRip v1 signature : 8AA923B9
AccurateRip v2 signature : A8BFDEB4
->Accurately ripped (v2, confidence 2/2)
Statistics
Read error : 0
Jitter error (maybe fixed) : 0
Retry sector count : 0
Damaged sector count : 0

Track 02
CRC32 hash : F710244F
CRC32 hash (skip zero) : 66B670E7
AccurateRip v1 signature : A604852F
AccurateRip v2 signature : 6BCC1109
->Accurately ripped (v2, confidence 2/2)
Statistics
Read error : 0
Jitter error (maybe fixed) : 0
Retry sector count : 0
Damaged sector count : 0

Track 03
CRC32 hash : D8BCDE4B
CRC32 hash (skip zero) : 050D9CD9
AccurateRip v1 signature : 64AE677A
AccurateRip v2 signature : 7530304D
->Accurately ripped (v2, confidence 2/2)
Statistics
Read error : 0
Jitter error (maybe fixed) : 0
Retry sector count : 0
Damaged sector count : 0

Track 04
CRC32 hash : E8F56880
CRC32 hash (skip zero) : 961DD6A7
AccurateRip v1 signature : 57059740
AccurateRip v2 signature : 6F1BCD4D
->Accurately ripped (v2, confidence 2/2)
Statistics
Read error : 0
Jitter error (maybe fixed) : 0
Retry sector count : 0
Damaged sector count : 0

Track 05
CRC32 hash : C03F31CD
CRC32 hash (skip zero) : BFB753CC
AccurateRip v1 signature : 0B9CE893
AccurateRip v2 signature : 91661D3A
->Accurately ripped (v2, confidence 2/2)
Statistics
Read error : 0
Jitter error (maybe fixed) : 0
Retry sector count : 0
Damaged sector count : 0

Track 06
CRC32 hash : 704392C6
CRC32 hash (skip zero) : 29BA4951
AccurateRip v1 signature : CC310B76
AccurateRip v2 signature : C3A83FAE
->Accurately ripped (v2, confidence 2/2)
Statistics
Read error : 0
Jitter error (maybe fixed) : 0
Retry sector count : 0
Damaged sector count : 0

Track 07
CRC32 hash : 21283AE2
CRC32 hash (skip zero) : 19CF781D
AccurateRip v1 signature : 6C84C6FC
AccurateRip v2 signature : 39588541
->Accurately ripped (v2, confidence 2/2)
Statistics
Read error : 0
Jitter error (maybe fixed) : 0
Retry sector count : 0
Damaged sector count : 0

Track 08
CRC32 hash : 9C8BB29A
CRC32 hash (skip zero) : 412E2D31
AccurateRip v1 signature : CA5E9075
AccurateRip v2 signature : 3D4F31CD
->Accurately ripped (v2, confidence 3/3)
Statistics
Read error : 0
Jitter error (maybe fixed) : 0
Retry sector count : 0
Damaged sector count : 0

Track 09
CRC32 hash : A11D581B
CRC32 hash (skip zero) : BF335343
AccurateRip v1 signature : 41DBF781
AccurateRip v2 signature : 5E1BE208
->Accurately ripped (v2, confidence 3/3)
Statistics
Read error : 0
Jitter error (maybe fixed) : 0
Retry sector count : 0
Damaged sector count : 0

Track 10
CRC32 hash : 620E1A53
CRC32 hash (skip zero) : A78A5276
AccurateRip v1 signature : 97EAEE2A
AccurateRip v2 signature : A1BC9820
->Accurately ripped (v2, confidence 3/3)
Statistics
Read error : 0
Jitter error (maybe fixed) : 0
Retry sector count : 0
Damaged sector count : 0

Track 11
CRC32 hash : F03DDF61
CRC32 hash (skip zero) : 2F4EE0DA
AccurateRip v1 signature : 2255BEC5
AccurateRip v2 signature : EC6B2F26
->Accurately ripped (v2, confidence 3/3)
Statistics
Read error : 0
Jitter error (maybe fixed) : 0
Retry sector count : 0
Damaged sector count : 0

Track 12
CRC32 hash : 6FEACA75
CRC32 hash (skip zero) : A548ECE4
AccurateRip v1 signature : 491032BC
AccurateRip v2 signature : B1C5DADF
->Accurately ripped (v2, confidence 3/3)
Statistics
Read error : 0
Jitter error (maybe fixed) : 0
Retry sector count : 0
Damaged sector count : 0

Track 13
CRC32 hash : DF777857
CRC32 hash (skip zero) : 4FE6A5F5
AccurateRip v1 signature : ED3AB4D9
AccurateRip v2 signature : AB81BF76
->Accurately ripped (v2, confidence 3/3)
Statistics
Read error : 0
Jitter error (maybe fixed) : 0
Retry sector count : 0
Damaged sector count : 0

Track 14
CRC32 hash : 7723F49C
CRC32 hash (skip zero) : 538F7622
AccurateRip v1 signature : EAD723CF
AccurateRip v2 signature : 43D711DE
->Accurately ripped (v2, confidence 2/2)
Statistics
Read error : 0
Jitter error (maybe fixed) : 0
Retry sector count : 0
Damaged sector count : 0

Track 15
CRC32 hash : 629EC2C4
CRC32 hash (skip zero) : 42F643B8
AccurateRip v1 signature : 6401294F
AccurateRip v2 signature : 2E3909A2
->Accurately ripped (v2, confidence 2/2)
Statistics
Read error : 0
Jitter error (maybe fixed) : 0
Retry sector count : 0
Damaged sector count : 0

Track 16
CRC32 hash : 3689FEFB
CRC32 hash (skip zero) : C36A31B3
AccurateRip v1 signature : 5F708734
AccurateRip v2 signature : 693CD365
->Accurately ripped (v2, confidence 2/2)
Statistics
Read error : 0
Jitter error (maybe fixed) : 0
Retry sector count : 0
Damaged sector count : 0

Track 17
CRC32 hash : FF4845F0
CRC32 hash (skip zero) : C389B2C0
AccurateRip v1 signature : D208C6A1
AccurateRip v2 signature : 917CA5A3
->Accurately ripped (v2, confidence 2/2)
Statistics
Read error : 0
Jitter error (maybe fixed) : 0
Retry sector count : 0
Damaged sector count : 0

Track 18
CRC32 hash : DAE5E868
CRC32 hash (skip zero) : 2EEE8931
AccurateRip v1 signature : AD0F5688
AccurateRip v2 signature : 4279264A
->Accurately ripped (v2, confidence 2/2)
Statistics
Read error : 0
Jitter error (maybe fixed) : 0
Retry sector count : 0
Damaged sector count : 0

Track 19
CRC32 hash : 9472C7D7
CRC32 hash (skip zero) : E4EA40AD
AccurateRip v1 signature : 8CF63775
AccurateRip v2 signature : E9DFB7C9
->Accurately ripped (v2, confidence 2/2)
Statistics
Read error : 0
Jitter error (maybe fixed) : 0
Retry sector count : 0
Damaged sector count : 0

No errors occurred

End of status report

[CUETools log; Date: 07.09.2017 11:04:49; Version: 2.1.5]
[CTDB TOCID: _CFrvG716kc5WAto1vl6qGIuLVI-] found.
Track | CTDB Status
1 | (6/6) Accurately ripped
2 | (6/6) Accurately ripped
3 | (6/6) Accurately ripped
4 | (6/6) Accurately ripped
5 | (6/6) Accurately ripped
6 | (6/6) Accurately ripped
7 | (6/6) Accurately ripped
8 | (6/6) Accurately ripped
9 | (6/6) Accurately ripped
10 | (6/6) Accurately ripped
11 | (6/6) Accurately ripped
12 | (6/6) Accurately ripped
13 | (6/6) Accurately ripped
14 | (6/6) Accurately ripped
15 | (6/6) Accurately ripped
16 | (6/6) Accurately ripped
17 | (6/6) Accurately ripped
18 | (6/6) Accurately ripped
19 | (6/6) Accurately ripped
[AccurateRip ID: 002c3b7b-026667ad-150f8c13] found.
Track [ CRC | V2 ] Status
01 [8aa923b9|a8bfdeb4] (0+2/2) Accurately ripped
02 [a604852f|6bcc1109] (0+2/2) Accurately ripped
03 [64ae677a|7530304d] (0+2/2) Accurately ripped
04 [57059740|6f1bcd4d] (0+2/2) Accurately ripped
05 [0b9ce893|91661d3a] (0+2/2) Accurately ripped
06 [cc310b76|c3a83fae] (0+2/2) Accurately ripped
07 [6c84c6fc|39588541] (0+2/2) Accurately ripped
08 [ca5e9075|3d4f31cd] (0+3/3) Accurately ripped
09 [41dbf781|5e1be208] (0+3/3) Accurately ripped
10 [97eaee2a|a1bc9820] (0+3/3) Accurately ripped
11 [2255bec5|ec6b2f26] (0+3/3) Accurately ripped
12 [491032bc|b1c5dadf] (0+3/3) Accurately ripped
13 [ed3ab4d9|ab81bf76] (0+3/3) Accurately ripped
14 [ead723cf|43d711de] (0+2/2) Accurately ripped
15 [6401294f|2e3909a2] (0+2/2) Accurately ripped
16 [5f708734|693cd365] (0+2/2) Accurately ripped
17 [d208c6a1|917ca5a3] (0+2/2) Accurately ripped
18 [ad0f5688|4279264a] (0+2/2) Accurately ripped
19 [8cf63775|e9dfb7c9] (0+2/2) Accurately ripped

Track Peak [ CRC32 ] [W/O NULL]
– 79,9 [5411423A] [13491337]
01 79,9 [0C879B2D] [48D8C6EE]
02 48,2 [F710244F] [66B670E7]
03 64,8 [D8BCDE4B] [050D9CD9]
04 65,8 [E8F56880] [961DD6A7]
05 68,8 [C03F31CD] [BFB753CC]
06 47,3 [704392C6] [29BA4951]
07 65,4 [21283AE2] [19CF781D]
08 50,9 [9C8BB29A] [412E2D31]
09 59,7 [A11D581B] [BF335343]
10 58,6 [620E1A53] [A78A5276]
11 51,2 [F03DDF61] [2F4EE0DA]
12 53,4 [6FEACA75] [A548ECE4]
13 58,8 [DF777857] [4FE6A5F5]
14 52,6 [7723F49C] [538F7622]
15 57,2 [629EC2C4] [42F643B8]
16 55,7 [3689FEFB] [C36A31B3]
17 62,4 [FF4845F0] [C389B2C0]
18 68,0 [DAE5E868] [2EEE8931]
19 64,9 [9472C7D7] [E4EA40AD]

CD 6:
Flauti Diversi
Johann Christian SCHICKHARDT
(ca. 1682 - av. 1762)
Concert II d-moll
4 flûtes à bec, basse continue (clavecin, basson)
1.Allegro
2.Adagio
3.Vivace
4.Allegro
Carl Heinrich ou Johann Gottlieb GRAUN
(1703-1757 / 1702-1771)
Concerto F-Dur
Flauto terzetto, 2 violons, basse continue (clavecin, violoncelle)
5.Allegro
6.Andante
7.Vivace
Georg-Philipp TELEMANN
Quatuor d-moll
(Musique de Table, Production II)
Flûte à bec, 2 flûtes traversières,
basse continue (clavecin, basson)
8. Andante
9. Vivace
10. Largo
11. Allegro-cantabile-allegro
Carl Philipp Emanuel BACH
(1714 - 1788)
Triosonate F-Dur, Wq. 163
flûte à bec basse, alto, basse continue (violoncelle, piano-forte)
12. Un poco andante
13. Allegretto
14. Allegro
Johann Friedrich FASCH
(1688-1758)
Quartet B-Dur
Flûte à bec, hautbois, violon,
basse continue (basson, clavecin)
15. Largo
16. Allegro
17. Grave
18. Allegro
Georg Philipp TELEMANN
Sixième Concert A-Dur
Flûte de voix, clavecin obligé, violoncelle
19. Andante
20. Allegro
21. Largo
22.Allegro assai
Johann Joachim QUANTZ
(1697-1773)
Triosonate C-Dur
Flûte à bec, flûte traversière, basse continue (violoncelle, clavecin)
23. Affettuoso
24. Alla breve
25. Larghetto
26. Vivace
Frédéric de ROOS, flûtes à bec
Patrick BEUCKELS, flûte traversière
Marcel PONSEELE, hautbois
David MINGS, basson
Patrick DENECKER, flûte à bec (1 à 4)
Joëlle LANSCOTTE, flûte à bec (1 à 4)
Mieke VAN WEDDINGEN, flûte à bec (1 à 4)
François FERNANDEZ, violon, alto
Ghislaine WAUTERS, violon
Hidemi SUZUKI, violoncelle
Guy PENSON, clavecin

X Lossless Decoder version 20161007 (149.3)
XLD extraction logfile from 2017-08-27 14:47:30 +0200
Ricercar Consort, Frédéric De Roos / Flauti Diversi
Used drive : TSSTcorp CDDVDW SE-208GB (revision MF00)
Media type : Pressed CD
Ripper mode : XLD Secure Ripper
Disable audio cache : OK for the drive with a cache less than 1375KiB
Make use of C2 pointers : NO
Read offset correction : 6
Max retry count : 20
Gap status : Analyzed, Appended
TOC of the extracted CD
Track | Start | Length | Start sector | End sector
––––––––––––––––––––––––––––-
1 | 00:00:00 | 01:54:42 | 0 | 8591
2 | 01:54:42 | 03:17:35 | 8592 | 23401
3 | 05:12:02 | 01:33:15 | 23402 | 30391
4 | 06:45:17 | 02:15:41 | 30392 | 40557
5 | 09:00:58 | 03:35:68 | 40558 | 56750
6 | 12:36:51 | 03:26:71 | 56751 | 72271
7 | 16:03:47 | 02:43:15 | 72272 | 84511
8 | 18:46:62 | 03:21:50 | 84512 | 99636
9 | 22:08:37 | 03:48:74 | 99637 | 116810
10 | 25:57:36 | 03:26:02 | 116811 | 132262
11 | 29:23:38 | 04:59:09 | 132263 | 154696
12 | 34:22:47 | 03:03:61 | 154697 | 168482
13 | 37:26:33 | 04:08:61 | 168483 | 187143
14 | 41:35:19 | 02:40:24 | 187144 | 199167
15 | 44:15:43 | 02:19:62 | 199168 | 209654
16 | 46:35:30 | 01:39:20 | 209655 | 217099
17 | 48:14:50 | 02:32:74 | 217100 | 228573
18 | 50:47:49 | 02:24:51 | 228574 | 239424
19 | 53:12:25 | 03:01:67 | 239425 | 253066
20 | 56:14:17 | 02:00:15 | 253067 | 262081
21 | 58:14:32 | 02:54:34 | 262082 | 275165
22 | 61:08:66 | 03:08:46 | 275166 | 289311
23 | 64:17:37 | 02:54:34 | 289312 | 302395
24 | 67:11:71 | 02:01:19 | 302396 | 311489
25 | 69:13:15 | 02:51:61 | 311490 | 324375
26 | 72:05:01 | 02:17:39 | 324376 | 334689

AccurateRip Summary (DiscID: 004686bf-05297c07-9f116e1a)
Track 01 : OK (v2, confidence 2/2)
Track 02 : OK (v2, confidence 2/2)
Track 03 : OK (v2, confidence 2/2)
Track 04 : OK (v2, confidence 2/2)
Track 05 : OK (v2, confidence 2/2)
Track 06 : OK (v2, confidence 2/2)
Track 07 : OK (v2, confidence 2/2)
Track 08 : OK (v2, confidence 2/2)
Track 09 : OK (v2, confidence 2/2)
Track 10 : OK (v2, confidence 2/2)
Track 11 : OK (v2, confidence 2/2)
Track 12 : OK (v2, confidence 2/2)
Track 13 : OK (v2, confidence 2/2)
Track 14 : OK (v2, confidence 2/2)
Track 15 : OK (v2, confidence 2/2)
Track 16 : OK (v2, confidence 2/2)
Track 17 : OK (v2, confidence 2/2)
Track 18 : OK (v2, confidence 2/2)
Track 19 : OK (v2, confidence 2/2)
Track 20 : OK (v2, confidence 2/2)
Track 21 : OK (v2, confidence 2/2)
Track 22 : OK (v2, confidence 2/2)
Track 23 : OK (v2, confidence 2/2)
Track 24 : OK (v2, confidence 2/2)
Track 25 : OK (v2, confidence 2/2)
Track 26 : OK (v2, confidence 2/2)
->All tracks accurately ripped.

All Tracks
Filename : /Users/loicchahine/Downloads/PlaiTab/6/Flauti Diversi.flac
CRC32 hash : 10DC4D63
CRC32 hash (skip zero) : 5B881A92
Statistics
Read error : 0
Jitter error (maybe fixed) : 0
Retry sector count : 0
Damaged sector count : 0

Track 01
Pre-gap length : 00:02:00
CRC32 hash : A5451739
CRC32 hash (skip zero) : 9079D851
AccurateRip v1 signature : 7142F24C
AccurateRip v2 signature : 725ADB4E
->Accurately ripped (v2, confidence 2/2)
Statistics
Read error : 0
Jitter error (maybe fixed) : 0
Retry sector count : 0
Damaged sector count : 0

Track 02
CRC32 hash : FAEA8D58
CRC32 hash (skip zero) : F87B5BE9
AccurateRip v1 signature : 247FA519
AccurateRip v2 signature : 128F04B1
->Accurately ripped (v2, confidence 2/2)
Statistics
Read error : 0
Jitter error (maybe fixed) : 0
Retry sector count : 0
Damaged sector count : 0

Track 03
CRC32 hash : 2B7A6C06
CRC32 hash (skip zero) : E139ADC9
AccurateRip v1 signature : FC49117C
AccurateRip v2 signature : E482F22C
->Accurately ripped (v2, confidence 2/2)
Statistics
Read error : 0
Jitter error (maybe fixed) : 0
Retry sector count : 0
Damaged sector count : 0

Track 04
CRC32 hash : 01CD95AF
CRC32 hash (skip zero) : 6F6BF68A
AccurateRip v1 signature : 5FC49771
AccurateRip v2 signature : E626A8F0
->Accurately ripped (v2, confidence 2/2)
Statistics
Read error : 0
Jitter error (maybe fixed) : 0
Retry sector count : 0
Damaged sector count : 0

Track 05
CRC32 hash : C0AF981B
CRC32 hash (skip zero) : FF923AA2
AccurateRip v1 signature : A1AD6D82
AccurateRip v2 signature : 14D6CA08
->Accurately ripped (v2, confidence 2/2)
Statistics
Read error : 0
Jitter error (maybe fixed) : 0
Retry sector count : 0
Damaged sector count : 0

Track 06
CRC32 hash : 3DC44009
CRC32 hash (skip zero) : 1133873E
AccurateRip v1 signature : 247E4FFF
AccurateRip v2 signature : AD834530
->Accurately ripped (v2, confidence 2/2)
Statistics
Read error : 0
Jitter error (maybe fixed) : 0
Retry sector count : 0
Damaged sector count : 0

Track 07
CRC32 hash : C4914D7D
CRC32 hash (skip zero) : 31480F0D
AccurateRip v1 signature : 7D5813E6
AccurateRip v2 signature : E9DCD1BD
->Accurately ripped (v2, confidence 2/2)
Statistics
Read error : 0
Jitter error (maybe fixed) : 0
Retry sector count : 0
Damaged sector count : 0

Track 08
CRC32 hash : 2AFA585D
CRC32 hash (skip zero) : C4EA45DD
AccurateRip v1 signature : F91B46C7
AccurateRip v2 signature : 096D9D06
->Accurately ripped (v2, confidence 2/2)
Statistics
Read error : 0
Jitter error (maybe fixed) : 0
Retry sector count : 0
Damaged sector count : 0

Track 09
CRC32 hash : ADEDFB2C
CRC32 hash (skip zero) : F36DA24A
AccurateRip v1 signature : 76ECFA92
AccurateRip v2 signature : 0383C758
->Accurately ripped (v2, confidence 2/2)
Statistics
Read error : 0
Jitter error (maybe fixed) : 0
Retry sector count : 0
Damaged sector count : 0

Track 10
CRC32 hash : F81DAEC1
CRC32 hash (skip zero) : 6865A587
AccurateRip v1 signature : D242F445
AccurateRip v2 signature : 7AD83ACC
->Accurately ripped (v2, confidence 2/2)
Statistics
Read error : 0
Jitter error (maybe fixed) : 0
Retry sector count : 0
Damaged sector count : 0

Track 11
CRC32 hash : 3C73B307
CRC32 hash (skip zero) : 73BEAD2D
AccurateRip v1 signature : 2F903981
AccurateRip v2 signature : E90EA1ED
->Accurately ripped (v2, confidence 2/2)
Statistics
Read error : 0
Jitter error (maybe fixed) : 0
Retry sector count : 0
Damaged sector count : 0

Track 12
CRC32 hash : B342BBE4
CRC32 hash (skip zero) : AF8BE815
AccurateRip v1 signature : 97093E7D
AccurateRip v2 signature : ECD8B997
->Accurately ripped (v2, confidence 2/2)
Statistics
Read error : 0
Jitter error (maybe fixed) : 0
Retry sector count : 0
Damaged sector count : 0

Track 13
CRC32 hash : C92277AD
CRC32 hash (skip zero) : 34FEFF71
AccurateRip v1 signature : 0F807C16
AccurateRip v2 signature : CF4F6A1E
->Accurately ripped (v2, confidence 2/2)
Statistics
Read error : 0
Jitter error (maybe fixed) : 0
Retry sector count : 0
Damaged sector count : 0

Track 14
CRC32 hash : 46B80296
CRC32 hash (skip zero) : 83AEF7A3
AccurateRip v1 signature : B69EC894
AccurateRip v2 signature : 447870BC
->Accurately ripped (v2, confidence 2/2)
Statistics
Read error : 0
Jitter error (maybe fixed) : 0
Retry sector count : 0
Damaged sector count : 0

Track 15
CRC32 hash : DA97FC1C
CRC32 hash (skip zero) : 93F50CBB
AccurateRip v1 signature : BFFD3001
AccurateRip v2 signature : F46A8A2B
->Accurately ripped (v2, confidence 2/2)
Statistics
Read error : 0
Jitter error (maybe fixed) : 0
Retry sector count : 0
Damaged sector count : 0

Track 16
CRC32 hash : B0CF2E27
CRC32 hash (skip zero) : 13E50E34
AccurateRip v1 signature : 777439D0
AccurateRip v2 signature : E41C98E1
->Accurately ripped (v2, confidence 2/2)
Statistics
Read error : 0
Jitter error (maybe fixed) : 0
Retry sector count : 0
Damaged sector count : 0

Track 17
CRC32 hash : 4558C93B
CRC32 hash (skip zero) : 3796CB51
AccurateRip v1 signature : EFA9D67E
AccurateRip v2 signature : 4A1108EA
->Accurately ripped (v2, confidence 2/2)
Statistics
Read error : 0
Jitter error (maybe fixed) : 0
Retry sector count : 0
Damaged sector count : 0

Track 18
CRC32 hash : 4C9B77B4
CRC32 hash (skip zero) : 42F63C6D
AccurateRip v1 signature : 31B172AC
AccurateRip v2 signature : 989C7084
->Accurately ripped (v2, confidence 2/2)
Statistics
Read error : 0
Jitter error (maybe fixed) : 0
Retry sector count : 0
Damaged sector count : 0

Track 19
CRC32 hash : 0EFC85D0
CRC32 hash (skip zero) : 19DB22FB
AccurateRip v1 signature : 834CA07E
AccurateRip v2 signature : 0F4F7EBB
->Accurately ripped (v2, confidence 2/2)
Statistics
Read error : 0
Jitter error (maybe fixed) : 0
Retry sector count : 0
Damaged sector count : 0

Track 20
CRC32 hash : E3DA4FF7
CRC32 hash (skip zero) : 5B6B01CD
AccurateRip v1 signature : E5B3360C
AccurateRip v2 signature : 313200B7
->Accurately ripped (v2, confidence 2/2)
Statistics
Read error : 0
Jitter error (maybe fixed) : 0
Retry sector count : 0
Damaged sector count : 0

Track 21
CRC32 hash : 344E38E7
CRC32 hash (skip zero) : FA686F35
AccurateRip v1 signature : 40261763
AccurateRip v2 signature : 8E34D020
->Accurately ripped (v2, confidence 2/2)
Statistics
Read error : 0
Jitter error (maybe fixed) : 0
Retry sector count : 0
Damaged sector count : 0

Track 22
CRC32 hash : 7C69D1AA
CRC32 hash (skip zero) : 98D59419
AccurateRip v1 signature : 0CA2FDE9
AccurateRip v2 signature : EFE2E7A1
->Accurately ripped (v2, confidence 2/2)
Statistics
Read error : 0
Jitter error (maybe fixed) : 0
Retry sector count : 0
Damaged sector count : 0

Track 23
CRC32 hash : 9E79A01F
CRC32 hash (skip zero) : 40A34ECC
AccurateRip v1 signature : 079430A3
AccurateRip v2 signature : BA949840
->Accurately ripped (v2, confidence 2/2)
Statistics
Read error : 0
Jitter error (maybe fixed) : 0
Retry sector count : 0
Damaged sector count : 0

Track 24
CRC32 hash : 4D0C5111
CRC32 hash (skip zero) : CE27C989
AccurateRip v1 signature : CA7592B8
AccurateRip v2 signature : 0254ACE8
->Accurately ripped (v2, confidence 2/2)
Statistics
Read error : 0
Jitter error (maybe fixed) : 0
Retry sector count : 0
Damaged sector count : 0

Track 25
CRC32 hash : 2208AB14
CRC32 hash (skip zero) : C271514C
AccurateRip v1 signature : 40E5D5EE
AccurateRip v2 signature : A831DAA4
->Accurately ripped (v2, confidence 2/2)
Statistics
Read error : 0
Jitter error (maybe fixed) : 0
Retry sector count : 0
Damaged sector count : 0

Track 26
CRC32 hash : 4941038E
CRC32 hash (skip zero) : 985EB4FC
AccurateRip v1 signature : A83E481E
AccurateRip v2 signature : 04DF7BE6
->Accurately ripped (v2, confidence 2/2)
Statistics
Read error : 0
Jitter error (maybe fixed) : 0
Retry sector count : 0
Damaged sector count : 0

No errors occurred

End of status report

[CUETools log; Date: 07.09.2017 11:06:00; Version: 2.1.5]
[CTDB TOCID: B19H_UK96pt5L4gmz2Dayhsw1Yk-] found.
Track | CTDB Status
1 | (4/4) Accurately ripped
2 | (4/4) Accurately ripped
3 | (4/4) Accurately ripped
4 | (4/4) Accurately ripped
5 | (4/4) Accurately ripped
6 | (4/4) Accurately ripped
7 | (4/4) Accurately ripped
8 | (4/4) Accurately ripped
9 | (4/4) Accurately ripped
10 | (4/4) Accurately ripped
11 | (4/4) Accurately ripped
12 | (4/4) Accurately ripped
13 | (4/4) Accurately ripped
14 | (4/4) Accurately ripped
15 | (4/4) Accurately ripped
16 | (4/4) Accurately ripped
17 | (4/4) Accurately ripped
18 | (4/4) Accurately ripped
19 | (4/4) Accurately ripped
20 | (4/4) Accurately ripped
21 | (4/4) Accurately ripped
22 | (4/4) Accurately ripped
23 | (4/4) Accurately ripped
24 | (4/4) Accurately ripped
25 | (4/4) Accurately ripped
26 | (4/4) Accurately ripped
[AccurateRip ID: 004686bf-05297c07-9f116e1a] found.
Track [ CRC | V2 ] Status
01 [7142f24c|725adb4e] (0+2/2) Accurately ripped
02 [247fa519|128f04b1] (0+2/2) Accurately ripped
03 [fc49117c|e482f22c] (0+2/2) Accurately ripped
04 [5fc49771|e626a8f0] (0+2/2) Accurately ripped
05 [a1ad6d82|14d6ca08] (0+2/2) Accurately ripped
06 [247e4fff|ad834530] (0+2/2) Accurately ripped
07 [7d5813e6|e9dcd1bd] (0+2/2) Accurately ripped
08 [f91b46c7|096d9d06] (0+2/2) Accurately ripped
09 [76ecfa92|0383c758] (0+2/2) Accurately ripped
10 [d242f445|7ad83acc] (0+2/2) Accurately ripped
11 [2f903981|e90ea1ed] (0+2/2) Accurately ripped
12 [97093e7d|ecd8b997] (0+2/2) Accurately ripped
13 [0f807c16|cf4f6a1e] (0+2/2) Accurately ripped
14 [b69ec894|447870bc] (0+2/2) Accurately ripped
15 [bffd3001|f46a8a2b] (0+2/2) Accurately ripped
16 [777439d0|e41c98e1] (0+2/2) Accurately ripped
17 [efa9d67e|4a1108ea] (0+2/2) Accurately ripped
18 [31b172ac|989c7084] (0+2/2) Accurately ripped
19 [834ca07e|0f4f7ebb] (0+2/2) Accurately ripped
20 [e5b3360c|313200b7] (0+2/2) Accurately ripped
21 [40261763|8e34d020] (0+2/2) Accurately ripped
22 [0ca2fde9|efe2e7a1] (0+2/2) Accurately ripped
23 [079430a3|ba949840] (0+2/2) Accurately ripped
24 [ca7592b8|0254ace8] (0+2/2) Accurately ripped
25 [40e5d5ee|a831daa4] (0+2/2) Accurately ripped
26 [a83e481e|04df7be6] (0+2/2) Accurately ripped

Track Peak [ CRC32 ] [W/O NULL]
– 93,7 [10DC4D63] [5B881A92]
01 90,2 [A5451739] [9079D851]
02 83,9 [FAEA8D58] [F87B5BE9]
03 79,7 [2B7A6C06] [E139ADC9]
04 91,4 [01CD95AF] [6F6BF68A]
05 68,6 [C0AF981B] [FF923AA2]
06 78,8 [3DC44009] [1133873E]
07 86,5 [C4914D7D] [31480F0D]
08 86,3 [2AFA585D] [C4EA45DD]
09 81,9 [ADEDFB2C] [F36DA24A]
10 78,4 [F81DAEC1] [6865A587]
11 87,9 [3C73B307] [73BEAD2D]
12 88,8 [B342BBE4] [AF8BE815]
13 75,8 [C92277AD] [34FEFF71]
14 85,0 [46B80296] [83AEF7A3]
15 79,4 [DA97FC1C] [93F50CBB]
16 93,7 [B0CF2E27] [13E50E34]
17 75,1 [4558C93B] [3796CB51]
18 69,5 [4C9B77B4] [42F63C6D]
19 58,7 [0EFC85D0] [19DB22FB]
20 67,3 [E3DA4FF7] [5B6B01CD]
21 60,4 [344E38E7] [FA686F35]
22 63,9 [7C69D1AA] [98D59419]
23 83,0 [9E79A01F] [40A34ECC]
24 70,7 [4D0C5111] [CE27C989]
25 67,2 [2208AB14] [C271514C]
26 80,5 [4941038E] [985EB4FC]

CD 7:
Sonate e concerti
per il corno da caccia
Antonio VIVALDI
(1678-1741)
Concerto in fa maggiore RV 97
Viole d'amour, deux cors, deux hautbois, basson, basse continue (contrebasse, clavecin)
1. Largo-Allegro
2. (Largo)
3. Allegro
Gottfried Heinrich STÖLZEL
(1690-1749)
Quartet F-Dur
Hautbois, violon, cor,
basse continue (basson, clavecin)
4.Andante
5. Adagio
6. Vivace
Carl Heinrich GRAUN
(1703-1757)
Trio Es-Dur
Hautbois d'amour, cor, basson
7. Allegro
8. Largo
9. Allegro
Carl Heinrich GRAUN
Triosonate D-Dur
Violon, cor, basse continue (basse de viole, clavecin)
10. Allegretto
11. Andante
12. Allegro
Johann Friedrich FASCH
(1688-1758)
Quartet F-Dur
Violon, hautbois, cor,
basse continue (basson, clavecin)
13. Andante
14. Allegro
15. Andante
16. Allegro
George Frideric HANDEL
(1685-1759)
Ouverture D-Dur
2 clarinettes, cor
17. Ouverture
18. Larghetto
19. Andante-Allegro
20. Allegro
Georg-Philipp TELEMANN
Concerto F-Dur
Flûte à bec, cor,
basse continue (clavecin, basse de viole)
21. (Allegro)
22. Loure
23 . Tempo di Menuet
Georg Philipp TELEMANN
24. Menuet (F Dur)
à deux cornes de chasse
Michel CORRETTE
(1709-1795)
La Choisy,
Concerto comique XIV en do majeur
Cor, vielle à roue, deux violons,
basse continue (basse de viole, clavecin)
25. Allegro
26. Adagio
27. Allegro
Frédéric de ROOS, flûtes à bec
Marcel PONSEELE, hautbois
Marc MINKOWSKI, basson
François FERNANDEZ, violon I
Mihoko KIMURA, violon II
Philippe PIERLOT, basse de viole
Claude MAURY, cor
Christophe FERON, cor (pl.24)
Guy PENSON, clavecin

X Lossless Decoder version 20161007 (149.3)
XLD extraction logfile from 2017-08-27 15:00:28 +0200
Various Artists / Telemann: Les plaisirs de la table [Disc 7]
Used drive : TSSTcorp CDDVDW SE-208GB (revision MF00)
Media type : Pressed CD
Ripper mode : XLD Secure Ripper
Disable audio cache : OK for the drive with a cache less than 1375KiB
Make use of C2 pointers : NO
Read offset correction : 6
Max retry count : 20
Gap status : Analyzed, Appended
TOC of the extracted CD
Track | Start | Length | Start sector | End sector
––––––––––––––––––––––––––––-
1 | 00:00:00 | 04:33:72 | 0 | 20546
2 | 04:33:72 | 03:51:00 | 20547 | 37871
3 | 08:24:72 | 02:50:20 | 37872 | 50641
4 | 11:15:17 | 03:14:65 | 50642 | 65256
5 | 14:30:07 | 01:59:01 | 65257 | 74182
6 | 16:29:08 | 01:41:66 | 74183 | 81823
7 | 18:10:74 | 02:30:53 | 81824 | 93126
8 | 20:41:52 | 01:27:28 | 93127 | 99679
9 | 22:09:05 | 02:00:69 | 99680 | 108748
10 | 24:09:74 | 03:52:06 | 108749 | 126154
11 | 28:02:05 | 02:12:41 | 126155 | 136095
12 | 30:14:46 | 04:12:30 | 136096 | 155025
13 | 34:27:01 | 01:03:08 | 155026 | 159758
14 | 35:30:09 | 02:14:60 | 159759 | 169868
15 | 37:44:69 | 01:46:16 | 169869 | 177834
16 | 39:31:10 | 01:56:37 | 177835 | 186571
17 | 41:27:47 | 03:49:22 | 186572 | 203768
18 | 45:16:69 | 04:59:19 | 203769 | 226212
19 | 50:16:13 | 02:48:31 | 226213 | 238843
20 | 53:04:44 | 01:24:49 | 238844 | 245192
21 | 54:29:18 | 02:15:04 | 245193 | 255321
22 | 56:44:22 | 01:43:32 | 255322 | 263078
23 | 58:27:54 | 02:16:40 | 263079 | 273318
24 | 60:44:19 | 01:21:55 | 273319 | 279448
25 | 62:05:74 | 02:27:47 | 279449 | 290520
26 | 64:33:46 | 01:16:14 | 290521 | 296234
27 | 65:49:60 | 02:10:61 | 296235 | 306045

AccurateRip Summary (DiscID: 0046837f-05371463-990ff01b)
Track 01 : OK (v2, confidence 2/2)
Track 02 : OK (v2, confidence 2/2)
Track 03 : OK (v2, confidence 2/2)
Track 04 : OK (v2, confidence 2/2)
Track 05 : OK (v2, confidence 2/2)
Track 06 : OK (v2, confidence 2/2)
Track 07 : OK (v2, confidence 2/2)
Track 08 : OK (v2, confidence 2/2)
Track 09 : OK (v2, confidence 2/2)
Track 10 : OK (v2, confidence 2/2)
Track 11 : OK (v2, confidence 2/2)
Track 12 : OK (v2, confidence 2/2)
Track 13 : OK (v2, confidence 2/2)
Track 14 : OK (v2, confidence 2/2)
Track 15 : OK (v2, confidence 2/2)
Track 16 : OK (v2, confidence 2/2)
Track 17 : OK (v2, confidence 2/2)
Track 18 : OK (v2, confidence 2/2)
Track 19 : OK (v2, confidence 2/2)
Track 20 : OK (v2, confidence 2/2)
Track 21 : OK (v2, confidence 2/2)
Track 22 : OK (v2, confidence 2/2)
Track 23 : OK (v2, confidence 2/2)
Track 24 : OK (v2, confidence 2/2)
Track 25 : OK (v2, confidence 2/2)
Track 26 : OK (v2, confidence 2/2)
Track 27 : OK (v2, confidence 2/2)
->All tracks accurately ripped.

All Tracks
Filename : /Users/loicchahine/Downloads/PlaiTab/7/Telemann: Les plaisirs de la table [Disc 7].flac
CRC32 hash : FDCD8D7F
CRC32 hash (skip zero) : 974CC4DA
Statistics
Read error : 0
Jitter error (maybe fixed) : 0
Retry sector count : 0
Damaged sector count : 0

Track 01
Pre-gap length : 00:02:00
CRC32 hash : 1CB30C36
CRC32 hash (skip zero) : 704C0A3C
AccurateRip v1 signature : BF7C3D61
AccurateRip v2 signature : 6BEA76A6
->Accurately ripped (v2, confidence 2/2)
Statistics
Read error : 0
Jitter error (maybe fixed) : 0
Retry sector count : 0
Damaged sector count : 0

Track 02
CRC32 hash : 75703028
CRC32 hash (skip zero) : 0843F0AD
AccurateRip v1 signature : 4D5B8013
AccurateRip v2 signature : 45749E0F
->Accurately ripped (v2, confidence 2/2)
Statistics
Read error : 0
Jitter error (maybe fixed) : 0
Retry sector count : 0
Damaged sector count : 0

Track 03
CRC32 hash : 6EF08D9D
CRC32 hash (skip zero) : C436FDBC
AccurateRip v1 signature : 2A5C2C72
AccurateRip v2 signature : F07B3E31
->Accurately ripped (v2, confidence 2/2)
Statistics
Read error : 0
Jitter error (maybe fixed) : 0
Retry sector count : 0
Damaged sector count : 0

Track 04
CRC32 hash : 6DA46166
CRC32 hash (skip zero) : 21A8D665
AccurateRip v1 signature : 92FE609C
AccurateRip v2 signature : 3FB2B631
->Accurately ripped (v2, confidence 2/2)
Statistics
Read error : 0
Jitter error (maybe fixed) : 0
Retry sector count : 0
Damaged sector count : 0

Track 05
CRC32 hash : FBC771C5
CRC32 hash (skip zero) : 3480F8BE
AccurateRip v1 signature : 52A212F5
AccurateRip v2 signature : 122CBAB7
->Accurately ripped (v2, confidence 2/2)
Statistics
Read error : 0
Jitter error (maybe fixed) : 0
Retry sector count : 0
Damaged sector count : 0

Track 06
CRC32 hash : 76D03308
CRC32 hash (skip zero) : 8D88FAE5
AccurateRip v1 signature : 1386EAF1
AccurateRip v2 signature : 6DE9C2A3
->Accurately ripped (v2, confidence 2/2)
Statistics
Read error : 0
Jitter error (maybe fixed) : 0
Retry sector count : 0
Damaged sector count : 0

Track 07
CRC32 hash : B4E7F854
CRC32 hash (skip zero) : CC2A2A3D
AccurateRip v1 signature : 838DB66B
AccurateRip v2 signature : F5DD56EF
->Accurately ripped (v2, confidence 2/2)
Statistics
Read error : 0
Jitter error (maybe fixed) : 0
Retry sector count : 0
Damaged sector count : 0

Track 08
CRC32 hash : E4BC1132
CRC32 hash (skip zero) : 7364216D
AccurateRip v1 signature : C1A30328
AccurateRip v2 signature : DACC1A89
->Accurately ripped (v2, confidence 2/2)
Statistics
Read error : 0
Jitter error (maybe fixed) : 0
Retry sector count : 0
Damaged sector count : 0

Track 09
CRC32 hash : A85345F8
CRC32 hash (skip zero) : E18ED264
AccurateRip v1 signature : A1B8BDB6
AccurateRip v2 signature : 31F541FB
->Accurately ripped (v2, confidence 2/2)
Statistics
Read error : 0
Jitter error (maybe fixed) : 0
Retry sector count : 0
Damaged sector count : 0

Track 10
CRC32 hash : B518BABE
CRC32 hash (skip zero) : EA52C0C3
AccurateRip v1 signature : BBAC2BD9
AccurateRip v2 signature : F8D1D128
->Accurately ripped (v2, confidence 2/2)
Statistics
Read error : 0
Jitter error (maybe fixed) : 0
Retry sector count : 0
Damaged sector count : 0

Track 11
CRC32 hash : 0458CEAE
CRC32 hash (skip zero) : E6A9BCEC
AccurateRip v1 signature : F5542EC6
AccurateRip v2 signature : 5318B9C3
->Accurately ripped (v2, confidence 2/2)
Statistics
Read error : 0
Jitter error (maybe fixed) : 0
Retry sector count : 0
Damaged sector count : 0

Track 12
CRC32 hash : 84EBF8EE
CRC32 hash (skip zero) : C3BE32C4
AccurateRip v1 signature : AB454331
AccurateRip v2 signature : F97BF84C
->Accurately ripped (v2, confidence 2/2)
Statistics
Read error : 0
Jitter error (maybe fixed) : 0
Retry sector count : 0
Damaged sector count : 0

Track 13
CRC32 hash : 11AE7C63
CRC32 hash (skip zero) : 873B785E
AccurateRip v1 signature : 9842EE47
AccurateRip v2 signature : 17E02424
->Accurately ripped (v2, confidence 2/2)
Statistics
Read error : 0
Jitter error (maybe fixed) : 0
Retry sector count : 0
Damaged sector count : 0

Track 14
CRC32 hash : BF4B4921
CRC32 hash (skip zero) : F59816A6
AccurateRip v1 signature : 42829DC4
AccurateRip v2 signature : 691A2BDA
->Accurately ripped (v2, confidence 2/2)
Statistics
Read error : 0
Jitter error (maybe fixed) : 0
Retry sector count : 0
Damaged sector count : 0

Track 15
CRC32 hash : 849D6503
CRC32 hash (skip zero) : 907D5966
AccurateRip v1 signature : D67B28E4
AccurateRip v2 signature : AFFC9E9A
->Accurately ripped (v2, confidence 2/2)
Statistics
Read error : 0
Jitter error (maybe fixed) : 0
Retry sector count : 0
Damaged sector count : 0

Track 16
CRC32 hash : F37A3446
CRC32 hash (skip zero) : 994FE25B
AccurateRip v1 signature : 5F28F02F
AccurateRip v2 signature : 0641B450
->Accurately ripped (v2, confidence 2/2)
Statistics
Read error : 0
Jitter error (maybe fixed) : 0
Retry sector count : 0
Damaged sector count : 0

Track 17
CRC32 hash : BAB96C08
CRC32 hash (skip zero) : 21115C16
AccurateRip v1 signature : E4DBB1A7
AccurateRip v2 signature : 4C95D172
->Accurately ripped (v2, confidence 2/2)
Statistics
Read error : 0
Jitter error (maybe fixed) : 0
Retry sector count : 0
Damaged sector count : 0

Track 18
CRC32 hash : 791CE4CF
CRC32 hash (skip zero) : 885DEC16
AccurateRip v1 signature : 366F38DF
AccurateRip v2 signature : 928B9BD5
->Accurately ripped (v2, confidence 2/2)
Statistics
Read error : 0
Jitter error (maybe fixed) : 0
Retry sector count : 0
Damaged sector count : 0

Track 19
CRC32 hash : E8985CB9
CRC32 hash (skip zero) : 7EC47D09
AccurateRip v1 signature : 7DAD9B72
AccurateRip v2 signature : 238870F7
->Accurately ripped (v2, confidence 2/2)
Statistics
Read error : 0
Jitter error (maybe fixed) : 0
Retry sector count : 0
Damaged sector count : 0

Track 20
CRC32 hash : 0139D89B
CRC32 hash (skip zero) : 4C21A231
AccurateRip v1 signature : 62675790
AccurateRip v2 signature : BF3AC2BF
->Accurately ripped (v2, confidence 2/2)
Statistics
Read error : 0
Jitter error (maybe fixed) : 0
Retry sector count : 0
Damaged sector count : 0

Track 21
CRC32 hash : 319147EE
CRC32 hash (skip zero) : 2E20F429
AccurateRip v1 signature : AE27E434
AccurateRip v2 signature : 5FAE0783
->Accurately ripped (v2, confidence 2/2)
Statistics
Read error : 0
Jitter error (maybe fixed) : 0
Retry sector count : 0
Damaged sector count : 0

Track 22
CRC32 hash : 3D2985C1
CRC32 hash (skip zero) : 5E82CF03
AccurateRip v1 signature : F831AB21
AccurateRip v2 signature : 2718C70D
->Accurately ripped (v2, confidence 2/2)
Statistics
Read error : 0
Jitter error (maybe fixed) : 0
Retry sector count : 0
Damaged sector count : 0

Track 23
CRC32 hash : AC58A5B7
CRC32 hash (skip zero) : 4DA5BB63
AccurateRip v1 signature : 35E96DFE
AccurateRip v2 signature : BE233464
->Accurately ripped (v2, confidence 2/2)
Statistics
Read error : 0
Jitter error (maybe fixed) : 0
Retry sector count : 0
Damaged sector count : 0

Track 24
CRC32 hash : ECDEB5AC
CRC32 hash (skip zero) : 76C24480
AccurateRip v1 signature : 24FDF188
AccurateRip v2 signature : F20B2F6C
->Accurately ripped (v2, confidence 2/2)
Statistics
Read error : 0
Jitter error (maybe fixed) : 0
Retry sector count : 0
Damaged sector count : 0

Track 25
CRC32 hash : FF13E4B0
CRC32 hash (skip zero) : 773B243B
AccurateRip v1 signature : 7390BF1F
AccurateRip v2 signature : 2A480AC7
->Accurately ripped (v2, confidence 2/2)
Statistics
Read error : 0
Jitter error (maybe fixed) : 0
Retry sector count : 0
Damaged sector count : 0

Track 26
CRC32 hash : CE417050
CRC32 hash (skip zero) : B48D170F
AccurateRip v1 signature : 16AF4F88
AccurateRip v2 signature : 52D64EF1
->Accurately ripped (v2, confidence 2/2)
Statistics
Read error : 0
Jitter error (maybe fixed) : 0
Retry sector count : 0
Damaged sector count : 0

Track 27
CRC32 hash : 3482E81B
CRC32 hash (skip zero) : 053C2142
AccurateRip v1 signature : D637FC48
AccurateRip v2 signature : 0CDE8012
->Accurately ripped (v2, confidence 2/2)
Statistics
Read error : 0
Jitter error (maybe fixed) : 0
Retry sector count : 0
Damaged sector count : 0

No errors occurred

End of status report

[CUETools log; Date: 07.09.2017 11:07:22; Version: 2.1.5]
[CTDB TOCID: AZtr95otVuFNqxHFLlZYRFPwl_Q-] found.
Track | CTDB Status
1 | (5/5) Accurately ripped
2 | (5/5) Accurately ripped
3 | (5/5) Accurately ripped
4 | (5/5) Accurately ripped
5 | (5/5) Accurately ripped
6 | (5/5) Accurately ripped
7 | (5/5) Accurately ripped
8 | (5/5) Accurately ripped
9 | (5/5) Accurately ripped
10 | (5/5) Accurately ripped
11 | (5/5) Accurately ripped
12 | (5/5) Accurately ripped
13 | (5/5) Accurately ripped
14 | (5/5) Accurately ripped
15 | (5/5) Accurately ripped
16 | (5/5) Accurately ripped
17 | (5/5) Accurately ripped
18 | (5/5) Accurately ripped
19 | (5/5) Accurately ripped
20 | (5/5) Accurately ripped
21 | (5/5) Accurately ripped
22 | (5/5) Accurately ripped
23 | (5/5) Accurately ripped
24 | (5/5) Accurately ripped
25 | (5/5) Accurately ripped
26 | (5/5) Accurately ripped
27 | (5/5) Accurately ripped
[AccurateRip ID: 0046837f-05371463-990ff01b] found.
Track [ CRC | V2 ] Status
01 [bf7c3d61|6bea76a6] (0+2/2) Accurately ripped
02 [4d5b8013|45749e0f] (0+2/2) Accurately ripped
03 [2a5c2c72|f07b3e31] (0+2/2) Accurately ripped
04 [92fe609c|3fb2b631] (0+2/2) Accurately ripped
05 [52a212f5|122cbab7] (0+2/2) Accurately ripped
06 [1386eaf1|6de9c2a3] (0+2/2) Accurately ripped
07 [838db66b|f5dd56ef] (0+2/2) Accurately ripped
08 [c1a30328|dacc1a89] (0+2/2) Accurately ripped
09 [a1b8bdb6|31f541fb] (0+2/2) Accurately ripped
10 [bbac2bd9|f8d1d128] (0+2/2) Accurately ripped
11 [f5542ec6|5318b9c3] (0+2/2) Accurately ripped
12 [ab454331|f97bf84c] (0+2/2) Accurately ripped
13 [9842ee47|17e02424] (0+2/2) Accurately ripped
14 [42829dc4|691a2bda] (0+2/2) Accurately ripped
15 [d67b28e4|affc9e9a] (0+2/2) Accurately ripped
16 [5f28f02f|0641b450] (0+2/2) Accurately ripped
17 [e4dbb1a7|4c95d172] (0+2/2) Accurately ripped
18 [366f38df|928b9bd5] (0+2/2) Accurately ripped
19 [7dad9b72|238870f7] (0+2/2) Accurately ripped
20 [62675790|bf3ac2bf] (0+2/2) Accurately ripped
21 [ae27e434|5fae0783] (0+2/2) Accurately ripped
22 [f831ab21|2718c70d] (0+2/2) Accurately ripped
23 [35e96dfe|be233464] (0+2/2) Accurately ripped
24 [24fdf188|f20b2f6c] (0+2/2) Accurately ripped
25 [7390bf1f|2a480ac7] (0+2/2) Accurately ripped
26 [16af4f88|52d64ef1] (0+2/2) Accurately ripped
27 [d637fc48|0cde8012] (0+2/2) Accurately ripped

Track Peak [ CRC32 ] [W/O NULL]
– 100,0 [FDCD8D7F] [974CC4DA]
01 87,2 [1CB30C36] [704C0A3C]
02 48,5 [75703028] [0843F0AD]
03 71,4 [6EF08D9D] [C436FDBC]
04 65,1 [6DA46166] [21A8D665]
05 47,7 [FBC771C5] [3480F8BE]
06 73,5 [76D03308] [8D88FAE5]
07 81,8 [B4E7F854] [CC2A2A3D]
08 77,6 [E4BC1132] [7364216D]
09 83,1 [A85345F8] [E18ED264]
10 79,2 [B518BABE] [EA52C0C3]
11 85,3 [0458CEAE] [E6A9BCEC]
12 83,9 [84EBF8EE] [C3BE32C4]
13 98,2 [11AE7C63] [873B785E]
14 75,1 [BF4B4921] [F59816A6]
15 53,7 [849D6503] [907D5966]
16 72,9 [F37A3446] [994FE25B]
17 66,6 [BAB96C08] [21115C16]
18 67,6 [791CE4CF] [885DEC16]
19 56,6 [E8985CB9] [7EC47D09]
20 65,0 [0139D89B] [4C21A231]
21 79,4 [319147EE] [2E20F429]
22 51,9 [3D2985C1] [5E82CF03]
23 62,8 [AC58A5B7] [4DA5BB63]
24 90,5 [ECDEB5AC] [76C24480]
25 100,0 [FF13E4B0] [773B243B]
26 40,4 [CE417050] [B48D170F]
27 87,0 [3482E81B] [053C2142]

Performers:
Ricercar Consort
La Pastorella

Thanks to the Original ripper (unknown)!

Download: