Subcategories

Richard Marx - Richard Marx (1987)

Posted By: popsakov
Richard Marx - Richard Marx (1987)

Richard Marx - Richard Marx (1987)
EAC Rip | FLAC (Img) + Cue + Log ~ 315 Mb | MP3 CBR320 ~ 110 Mb
Full Scans (PNG, 400 dpi) ~ 109 Mb | RAR 5% Recovery
Soft Rock, Pop Rock, AOR | Manhattan Records #CDP 7 46760 2

Richard Marx's self-titled debut album was a finely crafted record of mainstream pop/rock. Marx understood how the melodies of up-tempo rockers like "Don't Mean Nothin'" are driven by thick power chords, and how arrangements are as important as melody in ballads like "Hold On to the Nights." Filled with carefully constructed radio-ready tracks, it was no surprise that the album became a huge hit.
~ Stephen Thomas Erlewine, All Music

***************

Richard Marx - Richard Marx (1987)

Richard Marx - Richard Marx (1987)

Track List:

01. Should've Known Better [4:11]
02. Don't Mean Nothing [4:41]
03. Endless Summer Nights [4:31]
04. Lonely Heart [3:54]
05. Hold On To The Nights [5:19]
06. Have Mercy [4:33]
07. Remember Manhattan [4:18]
08. The Flame Of Love [3:38]
09. Rhythm Of Life [4:46]
10. Heaven Only Knows [5:40]

Exact Audio Copy V1.0 beta 3 from 29. August 2011

EAC extraction logfile from 20. August 2013, 12:51

Richard Marx / Richard Marx

Used drive : SAMSUNG DVD-ROM SD-616E Adapter: 3 ID: 0

Read mode : Secure
Utilize accurate stream : Yes
Defeat audio cache : Yes
Make use of C2 pointers : No

Read offset correction : 12
Overread into Lead-In and Lead-Out : No
Fill up missing offset samples with silence : Yes
Delete leading and trailing silent blocks : No
Null samples used in CRC calculations : Yes
Used interface : Native Win32 interface for Win NT & 2000

Used output format : User Defined Encoder
Selected bitrate : 768 kBit/s
Quality : High
Add ID3 tag : No
Command line compressor : C:\Program Files\Exact Audio Copy\FLAC\FLAC.EXE
Additional command line options : -6 -V -T "ARTIST=%artist%" -T "TITLE=%title%" -T "ALBUM=%albumtitle%" -T "DATE=%year%" -T "TRACKNUMBER=%tracknr%" -T "GENRE=%genre%" -T "COMMENT=%comment%" -T "BAND=%albuminterpret%" -T "ALBUMARTIST=%albuminterpret%" -T "COMPOSER=%composer%" %haslyrics%–tag-from-file=LYRICS="%lyricsfile%"%haslyrics% -T "DISCNUMBER=%cdnumber%" -T "TOTALDISCS=%totalcds%" -T "TOTALTRACKS=%numtracks%" %hascover%–picture="%coverfile%"%hascover% %source% -o %dest%


TOC of the extracted CD

Track | Start | Length | Start sector | End sector
––––––––––––––––––––––––––––-
1 | 0:00.00 | 4:11.07 | 0 | 18831
2 | 4:11.07 | 4:41.23 | 18832 | 39929
3 | 8:52.30 | 4:30.52 | 39930 | 60231
4 | 13:23.07 | 3:53.60 | 60232 | 77766
5 | 17:16.67 | 5:19.33 | 77767 | 101724
6 | 22:36.25 | 4:32.47 | 101725 | 122171
7 | 27:08.72 | 4:17.40 | 122172 | 141486
8 | 31:26.37 | 3:37.50 | 141487 | 157811
9 | 35:04.12 | 4:45.40 | 157812 | 179226
10 | 39:49.52 | 5:39.65 | 179227 | 204716


Range status and errors

Selected range

Filename C:\Documents and Settings\Borya\Desktop\rima87\Richard Marx - Richard Marx.wav

Peak level 100.0 %
Extraction speed 3.2 X
Range quality 100.0 %
Test CRC CBBD8F31
Copy CRC CBBD8F31
Copy OK

No errors occurred


AccurateRip summary

Track 1 accurately ripped (confidence 19) [52A507C5] (AR v2)
Track 2 accurately ripped (confidence 19) [B6C0C3A1] (AR v2)
Track 3 accurately ripped (confidence 20) [762EAC3F] (AR v2)
Track 4 accurately ripped (confidence 19) [C5C99B09] (AR v2)
Track 5 accurately ripped (confidence 19) [84AA667F] (AR v2)
Track 6 accurately ripped (confidence 19) [FAD00185] (AR v2)
Track 7 accurately ripped (confidence 19) [D63DB910] (AR v2)
Track 8 accurately ripped (confidence 19) [B96D55B2] (AR v2)
Track 9 accurately ripped (confidence 19) [17753744] (AR v2)
Track 10 accurately ripped (confidence 19) [E5CEE6CC] (AR v2)

All tracks accurately ripped

End of status report

==== Log checksum AE05B6F6D032690A2FB0E210C142E74EE5BBA7F8BE03A5D1DA22BE8A66A1C248 ====

foobar2000 1.3.16 / Dynamic Range Meter 1.1.1
log date: 2018-01-12 10:10:04

––––––––––––––––––––––––––––––––––––––––
Analyzed: Richard Marx / Richard Marx
––––––––––––––––––––––––––––––––––––––––

DR Peak RMS Duration Track
––––––––––––––––––––––––––––––––––––––––
DR13 -2.26 dB -17.46 dB 4:11 01-Should've Known Better
DR13 0.00 dB -15.13 dB 4:41 02-Don't Mean Nothing
DR12 -0.01 dB -15.70 dB 4:31 03-Endless Summer Nights
DR13 0.00 dB -15.90 dB 3:54 04-Lonely Heart
DR13 -0.45 dB -18.54 dB 5:19 05-Hold On To The Nights
DR14 0.00 dB -16.38 dB 4:33 06-Have Mercy
DR13 -1.01 dB -15.43 dB 4:18 07-Remember Manhattan
DR13 -1.41 dB -17.72 dB 3:38 08-The Flame Of Love
DR12 -1.14 dB -16.07 dB 4:46 09-Rhythm Of Life
DR12 -1.58 dB -16.29 dB 5:40 10-Heaven Only Knows
––––––––––––––––––––––––––––––––––––––––

Number of tracks: 10
Official DR value: DR13

Samplerate: 44100 Hz
Channels: 2
Bits per sample: 16
Bitrate: 921 kbps
Codec: FLAC
================================================================================

[CUETools log; Date: 12.01.2018 10:10:15; Version: 2.1.5]
[CTDB TOCID: kAHzy3y_qRF0gu1Q8P2O0dYYucY-] found.
Track | CTDB Status
1 | (160/161) Accurately ripped
2 | (160/161) Accurately ripped
3 | (160/161) Accurately ripped
4 | (160/161) Accurately ripped
5 | (160/161) Accurately ripped
6 | (159/161) Accurately ripped
7 | (160/161) Accurately ripped
8 | (158/161) Accurately ripped
9 | (159/161) Accurately ripped
10 | (159/161) Accurately ripped
[AccurateRip ID: 0010d81d-008706ed-7d0aa90a] found.
Track [ CRC | V2 ] Status
01 [9967ee84|52a507c5] (036+044/201) Accurately ripped
02 [f026293c|b6c0c3a1] (035+043/197) Accurately ripped
03 [66c2c300|762eac3f] (036+045/200) Accurately ripped
04 [34c71828|c5c99b09] (036+044/197) Accurately ripped
05 [dc466aa9|84aa667f] (034+044/195) Accurately ripped
06 [20d52b53|fad00185] (036+045/196) Accurately ripped
07 [22bd51be|d63db910] (036+043/195) Accurately ripped
08 [782cc51e|b96d55b2] (034+043/193) Accurately ripped
09 [770c64ab|17753744] (036+043/196) Accurately ripped
10 [a55033a8|e5cee6cc] (035+043/192) Accurately ripped
Offsetted by 193:
01 [f1a80779] (008/201) Accurately ripped
02 [4789ed52] (008/197) Accurately ripped
03 [b0c54f69] (009/200) Accurately ripped
04 [7464266e] (009/197) Accurately ripped
05 [2c01496b] (008/195) Accurately ripped
06 [b03328ec] (008/196) Accurately ripped
07 [c3f5abd6] (009/195) Accurately ripped
08 [bfe7fdd0] (009/193) Accurately ripped
09 [f42dd198] (009/196) Accurately ripped
10 [440f0373] (008/192) Accurately ripped
Offsetted by 391:
01 [0e90109b] (028/201) Accurately ripped
02 [54e0b172] (028/197) Accurately ripped
03 [b37e17dc] (028/200) Accurately ripped
04 [9976364a] (027/197) Accurately ripped
05 [1218e15a] (027/195) Accurately ripped
06 [c1f5449d] (027/196) Accurately ripped
07 [67269214] (027/195) Accurately ripped
08 [2bc1a8f9] (028/193) Accurately ripped
09 [95bf3799] (027/196) Accurately ripped
10 [defda79c] (026/192) Accurately ripped
Offsetted by 414:
01 [beea5732] (018/201) Accurately ripped
02 [c4ee74a9] (018/197) Accurately ripped
03 [92cc5249] (018/200) Accurately ripped
04 [7da7d8ec] (018/197) Accurately ripped
05 [635433bb] (018/195) Accurately ripped
06 [b25b6e38] (017/196) Accurately ripped
07 [157225b3] (017/195) Accurately ripped
08 [8a5849ea] (017/193) Accurately ripped
09 [25e73e29] (017/196) Accurately ripped
10 [f4eb1138] (017/192) Accurately ripped
Offsetted by 420:
01 [f55c91d9] (000/201) No match (V2 was not tested)
02 [044199e3] (000/197) No match
03 [a76d31f7] (000/200) No match
04 [acf208bb] (000/197) No match
05 [8669593a] (000/195) No match
06 [bc83b963] (000/196) No match
07 [09afa8a1] (000/195) No match
08 [ba59bcf9] (000/193) No match
09 [17bf7b0b] (000/196) No match
10 [accb2c9f] (000/192) No match

Track Peak [ CRC32 ] [W/O NULL] [ LOG ]
– 100,0 [CBBD8F31] [D330DCE4] CRC32
01 77,0 [970C251F] [E1E6859F]
02 100,0 [3B0606F3] [825804BB]
03 99,9 [E00A7D68] [F7707A01]
04 99,9 [EF1753CF] [6B820DEC]
05 95,0 [03453F05] [51C00CDB]
06 100,0 [64FCE2B9] [8A47E7D8]
07 88,9 [D9DDFC35] [7AE1F23D]
08 85,0 [2556A0CF] [C11C90AF]
09 87,7 [0B56F8A3] [C01D02D6]
10 83,3 [A031B05D] [FE9416A5]

Richard Marx - Richard Marx (1987)

See also:
Richard Marx - Repeat Offender (1989)
Richard Marx - Stories To Tell (2010)

All thanks go to Boris1

>>> My Blog <<<

Download from icerbox.com: