Subcategories

Richard Marx - Rush Street (1991)

Posted By: popsakov
Richard Marx - Rush Street (1991)

Richard Marx - Rush Street (1991)
EAC Rip | FLAC (Img) + Cue + Log ~ 488 Mb | MP3 CBR320 ~ 158 Mb
Full Scans (PNG, 400 dpi) ~ 194 Mb | RAR 5% Recovery
Pop Rock, Soft Rock | Capitol Records #CDP-595874

Richard Marx's 1991 release, Rush Street, is a varied album that was billed as "the dark side of Richard Marx," and was also his last true rock & roll album (subsequent releases found him venturing almost exclusively into the adult contemporary domain). Rush Street explores different musical territories, with almost each song emerging as a cautionary tale in some form or another. The album kicks off to a rocking start with the bluesy "Playing With Fire" and the harmonica-enhanced "Love Unemotional." "Superstar" finds Marx in a funky mode, "Big Boy Now" is a catchy ballad that could have been a single, and "Streets of Pain" and "I Get No Sleep" (the latter featuring Billy Joel banging away at a piano) come straight out of '80s arena rock. The true gems on this set, however, are the three singles, which rank among Marx's most compelling recordings. "Keep Coming Back" is a sultry, sexy, and downright cool R&B jam, with Luther Vandross' background vocals adding a spellbinding quality. "Take This Heart" is an exuberant, up-tempo hit, and the real winner, "Hazard," a dark, brooding ballad about a small-town murder, remains Marx's most haunting, unique, and memorable recording. Rush Street may not be as strong as its two predecessors, and also doesn't contain anything in the vein of "Right Here Waiting" or "Hold on to the Nights," but fans of first-rate songwriting and straight-ahead rock will surely not be disappointed.
~ Jose F. Promis, All Music

***************

Richard Marx - Rush Street (1991)

Richard Marx - Rush Street (1991)

Track List:

01. Playing With Fire [4:30]
02. Love Unemotional [5:08]
03. Keep Coming Back [6:52]
04. Take This Heart [4:11]
05. Hazard [5:17]
06. Hands In Your Pocket [3:56]
07. Calling You [4:42]
08. Superstar [4:42]
09. Streets of Pain [5:12]
10. I Get No Sleep [3:45]
11. Big Boy Now [5:39]
12. Chains Around My Heart [5:45]
13. Your World [5:54]

Exact Audio Copy V1.0 beta 3 from 29. August 2011

EAC extraction logfile from 20. January 2018, 1:27

Richard Marx / Rush Street

Used drive : PIONEER BD-RW BDR-TD03 Adapter: 0 ID: 1

Read mode : Secure
Utilize accurate stream : Yes
Defeat audio cache : Yes
Make use of C2 pointers : No

Read offset correction : 667
Overread into Lead-In and Lead-Out : No
Fill up missing offset samples with silence : Yes
Delete leading and trailing silent blocks : No
Null samples used in CRC calculations : Yes
Used interface : Native Win32 interface for Win NT & 2000

Used output format : User Defined Encoder
Selected bitrate : 768 kBit/s
Quality : High
Add ID3 tag : No
Command line compressor : C:\Program Files (x86)\Exact Audio Copy\FLAC\FLAC.EXE
Additional command line options : -6 -V -T "ARTIST=%artist%" -T "TITLE=%title%" -T "ALBUM=%albumtitle%" -T "DATE=%year%" -T "TRACKNUMBER=%tracknr%" -T "GENRE=%genre%" -T "COMMENT=%comment%" -T "BAND=%albuminterpret%" -T "ALBUMARTIST=%albuminterpret%" -T "COMPOSER=%composer%" %haslyrics%–tag-from-file=LYRICS="%lyricsfile%"%haslyrics% -T "DISCNUMBER=%cdnumber%" -T "TOTALDISCS=%totalcds%" -T "TOTALTRACKS=%numtracks%" %hascover%–picture="%coverfile%"%hascover% %source% -o %dest%


TOC of the extracted CD

Track | Start | Length | Start sector | End sector
––––––––––––––––––––––––––––-
1 | 0:00.33 | 4:30.02 | 33 | 20284
2 | 4:30.35 | 5:07.70 | 20285 | 43379
3 | 9:38.30 | 6:51.40 | 43380 | 74244
4 | 16:29.70 | 4:11.20 | 74245 | 93089
5 | 20:41.15 | 5:17.23 | 93090 | 116887
6 | 25:58.38 | 3:55.50 | 116888 | 134562
7 | 29:54.13 | 4:42.15 | 134563 | 155727
8 | 34:36.28 | 4:42.30 | 155728 | 176907
9 | 39:18.58 | 5:12.12 | 176908 | 200319
10 | 44:30.70 | 3:45.03 | 200320 | 217197
11 | 48:15.73 | 5:39.05 | 217198 | 242627
12 | 53:55.03 | 5:44.45 | 242628 | 268472
13 | 59:39.48 | 5:53.60 | 268473 | 295007


Range status and errors

Selected range

Filename C:\Users\Deris\Desktop\rima91\Richard Marx - Rush Street.wav

Peak level 100.0 %
Extraction speed 1.9 X
Range quality 100.0 %
Test CRC A55CFF67
Copy CRC A55CFF67
Copy OK

No errors occurred


AccurateRip summary

Track 1 accurately ripped (confidence 9) [C4661974] (AR v2)
Track 2 accurately ripped (confidence 9) [50B8DAB3] (AR v2)
Track 3 accurately ripped (confidence 9) [15BBC1F2] (AR v2)
Track 4 accurately ripped (confidence 9) [3F1836E3] (AR v2)
Track 5 accurately ripped (confidence 8) [566270D4] (AR v2)
Track 6 accurately ripped (confidence 8) [739C8057] (AR v2)
Track 7 accurately ripped (confidence 8) [F06C88EB] (AR v2)
Track 8 accurately ripped (confidence 8) [1B094839] (AR v2)
Track 9 accurately ripped (confidence 7) [81D5626B] (AR v2)
Track 10 accurately ripped (confidence 8) [4EC3E90A] (AR v2)
Track 11 accurately ripped (confidence 8) [D2AF7879] (AR v2)
Track 12 accurately ripped (confidence 8) [191CA2A5] (AR v2)
Track 13 accurately ripped (confidence 8) [8EB3E4A4] (AR v2)

All tracks accurately ripped

End of status report

–– CUETools DB Plugin V2.1.3

[CTDB TOCID: yLGqZyP9mz97WDXVvpu4CqcfDLY-] found
[1a8961b1] (01/21) No match
[0572a51a] (15/21) Accurately ripped
[c7cd6272] (01/21) Accurately ripped
[180e3b18] (01/21) Accurately ripped
[7dd4ba71] (01/21) Accurately ripped
[5dc255f9] (01/21) Accurately ripped
[6b5a13c9] (01/21) Accurately ripped


==== Log checksum AC82CECF27513A7482963F6D35327BD5907B388FEDC9829ADAAC0BA47C7CA9BC ====

foobar2000 1.3.16 / Dynamic Range Meter 1.1.1
log date: 2018-01-24 01:24:27

––––––––––––––––––––––––––––––––––––––––
Analyzed: Richard Marx / Rush Street
––––––––––––––––––––––––––––––––––––––––

DR Peak RMS Duration Track
––––––––––––––––––––––––––––––––––––––––
DR11 0.00 dB -13.36 dB 4:30 01-Playing With Fire
DR9 0.00 dB -11.05 dB 5:08 02-Love Unemotional
DR12 0.00 dB -14.35 dB 6:52 03-Keep Coming Back
DR11 0.00 dB -12.60 dB 4:11 04-Take This Heart
DR10 -0.29 dB -12.93 dB 5:17 05-Hazard
DR9 0.00 dB -11.01 dB 3:56 06-Hands In Your Pocket
DR10 -0.01 dB -12.73 dB 4:42 07-Calling You
DR10 0.00 dB -10.83 dB 4:42 08-Superstar
DR10 0.00 dB -11.43 dB 5:12 09-Streets of Pain
DR9 -0.15 dB -11.59 dB 3:45 10-I Get No Sleep
DR10 0.00 dB -11.16 dB 5:39 11-Big Boy Now
DR11 0.00 dB -14.93 dB 5:45 12-Chains Around My Heart
DR10 -0.01 dB -11.65 dB 5:54 13-Your World
––––––––––––––––––––––––––––––––––––––––

Number of tracks: 13
Official DR value: DR10

Samplerate: 44100 Hz
Channels: 2
Bits per sample: 16
Bitrate: 990 kbps
Codec: FLAC
================================================================================

[CUETools log; Date: 24.01.2018 1:24:42; Version: 2.1.5]
Pregap length 00:00:33.
[CTDB TOCID: yLGqZyP9mz97WDXVvpu4CqcfDLY-] found.
Track | CTDB Status
1 | (443/461) Accurately ripped
2 | (444/461) Accurately ripped
3 | (447/461) Accurately ripped
4 | (451/461) Accurately ripped
5 | (449/461) Accurately ripped
6 | (451/461) Accurately ripped
7 | (449/461) Accurately ripped
8 | (441/461) Accurately ripped, or (1/461) differs in 46 samples @03:31:67,04:20:22-04:20:23
9 | (447/461) Accurately ripped, or (1/461) differs in 24 samples @05:06:19
10 | (446/461) Accurately ripped, or (1/461) differs in 22 samples @02:25:49-02:25:50
11 | (443/461) Accurately ripped, or (1/461) differs in 246 samples @00:12:19,01:07:63,01:45:03,02:13:18-02:13:19,02:14:49,02:28:62,02:34:64,04:23:38,04:47:18
12 | (443/461) Accurately ripped, or (1/461) differs in 54 samples @00:23:50-00:23:51,00:51:74,03:19:70,05:36:72
13 | (183/461) Accurately ripped, or (226/461) differs in 443 samples @05:53:55-05:53:65
[AccurateRip ID: 001f1bdb-013657b5-c10f5d0d] found.
Track [ CRC | V2 ] Status
01 [6612c7af|c4661974] (05+09/26) Accurately ripped
02 [5e7ec274|50b8dab3] (05+09/25) Accurately ripped
03 [b383ed94|15bbc1f2] (04+09/24) Accurately ripped
04 [86c2bdf6|3f1836e3] (05+09/25) Accurately ripped
05 [c769bbbb|566270d4] (05+08/25) Accurately ripped
06 [a699bd8b|739c8057] (04+08/23) Accurately ripped
07 [662ffe97|f06c88eb] (04+08/23) Accurately ripped
08 [cd5965b7|1b094839] (04+08/23) Accurately ripped
09 [40898730|81d5626b] (04+07/22) Accurately ripped
10 [7efa8c01|4ec3e90a] (04+08/24) Accurately ripped
11 [52a3ca55|d2af7879] (04+08/23) Accurately ripped
12 [51ec1be0|191ca2a5] (04+08/24) Accurately ripped
13 [69b315d0|8eb3e4a4] (04+08/24) Accurately ripped
Offsetted by 121:
01 [4abd569c] (06/26) Accurately ripped
02 [04a26c76] (06/25) Accurately ripped
03 [344a2e1b] (06/24) Accurately ripped
04 [30876b0a] (06/25) Accurately ripped
05 [821b6734] (07/25) Accurately ripped
06 [47561a19] (06/23) Accurately ripped
07 [bd08d54c] (06/23) Accurately ripped
08 [3817dba6] (06/23) Accurately ripped
09 [71796256] (06/22) Accurately ripped
10 [9e7fd0f0] (06/24) Accurately ripped
11 [68cc3fac] (06/23) Accurately ripped
12 [e56fed1f] (06/24) Accurately ripped
13 [3010cdc7] (06/24) Accurately ripped

Track Peak [ CRC32 ] [W/O NULL] [ LOG ]
– 100,0 [A55CFF67] [D18808C8] CRC32
01 100,0 [C2F6170F] [7BC689FB]
02 100,0 [53AD92F4] [BC7FC130]
03 100,0 [1467902A] [7829795F]
04 100,0 [A67E1DD0] [B78DF9EF]
05 96,6 [01C4B509] [682C2FB1]
06 100,0 [5DBCB8C0] [032233FE]
07 99,9 [0EA31994] [9526759B]
08 100,0 [29DBC01F] [FA7F5A16]
09 100,0 [62BF1D37] [B8D16422]
10 98,2 [B3D735D4] [0E801C2E]
11 100,0 [1D14ACEA] [31900AF4]
12 100,0 [9ABE200A] [9B309E58]
13 99,8 [0F80046E] [7C51D8D1]

Richard Marx - Rush Street (1991)

All thanks go to Boris1

>>> Richard Marx in my Blog <<<

Download from icerbox.com: