Subcategories

Richard Tognetti, Australian Chamber Orchestra - Vivaldi: The 4 Seasons (2014) {SACD, Audio CD Layer}

Posted By: popsakov
Richard Tognetti, Australian Chamber Orchestra - Vivaldi: The 4 Seasons (2014) {SACD, Audio CD Layer}

Richard Tognetti, Australian Chamber Orchestra - Vivaldi: The 4 Seasons (2014) {SACD, Audio CD Layer}
EAC Rip | WV (Img) + Cue + Log ~ 378 Mb | MP3 CBR320 ~ 165 Mb
Full Scans (JPG, 600 dpi) ~ 43 Mb | RAR 5% Recovery
Classical | BIS Records #BIS-2103

The world was hardly clamoring for another recording of Vivaldi's Four Seasons violin concertos, but the Australian Chamber Orchestra has evolved into one of the world's top concert attractions, and it's natural that their fans would want to hear them in this ubiquitous work. Violin soloist Richard Tognetti plays a 1743 Guarneri instrument with a powerfully flashy tone, and he gets a large variety of sounds from it. These are complemented by the inclusion in the booklet of the four sonnets included by Vivaldi in the score (and possibly written by the composer himself). This is always desirable, for the Four Seasons are programmatic in a way that's hard to pick up from the music alone, and the inclusion of the texts is remarkably rare. Tognetti's performances lie somewhere in between the aggressive new Italian approaches and the classic silvery sound. He takes most of the music at a rapid clip, but the Australian Chamber Orchestra's smooth ensemble work is fully in evidence. A comfortable, contemporary Four Seasons that does not stray too far from the beaten path of the work's interpretive tradition.
~ James Manheim, All Music
Richard Tognetti, Australian Chamber Orchestra - Vivaldi: The 4 Seasons (2014) {SACD, Audio CD Layer}


***************

Richard Tognetti, Australian Chamber Orchestra - Vivaldi: The 4 Seasons (2014) {SACD, Audio CD Layer}

Richard Tognetti, Australian Chamber Orchestra - Vivaldi: The 4 Seasons (2014) {SACD, Audio CD Layer}

Track List:

01. Le Quatro Stagioni: Concerto No. 1 in E major, RV269, 'La Primavera' - I. All… [3:19]
02. Le Quatro Stagioni: Concerto No. 1 in E major, RV269, 'La Primavera' - II. Largo [2:20]
03. Le Quatro Stagioni: Concerto No. 1 in E major, RV269, 'La Primavera' - III. A… [4:02]
04. Le Quatro Stagioni: Concerto No. 2 in G Minor, RV315, 'L'Estate' - I. Allegro… [5:18]
05. Le Quatro Stagioni: Concerto No. 2 in G Minor, RV315, 'L'Estate' - II. Adagio… [2:29]
06. Le Quatro Stagioni: Concerto No. 2 in G Minor, RV315, 'L'Estate' - III. Presto [2:50]
07. Le Quatro Stagioni: Concerto No. 3 in F Major, RV293, 'L'Autunno' - I. Allegro [4:57]
08. Le Quatro Stagioni: Concerto No. 3 in F Major, RV293, 'L'Autunno' - II. Adagi… [3:14]
09. Le Quatro Stagioni: Concerto No. 3 in F Major, RV293, 'L'Autunno' - III. Allegro [3:24]
10. Le Quatro Stagioni: Concerto No. 4 in F Minor, RV297, 'L'Inverno' - I. Allegr… [3:25]
11. Le Quatro Stagioni: Concerto No. 4 in F Minor, RV297, 'L'Inverno' - II. Largo [1:50]
12. Le Quatro Stagioni: Concerto No. 4 in F Minor, RV297, 'L'Inverno' - III. Allegro [3:30]
13. from Concerto in D Major, RV226 - II. Largo [1:39]
14. Concerto in B Minor, RV580 - I. Allegro [3:37]
15. Concerto in B Minor, RV580 - II. Largo [2:20]
16. Concerto in B Minor, RV580 - III. Allegro [3:26]
17. Concerto in A Minor, RV356 - I. Allegro [2:55]
18. Concerto in A Minor, RV356 - II. Largo [2:12]
19. Concerto in A Minor, RV356 - III. Presto [2:27]
20. from Concerto in D Major, RV562 - II. Grave [3:19]
21. Sinfonia from La Verita in Cimento, RV739 - I. Allegro [1:40]
22. Sinfonia from La Verita in Cimento, RV739 - II. Andante [2:07]
23. Sinfonia from La Verita in Cimento, RV739 - III. Presto [1:18]

Exact Audio Copy V1.3 from 2. September 2016

EAC extraction logfile from 27. May 2017, 13:59

Australian Chamber Orchestra, Richard Tognetti (violin) / Vivaldi: The 4 Seasons

Used drive : TSSTcorpCDDVDW SH-224DB Adapter: 1 ID: 0

Read mode : Secure
Utilize accurate stream : Yes
Defeat audio cache : Yes
Make use of C2 pointers : No

Read offset correction : 6
Overread into Lead-In and Lead-Out : No
Fill up missing offset samples with silence : Yes
Delete leading and trailing silent blocks : No
Null samples used in CRC calculations : Yes
Used interface : Native Win32 interface for Win NT & 2000

Used output format : User Defined Encoder
Selected bitrate : 1024 kBit/s
Quality : High
Add ID3 tag : No
Command line compressor : C:\Program Files (x86)\Exact Audio Copy\wavpack.exe
Additional command line options : -hm %source% %dest%


TOC of the extracted CD

Track | Start | Length | Start sector | End sector
––––––––––––––––––––––––––––-
1 | 0:00.00 | 3:19.15 | 0 | 14939
2 | 3:19.15 | 2:19.40 | 14940 | 25404
3 | 5:38.55 | 4:01.69 | 25405 | 43548
4 | 9:40.49 | 5:18.29 | 43549 | 67427
5 | 14:59.03 | 2:29.06 | 67428 | 78608
6 | 17:28.09 | 2:49.59 | 78609 | 91342
7 | 20:17.68 | 4:56.60 | 91343 | 113602
8 | 25:14.53 | 3:14.20 | 113603 | 128172
9 | 28:28.73 | 3:24.23 | 128173 | 143495
10 | 31:53.21 | 3:24.38 | 143496 | 158833
11 | 35:17.59 | 1:49.59 | 158834 | 167067
12 | 37:07.43 | 3:29.70 | 167068 | 182812
13 | 40:37.38 | 1:39.17 | 182813 | 190254
14 | 42:16.55 | 3:37.22 | 190255 | 206551
15 | 45:54.02 | 2:19.40 | 206552 | 217016
16 | 48:13.42 | 3:26.27 | 217017 | 232493
17 | 51:39.69 | 2:54.49 | 232494 | 245592
18 | 54:34.43 | 2:12.03 | 245593 | 255495
19 | 56:46.46 | 2:26.53 | 255496 | 266498
20 | 59:13.24 | 3:19.34 | 266499 | 281457
21 | 62:32.58 | 1:40.27 | 281458 | 288984
22 | 64:13.10 | 2:06.48 | 288985 | 298482
23 | 66:19.58 | 1:17.48 | 298483 | 304305


Range status and errors

Selected range

Filename G:\iso\Richard Tognetti - Australian Chamber Orchestra - Vivaldi - The Four Seasons\Australian Chamber Orchestra, Richard Tognetti (violin) - Vivaldi- The 4 Seasons.wav

Peak level 98.8 %
Extraction speed 2.2 X
Range quality 99.9 %
Test CRC BA65926F
Copy CRC BA65926F
Copy OK

No errors occurred


AccurateRip summary

Track 1 accurately ripped (confidence 7) [C1D52496] (AR v2)
Track 2 accurately ripped (confidence 7) [E603D774] (AR v2)
Track 3 accurately ripped (confidence 7) [7DFCC75B] (AR v2)
Track 4 accurately ripped (confidence 7) [891FBEA7] (AR v2)
Track 5 accurately ripped (confidence 7) [51020599] (AR v2)
Track 6 accurately ripped (confidence 7) [31F1656C] (AR v2)
Track 7 accurately ripped (confidence 7) [2D364811] (AR v2)
Track 8 accurately ripped (confidence 7) [F6666A89] (AR v2)
Track 9 accurately ripped (confidence 7) [D9344F1D] (AR v2)
Track 10 accurately ripped (confidence 7) [69821857] (AR v2)
Track 11 accurately ripped (confidence 7) [54183143] (AR v2)
Track 12 accurately ripped (confidence 7) [1EC79776] (AR v2)
Track 13 accurately ripped (confidence 7) [1BDDA71E] (AR v2)
Track 14 accurately ripped (confidence 7) [A3018B70] (AR v2)
Track 15 accurately ripped (confidence 7) [5A2C447E] (AR v2)
Track 16 accurately ripped (confidence 7) [1B443E24] (AR v2)
Track 17 accurately ripped (confidence 7) [8563511F] (AR v2)
Track 18 accurately ripped (confidence 7) [53B49ADE] (AR v2)
Track 19 accurately ripped (confidence 7) [5C7F54D5] (AR v2)
Track 20 accurately ripped (confidence 7) [20ABB73D] (AR v2)
Track 21 accurately ripped (confidence 7) [D4237E1D] (AR v2)
Track 22 accurately ripped (confidence 7) [8D61ED39] (AR v2)
Track 23 accurately ripped (confidence 7) [7FBBA663] (AR v2)

All tracks accurately ripped

End of status report

–– CUETools DB Plugin V2.1.6

[CTDB TOCID: EXf_kTaJHBhYe3XMSuPsRfRi7j4-] found
Submit result: EXf_kTaJHBhYe3XMSuPsRfRi7j4- has been confirmed
Track | CTDB Status
1 | (11/11) Accurately ripped
2 | (11/11) Accurately ripped
3 | (11/11) Accurately ripped
4 | (11/11) Accurately ripped
5 | (11/11) Accurately ripped
6 | (11/11) Accurately ripped
7 | (11/11) Accurately ripped
8 | (11/11) Accurately ripped
9 | (11/11) Accurately ripped
10 | (11/11) Accurately ripped
11 | (11/11) Accurately ripped
12 | (11/11) Accurately ripped
13 | (11/11) Accurately ripped
14 | (11/11) Accurately ripped
15 | (11/11) Accurately ripped
16 | (11/11) Accurately ripped
17 | (11/11) Accurately ripped
18 | (11/11) Accurately ripped
19 | (11/11) Accurately ripped
20 | (11/11) Accurately ripped
21 | (11/11) Accurately ripped
22 | (11/11) Accurately ripped
23 | (11/11) Accurately ripped


==== Log checksum 1BE8C81599743EF1DA5DA64E8D587A1772164AB8243B772A82D85317ABFE27BA ====

foobar2000 1.2.6 / Dynamic Range Meter 1.1.1
log date: 2017-08-16 14:04:50

––––––––––––––––––––––––––––––––––––––––
Analyzed: Australian Chamber Orchestra, Richard Tognetti (violin) / Vivaldi: The 4 Seasons
––––––––––––––––––––––––––––––––––––––––

DR Peak RMS Duration Track
––––––––––––––––––––––––––––––––––––––––
DR13 -0.67 dB -17.67 dB 3:19 01-Le Quatro Stagioni: Concerto No. 1 in E major, RV269, 'La Primavera' - I. All…
DR12 -7.75 dB -24.04 dB 2:20 02-Le Quatro Stagioni: Concerto No. 1 in E major, RV269, 'La Primavera' - II. Largo
DR12 -1.27 dB -17.32 dB 4:02 03-Le Quatro Stagioni: Concerto No. 1 in E major, RV269, 'La Primavera' - III. A…
DR12 -0.43 dB -17.53 dB 5:18 04-Le Quatro Stagioni: Concerto No. 2 in G Minor, RV315, 'L'Estate' - I. Allegro…
DR15 -0.67 dB -24.42 dB 2:29 05-Le Quatro Stagioni: Concerto No. 2 in G Minor, RV315, 'L'Estate' - II. Adagio…
DR12 -0.53 dB -15.62 dB 2:50 06-Le Quatro Stagioni: Concerto No. 2 in G Minor, RV315, 'L'Estate' - III. Presto
DR13 -0.45 dB -18.08 dB 4:57 07-Le Quatro Stagioni: Concerto No. 3 in F Major, RV293, 'L'Autunno' - I. Allegro
DR9 -13.61 dB -25.65 dB 3:14 08-Le Quatro Stagioni: Concerto No. 3 in F Major, RV293, 'L'Autunno' - II. Adagi…
DR13 -0.10 dB -15.98 dB 3:24 09-Le Quatro Stagioni: Concerto No. 3 in F Major, RV293, 'L'Autunno' - III. Allegro
DR12 -0.87 dB -18.06 dB 3:25 10-Le Quatro Stagioni: Concerto No. 4 in F Minor, RV297, 'L'Inverno' - I. Allegr…
DR11 -6.08 dB -19.40 dB 1:50 11-Le Quatro Stagioni: Concerto No. 4 in F Minor, RV297, 'L'Inverno' - II. Largo
DR12 -0.86 dB -18.52 dB 3:30 12-Le Quatro Stagioni: Concerto No. 4 in F Minor, RV297, 'L'Inverno' - III. Allegro
DR11 -12.19 dB -29.33 dB 1:39 13-from Concerto in D Major, RV226 - II. Largo
DR13 -1.59 dB -18.28 dB 3:37 14-Concerto in B Minor, RV580 - I. Allegro
DR13 -3.04 dB -20.80 dB 2:20 15-Concerto in B Minor, RV580 - II. Largo
DR13 -0.44 dB -17.50 dB 3:26 16-Concerto in B Minor, RV580 - III. Allegro
DR12 -0.67 dB -18.21 dB 2:55 17-Concerto in A Minor, RV356 - I. Allegro
DR12 -7.95 dB -26.95 dB 2:12 18-Concerto in A Minor, RV356 - II. Largo
DR12 -1.38 dB -16.62 dB 2:27 19-Concerto in A Minor, RV356 - III. Presto
DR12 -5.67 dB -20.99 dB 3:19 20-from Concerto in D Major, RV562 - II. Grave
DR11 -1.69 dB -15.94 dB 1:40 21-Sinfonia from La Verita in Cimento, RV739 - I. Allegro
DR12 -4.46 dB -19.79 dB 2:07 22-Sinfonia from La Verita in Cimento, RV739 - II. Andante
DR12 -2.09 dB -21.05 dB 1:18 23-Sinfonia from La Verita in Cimento, RV739 - III. Presto
––––––––––––––––––––––––––––––––––––––––

Number of tracks: 23
Official DR value: DR12

Samplerate: 44100 Hz
Channels: 2
Bits per sample: 16
Bitrate: 740 kbps
Codec: WavPack
================================================================================

[CUETools log; Date: 16.08.2017 14:03:54; Version: 2.1.5]
[CTDB TOCID: EXf_kTaJHBhYe3XMSuPsRfRi7j4-] found.
Track | CTDB Status
1 | (12/12) Accurately ripped
2 | (12/12) Accurately ripped
3 | (12/12) Accurately ripped
4 | (12/12) Accurately ripped
5 | (12/12) Accurately ripped
6 | (12/12) Accurately ripped
7 | (12/12) Accurately ripped
8 | (12/12) Accurately ripped
9 | (12/12) Accurately ripped
10 | (12/12) Accurately ripped
11 | (12/12) Accurately ripped
12 | (12/12) Accurately ripped
13 | (12/12) Accurately ripped
14 | (12/12) Accurately ripped
15 | (12/12) Accurately ripped
16 | (12/12) Accurately ripped
17 | (12/12) Accurately ripped
18 | (12/12) Accurately ripped
19 | (12/12) Accurately ripped
20 | (12/12) Accurately ripped
21 | (12/12) Accurately ripped
22 | (12/12) Accurately ripped
23 | (12/12) Accurately ripped
[AccurateRip ID: 003d125f-03e8b686-400fd917] found.
Track [ CRC | V2 ] Status
01 [358a7c43|c1d52496] (00+10/10) Accurately ripped
02 [7211c02b|e603d774] (00+10/10) Accurately ripped
03 [5dbe8ec2|7dfcc75b] (00+10/10) Accurately ripped
04 [ef5fdc0c|891fbea7] (00+10/10) Accurately ripped
05 [5f2ff247|51020599] (00+10/10) Accurately ripped
06 [acab6cea|31f1656c] (00+10/10) Accurately ripped
07 [d6002864|2d364811] (00+10/10) Accurately ripped
08 [d4faed02|f6666a89] (00+10/10) Accurately ripped
09 [15102cb0|d9344f1d] (00+10/10) Accurately ripped
10 [a1607376|69821857] (00+10/10) Accurately ripped
11 [9240c97d|54183143] (00+10/10) Accurately ripped
12 [39bbe1cc|1ec79776] (00+10/10) Accurately ripped
13 [226a2133|1bdda71e] (00+10/10) Accurately ripped
14 [297ee28e|a3018b70] (00+10/10) Accurately ripped
15 [62dbf510|5a2c447e] (00+10/10) Accurately ripped
16 [e92ac19c|1b443e24] (00+10/10) Accurately ripped
17 [8ffb1ac8|8563511f] (00+10/10) Accurately ripped
18 [9a0706d0|53b49ade] (00+10/10) Accurately ripped
19 [a395527d|5c7f54d5] (00+10/10) Accurately ripped
20 [531eae20|20abb73d] (00+10/10) Accurately ripped
21 [3d54bc9f|d4237e1d] (00+10/10) Accurately ripped
22 [0058d7fe|8d61ed39] (00+10/10) Accurately ripped
23 [6eb94855|7fbba663] (00+10/10) Accurately ripped

Track Peak [ CRC32 ] [W/O NULL] [ LOG ]
– 98,8 [BA65926F] [18E3430A] CRC32
01 92,5 [1D175842] [403C5E17]
02 40,9 [B4894556] [5A490E5C]
03 86,4 [11068859] [A12E6941]
04 95,1 [9FEA17E5] [D83333C3]
05 92,5 [B4AF36F6] [D2D70726]
06 94,0 [D18A1BF2] [83D36577]
07 94,9 [C2700742] [08EE1082]
08 20,8 [3089D998] [3CD9AF4A]
09 98,8 [682A682C] [E9E51A67]
10 90,4 [6D94664C] [7EB682F6]
11 49,6 [89BC690F] [6B16DED0]
12 90,6 [18080060] [421C42D0]
13 24,5 [C10047E1] [59BF7917]
14 83,2 [6A51152B] [D1641D51]
15 70,5 [1EA6E165] [8C4A00EC]
16 95,0 [D08EE092] [7B879816]
17 92,5 [D797CB31] [D8946922]
18 40,0 [2AD1F1C3] [81C23C92]
19 85,2 [525A7098] [87946846]
20 52,0 [A0B3CB95] [B8E74C87]
21 82,3 [448E97D9] [B5D1F0D4]
22 59,8 [4BC1C7F1] [D33FD113]
23 78,6 [F8112685] [9BAF59EB]

Richard Tognetti, Australian Chamber Orchestra - Vivaldi: The 4 Seasons (2014) {SACD, Audio CD Layer}

All thanks go to shatterhand

>>> My Blog <<<

Download from icerbox.com: