Richard Troeger - J.S. Bach: The Art of Fugue, Violin Transcriptions, Fantasias (2005)

Posted By: tirexiss
Richard Troeger - J.S. Bach: The Art of Fugue, Violin Transcriptions, Fantasias (2005)

Richard Troeger - J.S. Bach: The Art of Fugue, Violin Transcriptions, Fantasias (2005)
EAC | FLAC (tracks+.cue, log) | Covers Included | 02:14:34 | 754 MB
Genre: Classical | Label: Lyrichord | Catalog: 8048

2CD set "The Art of Fugue" is the long-anticipated 4th volume in Richard Troeger's ground breaking, world premiere series of Bach performed on the clavichord, exclusively from the Lyrichord Early Music Series. This edition features the complete Art of the Fugue, along with stunning violin transcriptions, and fantasias, including the thrilling "Chromatic Fantasia" and "Fugue." The first three volumes garnered raves reviews both here and abroad.

Richard Troeger - J.S. Bach: The Art of Fugue, Violin Transcriptions, Fantasias (2005)

Track List:

CD 1:
The Art of Fugue
01. Contrapunctus 1 (3:10)
02. Contrapunctus 2 (2:48)
03. Contrapunctus 3 (3:05)
04. Contrapunctus 4 (4:12)
05. Contrapunctus 5 (3:15)
06. Contrapunctus 6, in Stylo Francese (4:07)
07. Contrapunctus 7, per Augmentationem et Diminutionem (3:40)
08. Contrapunctus 8 (5:54)
09. Contrapunctus 9, alla Duodecima (2:57)
10. Contrapunctus 10, alla Decima (4:31)
11. Contrapunctus 11 (7:23)
12. Contrapunctus 12a [rectus] (2:22)
13. Contrapunctus 12b, inversus (2:17)
14. Contrapunctus 13a, rectus (2:26)
15. Contrapunctus 13b, inversus (2:29)
16. [Contrapunctus 14] (8:25)

Exact Audio Copy V1.0 beta 2 from 29. April 2011

EAC extraction logfile from 27. June 2011, 16:53

Johann Sebastian Bach / The Art of Fugue, Violin Transcriptions, Fantasias (Richard Troeger; Bach on Clavichord, Vol. 4)

Used drive : HP DVD Writer 1040r Adapter: 1 ID: 0

Read mode : Secure
Utilize accurate stream : Yes
Defeat audio cache : Yes
Make use of C2 pointers : No

Read offset correction : 6
Overread into Lead-In and Lead-Out : No
Fill up missing offset samples with silence : Yes
Delete leading and trailing silent blocks : No
Null samples used in CRC calculations : Yes
Used interface : Native Win32 interface for Win NT & 2000
Gap handling : Appended to previous track

Used output format : User Defined Encoder
Selected bitrate : 128 kBit/s
Quality : High
Add ID3 tag : No
Command line compressor : C:\Program Files\Exact Audio Copy\Flac\flac.exe
Additional command line options : -8 -V -T "ARTIST=%artist%" -T "TITLE=%title%" -T "ALBUM=%albumtitle%" -T "DATE=%year%" -T "TRACKNUMBER=%tracknr%" -T "GENRE=%genre%" -T "PERFORMER=%albuminterpret%" -T "COMPOSER=%composer%" %haslyrics%–tag-from-file=LYRICS


TOC of the extracted CD

Track | Start | Length | Start sector | End sector
––––––––––––––––––––––––––––-
1 | 0:00.00 | 3:09.69 | 0 | 14243
2 | 3:09.69 | 2:47.43 | 14244 | 26811
3 | 5:57.37 | 3:05.21 | 26812 | 40707
4 | 9:02.58 | 4:11.45 | 40708 | 59577
5 | 13:14.28 | 3:15.20 | 59578 | 74222
6 | 16:29.48 | 4:07.08 | 74223 | 92755
7 | 20:36.56 | 3:39.40 | 92756 | 109220
8 | 24:16.21 | 5:53.70 | 109221 | 135765
9 | 30:10.16 | 2:56.64 | 135766 | 149029
10 | 33:07.05 | 4:31.35 | 149030 | 169389
11 | 37:38.40 | 7:23.23 | 169390 | 202637
12 | 45:01.63 | 2:21.54 | 202638 | 213266
13 | 47:23.42 | 2:16.49 | 213267 | 223515
14 | 49:40.16 | 2:25.47 | 223516 | 234437
15 | 52:05.63 | 2:28.69 | 234438 | 245606
16 | 54:34.57 | 8:25.06 | 245607 | 283487


Track 1

Filename D:\EAC Rips\The Art of Fugue, Violin Transcriptions, Fantasias (Richard Troeger; Bach on Clavichord, Vol. 4) - FLAC\Disc 1\01 - The Art of Fugue, Contrapunctus 1.wav

Pre-gap length 0:00:02.00

Peak level 53.8 %
Extraction speed 1.5 X
Track quality 99.9 %
Test CRC A9612E07
Copy CRC A9612E07
Track not present in AccurateRip database
Copy OK

Track 2

Filename D:\EAC Rips\The Art of Fugue, Violin Transcriptions, Fantasias (Richard Troeger; Bach on Clavichord, Vol. 4) - FLAC\Disc 1\02 - The Art of Fugue, Contrapunctus 2.wav

Peak level 67.9 %
Extraction speed 1.8 X
Track quality 100.0 %
Test CRC 4B050543
Copy CRC 4B050543
Track not present in AccurateRip database
Copy OK

Track 3

Filename D:\EAC Rips\The Art of Fugue, Violin Transcriptions, Fantasias (Richard Troeger; Bach on Clavichord, Vol. 4) - FLAC\Disc 1\03 - The Art of Fugue, Contrapunctus 3.wav

Peak level 51.6 %
Extraction speed 1.7 X
Track quality 99.9 %
Test CRC 0BF931CA
Copy CRC 0BF931CA
Track not present in AccurateRip database
Copy OK

Track 4

Filename D:\EAC Rips\The Art of Fugue, Violin Transcriptions, Fantasias (Richard Troeger; Bach on Clavichord, Vol. 4) - FLAC\Disc 1\04 - The Art of Fugue, Contrapunctus 4.wav

Peak level 65.6 %
Extraction speed 2.2 X
Track quality 100.0 %
Test CRC 28F8AC12
Copy CRC 28F8AC12
Track not present in AccurateRip database
Copy OK

Track 5

Filename D:\EAC Rips\The Art of Fugue, Violin Transcriptions, Fantasias (Richard Troeger; Bach on Clavichord, Vol. 4) - FLAC\Disc 1\05 - The Art of Fugue, Contrapunctus 5.wav

Peak level 83.8 %
Extraction speed 2.3 X
Track quality 100.0 %
Test CRC B0AA8E10
Copy CRC B0AA8E10
Track not present in AccurateRip database
Copy OK

Track 6

Filename D:\EAC Rips\The Art of Fugue, Violin Transcriptions, Fantasias (Richard Troeger; Bach on Clavichord, Vol. 4) - FLAC\Disc 1\06 - The Art of Fugue, Contrapunctus 6, in Stylo Francese.wav

Peak level 86.9 %
Extraction speed 2.5 X
Track quality 100.0 %
Test CRC A05A01C7
Copy CRC A05A01C7
Track not present in AccurateRip database
Copy OK

Track 7

Filename D:\EAC Rips\The Art of Fugue, Violin Transcriptions, Fantasias (Richard Troeger; Bach on Clavichord, Vol. 4) - FLAC\Disc 1\07 - The Art of Fugue, Contrapunctus 7, per Augmentationem et Diminutionem.wav

Peak level 72.0 %
Extraction speed 2.6 X
Track quality 100.0 %
Test CRC 35FDADD3
Copy CRC 35FDADD3
Track not present in AccurateRip database
Copy OK

Track 8

Filename D:\EAC Rips\The Art of Fugue, Violin Transcriptions, Fantasias (Richard Troeger; Bach on Clavichord, Vol. 4) - FLAC\Disc 1\08 - The Art of Fugue, Contrapunctus 8.wav

Peak level 75.7 %
Extraction speed 2.9 X
Track quality 100.0 %
Test CRC 28D483C2
Copy CRC 28D483C2
Track not present in AccurateRip database
Copy OK

Track 9

Filename D:\EAC Rips\The Art of Fugue, Violin Transcriptions, Fantasias (Richard Troeger; Bach on Clavichord, Vol. 4) - FLAC\Disc 1\09 - The Art of Fugue, Contrapunctus 9, alla Duodecima.wav

Peak level 65.9 %
Extraction speed 2.8 X
Track quality 100.0 %
Test CRC 214C80E3
Copy CRC 214C80E3
Track not present in AccurateRip database
Copy OK

Track 10

Filename D:\EAC Rips\The Art of Fugue, Violin Transcriptions, Fantasias (Richard Troeger; Bach on Clavichord, Vol. 4) - FLAC\Disc 1\10 - The Art of Fugue, Contrapunctus 10, alla Decima.wav

Peak level 59.9 %
Extraction speed 3.1 X
Track quality 100.0 %
Test CRC ECCE052D
Copy CRC ECCE052D
Track not present in AccurateRip database
Copy OK

Track 11

Filename D:\EAC Rips\The Art of Fugue, Violin Transcriptions, Fantasias (Richard Troeger; Bach on Clavichord, Vol. 4) - FLAC\Disc 1\11 - The Art of Fugue, Contrapunctus 11.wav

Peak level 74.5 %
Extraction speed 3.4 X
Track quality 100.0 %
Test CRC 169D989E
Copy CRC 169D989E
Track not present in AccurateRip database
Copy OK

Track 12

Filename D:\EAC Rips\The Art of Fugue, Violin Transcriptions, Fantasias (Richard Troeger; Bach on Clavichord, Vol. 4) - FLAC\Disc 1\12 - The Art of Fugue, Contrapunctus 12a [rectus].wav

Peak level 41.3 %
Extraction speed 2.1 X
Track quality 99.9 %
Test CRC B7DD4A22
Copy CRC B7DD4A22
Track not present in AccurateRip database
Copy OK

Track 13

Filename D:\EAC Rips\The Art of Fugue, Violin Transcriptions, Fantasias (Richard Troeger; Bach on Clavichord, Vol. 4) - FLAC\Disc 1\13 - The Art of Fugue, Contrapunctus 12b, inversus.wav

Peak level 55.3 %
Extraction speed 3.2 X
Track quality 100.0 %
Test CRC D56C035C
Copy CRC D56C035C
Track not present in AccurateRip database
Copy OK

Track 14

Filename D:\EAC Rips\The Art of Fugue, Violin Transcriptions, Fantasias (Richard Troeger; Bach on Clavichord, Vol. 4) - FLAC\Disc 1\14 - The Art of Fugue, Contrapunctus 13a, rectus.wav

Peak level 56.8 %
Extraction speed 3.2 X
Track quality 100.0 %
Test CRC 7C21F86F
Copy CRC 7C21F86F
Track not present in AccurateRip database
Copy OK

Track 15

Filename D:\EAC Rips\The Art of Fugue, Violin Transcriptions, Fantasias (Richard Troeger; Bach on Clavichord, Vol. 4) - FLAC\Disc 1\15 - The Art of Fugue, Contrapunctus 13b, inversus.wav

Peak level 53.6 %
Extraction speed 3.1 X
Track quality 100.0 %
Test CRC 6B66121B
Copy CRC 6B66121B
Track not present in AccurateRip database
Copy OK

Track 16

Filename D:\EAC Rips\The Art of Fugue, Violin Transcriptions, Fantasias (Richard Troeger; Bach on Clavichord, Vol. 4) - FLAC\Disc 1\16 - The Art of Fugue, [Contrapunctus 14].wav

Peak level 79.8 %
Extraction speed 4.0 X
Track quality 100.0 %
Test CRC A1FB33DE
Copy CRC A1FB33DE
Track not present in AccurateRip database
Copy OK


None of the tracks are present in the AccurateRip database

No errors occurred

End of status report

==== Log checksum BCAC8196B6B7978F4932FBE0737C5AF126134A08106B1502FDAB7FF33AE5506D ====

[CUETools log; Date: 04.05.2017 14:08:26; Version: 2.1.5]
[CTDB TOCID: 0QfakBRKXrzXkNhfncpOHw1ry9k-] found.
Track | CTDB Status
1 | (2/2) Accurately ripped
2 | (2/2) Accurately ripped
3 | (2/2) Accurately ripped
4 | (2/2) Accurately ripped
5 | (2/2) Accurately ripped
6 | (2/2) Accurately ripped
7 | (2/2) Accurately ripped
8 | (2/2) Accurately ripped
9 | (2/2) Accurately ripped
10 | (2/2) Accurately ripped
11 | (2/2) Accurately ripped
12 | (2/2) Accurately ripped
13 | (2/2) Accurately ripped
14 | (2/2) Accurately ripped
15 | (2/2) Accurately ripped
16 | (2/2) Accurately ripped
[AccurateRip ID: 0022b57a-01a6dbca-f80ec310] found.
Track [ CRC | V2 ] Status
01 [5b715e7b|159f7fd1] (0+1/1) Accurately ripped
02 [932e9be3|29696f51] (0+1/1) Accurately ripped
03 [0bf72966|26be3423] (0+1/1) Accurately ripped
04 [16644958|db005340] (0+1/1) Accurately ripped
05 [d501ca54|46e1cb79] (0+1/1) Accurately ripped
06 [c8d488d0|f208ed6b] (0+1/1) Accurately ripped
07 [188c0952|063bd427] (0+1/1) Accurately ripped
08 [a0d550ec|7168c096] (0+1/1) Accurately ripped
09 [eb2db832|49851e63] (0+1/1) Accurately ripped
10 [e5c0cb60|6071734b] (0+1/1) Accurately ripped
11 [9c569b06|0ea5dec3] (0+1/1) Accurately ripped
12 [65f413f1|f874a7ba] (0+1/1) Accurately ripped
13 [90d0b169|ab038f8c] (0+1/1) Accurately ripped
14 [4a74dc02|179d86ad] (0+1/1) Accurately ripped
15 [9db6a318|e9e38ecb] (0+1/1) Accurately ripped
16 [86058e77|a0145609] (0+1/1) Accurately ripped

Track Peak [ CRC32 ] [W/O NULL] [ LOG ]
– 86,9 [A2024477] [03914F03]
01 53,8 [A9612E07] [B398EB1B] CRC32
02 67,9 [4B050543] [D9AB5671] CRC32
03 51,6 [0BF931CA] [083AF0A0] CRC32
04 65,6 [28F8AC12] [86909F49] CRC32
05 83,8 [B0AA8E10] [34269ECB] CRC32
06 86,9 [A05A01C7] [1192E030] CRC32
07 72,0 [35FDADD3] [DB476FFB] CRC32
08 75,7 [28D483C2] [9ED2C95B] CRC32
09 65,9 [214C80E3] [DF97B629] CRC32
10 59,9 [ECCE052D] [1687777C] CRC32
11 74,5 [169D989E] [DE6C8FB2] CRC32
12 41,3 [B7DD4A22] [40D0289E] CRC32
13 55,3 [D56C035C] [85DF6A06] CRC32
14 56,8 [7C21F86F] [992CF967] CRC32
15 53,6 [6B66121B] [D55292CF] CRC32
16 79,8 [A1FB33DE] [8D48AB4E] CRC32

CD 2:
The Art of Fugue
01. Canon 2, alla Ottava (2:36)
02. Canon 3, alla Decima (4:04)
03. Canon 4, alla Duodecima (2:15)
04. Canon 1, per Augmentationem in contrario Motu (4:11)
Chromatic Fantasia & Fugue, BWV 903
05. Fantasia (7:45)
06. Fugue (5:07)
07. Adagio in G Major, BWV 968 (3:21)
Sonata in D Minor, BWV 964
08. Adagio (3:23)
09. Allegro (6:44)
10. Andante (4:06)
11. Allegro (3:39)
Partita in E Major, BWV 1006a
12. Praeludium (3:53)
13. Loure (2:55)
14. Gavotte en Rondeau (2:40)
15. Menuets I & II (3:58)
16. Bourrée (1:39)
17. Gigue (2:13)
18. Fantasia in A Minor, BWV 922 (7:05)

Exact Audio Copy V1.0 beta 2 from 29. April 2011

EAC extraction logfile from 27. June 2011, 17:48

Johann Sebastian Bach / The Art of Fugue, Violin Transcriptions, Fantasias (Richard Troeger; Bach on Clavichord, Vol. 4)

Used drive : HP DVD Writer 1040r Adapter: 1 ID: 0

Read mode : Secure
Utilize accurate stream : Yes
Defeat audio cache : Yes
Make use of C2 pointers : No

Read offset correction : 6
Overread into Lead-In and Lead-Out : No
Fill up missing offset samples with silence : Yes
Delete leading and trailing silent blocks : No
Null samples used in CRC calculations : Yes
Used interface : Native Win32 interface for Win NT & 2000
Gap handling : Appended to previous track

Used output format : User Defined Encoder
Selected bitrate : 128 kBit/s
Quality : High
Add ID3 tag : No
Command line compressor : C:\Program Files\Exact Audio Copy\Flac\flac.exe
Additional command line options : -8 -V -T "ARTIST=%artist%" -T "TITLE=%title%" -T "ALBUM=%albumtitle%" -T "DATE=%year%" -T "TRACKNUMBER=%tracknr%" -T "GENRE=%genre%" -T "PERFORMER=%albuminterpret%" -T "COMPOSER=%composer%" %haslyrics%–tag-from-file=LYRICS


TOC of the extracted CD

Track | Start | Length | Start sector | End sector
––––––––––––––––––––––––––––-
1 | 0:00.00 | 2:35.62 | 0 | 11686
2 | 2:35.62 | 4:03.70 | 11687 | 29981
3 | 6:39.57 | 2:14.50 | 29982 | 40081
4 | 8:54.32 | 4:10.43 | 40082 | 58874
5 | 13:05.00 | 7:44.52 | 58875 | 93726
6 | 20:49.52 | 5:07.31 | 93727 | 116782
7 | 25:57.08 | 3:21.14 | 116783 | 131871
8 | 29:18.22 | 3:23.19 | 131872 | 147115
9 | 32:41.41 | 6:44.08 | 147116 | 177423
10 | 39:25.49 | 4:05.56 | 177424 | 195854
11 | 43:31.30 | 3:38.58 | 195855 | 212262
12 | 47:10.13 | 3:52.49 | 212263 | 229711
13 | 51:02.62 | 2:54.69 | 229712 | 242830
14 | 53:57.56 | 2:40.32 | 242831 | 254862
15 | 56:38.13 | 3:57.72 | 254863 | 272709
16 | 60:36.10 | 1:39.26 | 272710 | 280160
17 | 62:15.36 | 2:13.21 | 280161 | 290156
18 | 64:28.57 | 7:05.34 | 290157 | 322065


Track 1

Filename D:\EAC Rips\The Art of Fugue, Violin Transcriptions, Fantasias (Richard Troeger; Bach on Clavichord, Vol. 4) - FLAC\Disc 2\01 - Canon 2, alla Ottava.wav

Pre-gap length 0:00:02.00

Peak level 64.3 %
Extraction speed 1.8 X
Track quality 100.0 %
Test CRC 73356378
Copy CRC 73356378
Track not present in AccurateRip database
Copy OK

Track 2

Filename D:\EAC Rips\The Art of Fugue, Violin Transcriptions, Fantasias (Richard Troeger; Bach on Clavichord, Vol. 4) - FLAC\Disc 2\02 - Canon 3, alla Decima.wav

Peak level 57.4 %
Extraction speed 2.1 X
Track quality 100.0 %
Test CRC 41142FDB
Copy CRC 41142FDB
Track not present in AccurateRip database
Copy OK

Track 3

Filename D:\EAC Rips\The Art of Fugue, Violin Transcriptions, Fantasias (Richard Troeger; Bach on Clavichord, Vol. 4) - FLAC\Disc 2\03 - Canon 4, alla Duodecima.wav

Peak level 63.6 %
Extraction speed 2.0 X
Track quality 100.0 %
Test CRC CD07314D
Copy CRC CD07314D
Track not present in AccurateRip database
Copy OK

Track 4

Filename D:\EAC Rips\The Art of Fugue, Violin Transcriptions, Fantasias (Richard Troeger; Bach on Clavichord, Vol. 4) - FLAC\Disc 2\04 - Canon 1, per Augmentationem in contrario Motu.wav

Peak level 63.9 %
Extraction speed 2.4 X
Track quality 100.0 %
Test CRC CC04B041
Copy CRC CC04B041
Track not present in AccurateRip database
Copy OK

Track 5

Filename D:\EAC Rips\The Art of Fugue, Violin Transcriptions, Fantasias (Richard Troeger; Bach on Clavichord, Vol. 4) - FLAC\Disc 2\05 - Chromatic Fantasia & Fugue, BWV 903- Fantasia.wav

Pre-gap length 0:00:04.00

Peak level 88.3 %
Extraction speed 2.8 X
Track quality 100.0 %
Test CRC 55AE6B66
Copy CRC 55AE6B66
Track not present in AccurateRip database
Copy OK

Track 6

Filename D:\EAC Rips\The Art of Fugue, Violin Transcriptions, Fantasias (Richard Troeger; Bach on Clavichord, Vol. 4) - FLAC\Disc 2\06 - Chromatic Fantasia & Fugue, BWV 903- Fugue.wav

Peak level 86.9 %
Extraction speed 2.5 X
Track quality 99.9 %
Test CRC 4C366662
Copy CRC 4C366662
Track not present in AccurateRip database
Copy OK

Track 7

Filename D:\EAC Rips\The Art of Fugue, Violin Transcriptions, Fantasias (Richard Troeger; Bach on Clavichord, Vol. 4) - FLAC\Disc 2\07 - Adagio in G Major, BWV 968.wav

Pre-gap length 0:00:03.00

Peak level 69.3 %
Extraction speed 2.3 X
Track quality 99.9 %
Test CRC 9EE87A39
Copy CRC 9EE87A39
Track not present in AccurateRip database
Copy OK

Track 8

Filename D:\EAC Rips\The Art of Fugue, Violin Transcriptions, Fantasias (Richard Troeger; Bach on Clavichord, Vol. 4) - FLAC\Disc 2\08 - Sonata in D Minor, BWV 964- Adagio.wav

Pre-gap length 0:00:04.00

Peak level 81.1 %
Extraction speed 3.1 X
Track quality 100.0 %
Test CRC 07BF7B80
Copy CRC 07BF7B80
Track not present in AccurateRip database
Copy OK

Track 9

Filename D:\EAC Rips\The Art of Fugue, Violin Transcriptions, Fantasias (Richard Troeger; Bach on Clavichord, Vol. 4) - FLAC\Disc 2\09 - Sonata in D Minor, BWV 964- Allegro.wav

Peak level 93.7 %
Extraction speed 3.5 X
Track quality 100.0 %
Test CRC 2312973E
Copy CRC 2312973E
Track not present in AccurateRip database
Copy OK

Track 10

Filename D:\EAC Rips\The Art of Fugue, Violin Transcriptions, Fantasias (Richard Troeger; Bach on Clavichord, Vol. 4) - FLAC\Disc 2\10 - Sonata in D Minor, BWV 964- Andante.wav

Peak level 45.4 %
Extraction speed 3.5 X
Track quality 100.0 %
Test CRC FEA673F1
Copy CRC FEA673F1
Track not present in AccurateRip database
Copy OK

Track 11

Filename D:\EAC Rips\The Art of Fugue, Violin Transcriptions, Fantasias (Richard Troeger; Bach on Clavichord, Vol. 4) - FLAC\Disc 2\11 - Sonata in D Minor, BWV 964- Allegro.wav

Peak level 56.9 %
Extraction speed 2.6 X
Track quality 99.9 %
Test CRC EDE1CC21
Copy CRC EDE1CC21
Track not present in AccurateRip database
Copy OK

Track 12

Filename D:\EAC Rips\The Art of Fugue, Violin Transcriptions, Fantasias (Richard Troeger; Bach on Clavichord, Vol. 4) - FLAC\Disc 2\12 - Partita in E Major, BWV 1006a- Praeludium.wav

Pre-gap length 0:00:04.00

Peak level 40.2 %
Extraction speed 3.7 X
Track quality 100.0 %
Test CRC DA51AD21
Copy CRC DA51AD21
Track not present in AccurateRip database
Copy OK

Track 13

Filename D:\EAC Rips\The Art of Fugue, Violin Transcriptions, Fantasias (Richard Troeger; Bach on Clavichord, Vol. 4) - FLAC\Disc 2\13 - Partita in E Major, BWV 1006a- Loure.wav

Peak level 36.9 %
Extraction speed 2.5 X
Track quality 99.9 %
Test CRC 2BC901EC
Copy CRC 2BC901EC
Track not present in AccurateRip database
Copy OK

Track 14

Filename D:\EAC Rips\The Art of Fugue, Violin Transcriptions, Fantasias (Richard Troeger; Bach on Clavichord, Vol. 4) - FLAC\Disc 2\14 - Partita in E Major, BWV 1006a- Gavotte en Rondeau.wav

Peak level 40.8 %
Extraction speed 3.6 X
Track quality 100.0 %
Test CRC 3F421B08
Copy CRC 3F421B08
Track not present in AccurateRip database
Copy OK

Track 15

Filename D:\EAC Rips\The Art of Fugue, Violin Transcriptions, Fantasias (Richard Troeger; Bach on Clavichord, Vol. 4) - FLAC\Disc 2\15 - Partita in E Major, BWV 1006a- Menuets I & II.wav

Peak level 40.4 %
Extraction speed 3.9 X
Track quality 100.0 %
Test CRC 7CA13DA8
Copy CRC 7CA13DA8
Track not present in AccurateRip database
Copy OK

Track 16

Filename D:\EAC Rips\The Art of Fugue, Violin Transcriptions, Fantasias (Richard Troeger; Bach on Clavichord, Vol. 4) - FLAC\Disc 2\16 - Partita in E Major, BWV 1006a- Bourree.wav

Peak level 41.6 %
Extraction speed 3.4 X
Track quality 100.0 %
Test CRC 160CF7BF
Copy CRC 160CF7BF
Track not present in AccurateRip database
Copy OK

Track 17

Filename D:\EAC Rips\The Art of Fugue, Violin Transcriptions, Fantasias (Richard Troeger; Bach on Clavichord, Vol. 4) - FLAC\Disc 2\17 - Partita in E Major, BWV 1006a- Gigue.wav

Peak level 47.7 %
Extraction speed 3.7 X
Track quality 100.0 %
Test CRC B764A54D
Copy CRC B764A54D
Track not present in AccurateRip database
Copy OK

Track 18

Filename D:\EAC Rips\The Art of Fugue, Violin Transcriptions, Fantasias (Richard Troeger; Bach on Clavichord, Vol. 4) - FLAC\Disc 2\18 - Fantasia in A Minor, BWV 922.wav

Pre-gap length 0:00:04.00

Peak level 85.3 %
Extraction speed 4.4 X
Track quality 100.0 %
Test CRC 3925053E
Copy CRC 3925053E
Track not present in AccurateRip database
Copy OK


None of the tracks are present in the AccurateRip database

No errors occurred

End of status report

==== Log checksum 28096037905FE91EF6AEB4EBE270963897DB987CFA45DCC9D37D715D8F190797 ====

[CUETools log; Date: 04.05.2017 14:08:54; Version: 2.1.5]
[CTDB TOCID: WlJfEXpIZ7qj792WuNUdmG0jwBs-] found.
Track | CTDB Status
1 | (2/2) Accurately ripped
2 | (2/2) Accurately ripped
3 | (2/2) Accurately ripped
4 | (2/2) Accurately ripped
5 | (2/2) Accurately ripped
6 | (2/2) Accurately ripped
7 | (2/2) Accurately ripped
8 | (2/2) Accurately ripped
9 | (2/2) Accurately ripped
10 | (2/2) Accurately ripped
11 | (2/2) Accurately ripped
12 | (2/2) Accurately ripped
13 | (2/2) Accurately ripped
14 | (2/2) Accurately ripped
15 | (2/2) Accurately ripped
16 | (2/2) Accurately ripped
17 | (2/2) Accurately ripped
18 | (2/2) Accurately ripped
[AccurateRip ID: 002f6d46-0278ee14-0310c612] found.
Track [ CRC | V2 ] Status
01 [b7b7601b|cf3912cb] (0+1/1) Accurately ripped
02 [ccb5b920|f6f1a5c6] (0+1/1) Accurately ripped
03 [21675e7c|25a99bc5] (0+1/1) Accurately ripped
04 [55596947|5768ca92] (0+1/1) Accurately ripped
05 [34f7082a|c899266f] (0+1/1) Accurately ripped
06 [8df05619|5dcdd747] (0+1/1) Accurately ripped
07 [6f17181f|59fcbf38] (0+1/1) Accurately ripped
08 [8fd626d2|e07ee2a8] (0+1/1) Accurately ripped
09 [0bea7dcf|354a3d91] (0+1/1) Accurately ripped
10 [705a7b5a|acbdf95e] (0+1/1) Accurately ripped
11 [4f3ecde5|157dce94] (0+1/1) Accurately ripped
12 [1f2e4379|7d072161] (0+1/1) Accurately ripped
13 [09a684b1|246b7fe9] (0+1/1) Accurately ripped
14 [be2b2bde|d4b2dbd8] (0+1/1) Accurately ripped
15 [3f5824c5|e42fdea0] (0+1/1) Accurately ripped
16 [e0f82729|e5a13835] (0+1/1) Accurately ripped
17 [0a1a0f0c|c1d441c3] (0+1/1) Accurately ripped
18 [ab1661d2|7187c285] (0+1/1) Accurately ripped

Track Peak [ CRC32 ] [W/O NULL] [ LOG ]
– 93,7 [B54EC8F4] [F4C67EFD]
01 64,3 [73356378] [468947B5] CRC32
02 57,4 [41142FDB] [880EAFBB] CRC32
03 63,6 [CD07314D] [751A9110] CRC32
04 63,9 [CC04B041] [A093C921] CRC32
05 88,3 [55AE6B66] [645E14EB] CRC32
06 86,9 [4C366662] [487A07B2] CRC32
07 69,3 [9EE87A39] [467BD90E] CRC32
08 81,1 [07BF7B80] [F4F99749] CRC32
09 93,7 [2312973E] [6FB896F3] CRC32
10 45,4 [FEA673F1] [EDAC61F8] CRC32
11 56,9 [EDE1CC21] [5F85E58A] CRC32

Performers:
Richard Troeger, clavichord

Richard Troeger - J.S. Bach: The Art of Fugue, Violin Transcriptions, Fantasias (2005)

Thanks to the Original ripper (unknown)!

Download: