Subcategories

Richard Page - Shelter Me (1996)

Posted By: hill0
Richard Page - Shelter Me (1996)

Richard Page - Shelter Me (1996)
EAC Rip | FLAC (tracks & cue & log) | 301 MB | MP3 CBR 320 kbps | 108 MB | Scans (JPG) 53 MB | 47:24
Genre: Pop Rock / Classic Rock | Country: USA | Label: Blue Thumb Records | BTD-7006

Richard Page, is thelead singer and bassist in 1980s US band Mr. Mister, and is also now a songwriter and solo artist. His first major band, Pages, was formed with his childhood friend from Phoenix, Arizona, Steve George after he moved to Los Angeles from San Diego in the late 1970s. After producing three "Pages" albums, Page and George formed Mr. Mister along with Steve Farris and Pat Mastelotto.
As lead vocalist for Mr. Mister, Page scored two consecutive Hot 100 #1's with the singles "Broken Wings" and "Kyrie". Prior to Mr. Mister's breakthrough 1985 #1 album, Welcome to the Real World, he turned down the opportunity to be lead singer with the groups Chicago and Toto. Mr. Mister would also release three albums before breaking up on 25 September 1990. A fourth Mr. Mister album, Pull was recorded in 1989, but ultimately never released (BMG Japan cancelled plans to release the album in 2001). However, in December 2008 Richard Page told the internet radio station 957StarFM about plans to release Pull on his new website: "I'm in the process of getting it back from the record company and publish it on the website.
Richard Page - Shelter Me (1996)

Subsequently he was a member of Third Matinee with Patrick Leonard, before he released his first solo album to date: Shelter Me from the mid 1990s, featuring the singles "The Best Thing" and "My Oxygen", a remake of Nik Kershaw's hit. In 1997, he turned down an offer from Leonard to record a second Third Matinee album. Based on a recommendation by his friend, songwriter Richard Marx, Ringo Starr approached Richard to join his 11th All-Starr Band and in the summer of 2010 they embarked on a 32 date US tour. Simultaneously, Richard released his second solo album "Peculiar Life" on his own independent "Little Dume" label.
Richard Page - Shelter Me (1996)




Tracklist

01- The Best Thing [04:35]
02- My Oxygen [04:13]
03- Even The Pain [05:50]
04- Shelter Me [05:23]
05- Let Me Down Easy [03:26]
06- A Simple Life [04:05]
07- Dependence [05:25]
08- Just To Love You [03:57]
09- If All Else Fails [05:38]
10- Heaven Is 10 Zillion Light Years Away [04:48]

Exact Audio Copy V0.99 prebeta 4 from 23. January 2008

EAC extraction logfile from 10. September 2010, 13:56

Richard Page / Shelter Me

Used drive : JLMS XJ-HD166S Adapter: 1 ID: 0

Read mode : Secure
Utilize accurate stream : Yes
Defeat audio cache : Yes
Make use of C2 pointers : No

Read offset correction : 12
Overread into Lead-In and Lead-Out : No
Fill up missing offset samples with silence : Yes
Delete leading and trailing silent blocks : No
Null samples used in CRC calculations : Yes
Used interface : Native Win32 interface for Win NT & 2000
Gap handling : Appended to previous track

Used output format : User Defined Encoder
Selected bitrate : 768 kBit/s
Quality : High
Add ID3 tag : No
Command line compressor : C:\Program Files\FLAC\flac.exe
Additional command line options : -8 -V -T "ARTIST=%a" -T "TITLE=%t" -T "ALBUM=%g" -T "DATE=%y" -T "TRACKNUMBER=%n" -T "GENRE=%m" -T "COMMENT=EAC FLAC -8" %s


TOC of the extracted CD

Track | Start | Length | Start sector | End sector
––––––––––––––––––––––––––––-
1 | 0:00.00 | 4:35.43 | 0 | 20667
2 | 4:35.43 | 4:13.22 | 20668 | 39664
3 | 8:48.65 | 5:50.63 | 39665 | 65977
4 | 14:39.53 | 5:23.42 | 65978 | 90244
5 | 20:03.20 | 3:26.58 | 90245 | 105752
6 | 23:30.03 | 4:05.00 | 105753 | 124127
7 | 27:35.03 | 5:25.45 | 124128 | 148547
8 | 33:00.48 | 3:57.52 | 148548 | 166374
9 | 36:58.25 | 5:38.45 | 166375 | 191769
10 | 42:36.70 | 4:48.30 | 191770 | 213399


Track 1

Filename C:\Torrent\Richard Page - Shelter Me (1996) [FLAC]\01 - The Best Thing.wav

Pre-gap length 0:00:02.00

Peak level 100.0 %
Track quality 100.0 %
Test CRC C1812283
Copy CRC C1812283
Accurately ripped (confidence 4) [71DA4AF9]
Copy OK

Track 2

Filename C:\Torrent\Richard Page - Shelter Me (1996) [FLAC]\02 - My Oxygen.wav

Peak level 100.0 %
Track quality 100.0 %
Test CRC 3CA0444D
Copy CRC 3CA0444D
Accurately ripped (confidence 4) [1753194B]
Copy OK

Track 3

Filename C:\Torrent\Richard Page - Shelter Me (1996) [FLAC]\03 - Even The Pain.wav

Pre-gap length 0:00:00.06

Peak level 100.0 %
Track quality 100.0 %
Test CRC CF222CA7
Copy CRC CF222CA7
Accurately ripped (confidence 3) [52B64876]
Copy OK

Track 4

Filename C:\Torrent\Richard Page - Shelter Me (1996) [FLAC]\04 - Shelter Me.wav

Pre-gap length 0:00:00.24

Peak level 100.0 %
Track quality 100.0 %
Test CRC 049E1528
Copy CRC 049E1528
Accurately ripped (confidence 4) [996A6DCB]
Copy OK

Track 5

Filename C:\Torrent\Richard Page - Shelter Me (1996) [FLAC]\05 - Let Me Down Easy.wav

Pre-gap length 0:00:02.82

Peak level 87.8 %
Track quality 100.0 %
Test CRC 18755C7E
Copy CRC 18755C7E
Accurately ripped (confidence 4) [A6A94CF8]
Copy OK

Track 6

Filename C:\Torrent\Richard Page - Shelter Me (1996) [FLAC]\06 - A Simple Life.wav

Pre-gap length 0:00:00.80

Peak level 100.0 %
Track quality 100.0 %
Test CRC 4925BC0F
Copy CRC 4925BC0F
Accurately ripped (confidence 4) [C00968C4]
Copy OK

Track 7

Filename C:\Torrent\Richard Page - Shelter Me (1996) [FLAC]\07 - Dependence.wav

Pre-gap length 0:00:00.17

Peak level 100.0 %
Track quality 100.0 %
Test CRC 4977F73B
Copy CRC 4977F73B
Accurately ripped (confidence 4) [1730C1FF]
Copy OK

Track 8

Filename C:\Torrent\Richard Page - Shelter Me (1996) [FLAC]\08 - Just To Love You.wav

Pre-gap length 0:00:00.04

Peak level 100.0 %
Track quality 100.0 %
Test CRC BD5C12DE
Copy CRC BD5C12DE
Accurately ripped (confidence 4) [81495CFC]
Copy OK

Track 9

Filename C:\Torrent\Richard Page - Shelter Me (1996) [FLAC]\09 - If All Else Fails.wav

Peak level 100.0 %
Track quality 100.0 %
Test CRC BC924A09
Copy CRC BC924A09
Accurately ripped (confidence 4) [78BA34DC]
Copy OK

Track 10

Filename C:\Torrent\Richard Page - Shelter Me (1996) [FLAC]\10 - Heaven Is 10 Zillion Light Years Away.wav

Pre-gap length 0:00:00.16

Peak level 100.0 %
Track quality 100.0 %
Test CRC 962E2D47
Copy CRC 962E2D47
Accurately ripped (confidence 3) [CC1CDDD6]
Copy OK


All tracks accurately ripped

No errors occurred

End of status report

[CUETools log; Date: 18.10.2016 9:48:56; Version: 2.1.5]
[CTDB TOCID: uMruvYHpjCp8zTMITkl1mop0Ys4-] found.
Track | CTDB Status
1 | (7/7) Accurately ripped
2 | (6/7) Accurately ripped
3 | (6/7) Accurately ripped
4 | (7/7) Accurately ripped
5 | (7/7) Accurately ripped
6 | (7/7) Accurately ripped
7 | (7/7) Accurately ripped
8 | (7/7) Accurately ripped
9 | (6/7) Accurately ripped, or (1/7) differs in 28219 samples @02:14:35-02:14:59
10 | (7/7) Accurately ripped
[AccurateRip ID: 0011ccc2-008e5c4e-7c0b1d0a] found.
Track [ CRC | V2 ] Status
01 [71da4af9|9a1c64a7] (04+07/11) Accurately ripped
02 [1753194b|0230f680] (04+07/11) Accurately ripped
03 [52b64876|455dd795] (04+07/11) Accurately ripped
04 [996a6dcb|d955de6b] (04+07/11) Accurately ripped
05 [a6a94cf8|d344cb37] (04+07/11) Accurately ripped
06 [c00968c4|e50c9ea8] (04+07/11) Accurately ripped
07 [1730c1ff|af5c7f84] (04+07/11) Accurately ripped
08 [81495cfc|2065bece] (04+07/11) Accurately ripped
09 [78ba34dc|3e36ddfc] (04+06/10) Accurately ripped
10 [cc1cddd6|ae6276d0] (04+07/11) Accurately ripped

Track Peak [ CRC32 ] [W/O NULL] [ LOG ]
– 100,0 [39F14BD1] [3EF162ED]
01 100,0 [C1812283] [B262017B] CRC32
02 100,0 [3CA0444D] [415B155A] CRC32
03 100,0 [CF222CA7] [3D34DE90] CRC32
04 100,0 [049E1528] [B14C8527] CRC32
05 87,8 [18755C7E] [5E02EF0D] CRC32
06 100,0 [4925BC0F] [B5D85A70] CRC32
07 100,0 [4977F73B] [87BB0130] CRC32
08 100,0 [BD5C12DE] [6085F3ED] CRC32
09 100,0 [BC924A09] [628C3867] CRC32
10 100,0 [962E2D47] [B8542BB7] CRC32


Personnel

Jimmy Johnson - bass
Michael Thompson - acoustic & electric guitars
Richard Page - vocals, acoustic guitar, acoustic & electric piano, keyboards
Jerry Marotta - ocarina, drums
Denny Fongheiser - drums
Kim Bullard - Wurlitzer piano, Hammond B-3 organ, keyboards

Richard Page - Shelter Me (1996)

All thanks goes to the original releaser
=====