Subcategories
Tags
Language
Tags

Rick Astley - 50 (2016)

Posted By: popsakov
Rick Astley - 50 (2016)

Rick Astley - 50 (2016)
EAC Rip | FLAC (Img) + Cue + Log ~ 311 Mb | MP3 CBR320 ~ 109 Mb
Covers Included | 00:44:37 | RAR 5% Recovery
Pop, Dance-Pop, Blue-Eyed Soul | BMG #538203812

2016 album from the Brit Award-winner and Grammy-nominated singer, songwriter, and producer. Pop legend Rick Astley showcases a more soulful sound and gospel influences on 50, marking his first studio release in almost a decade.

Brit Award-winner and Grammy-nominated singer, songwriter, and producer; music legend Rick Astley has left an indelible mark on pop-culture since his emergence into the limelight nearly thirty years ago. He has sold over 40 million records; had the UK's biggest selling single of 1987; is the first male solo artist to see his first eight singles reach the UK Top Ten; and in 2002, saw his "Greatest Hits" compilation album go gold.

On his 7th album - and first studio record released in over a decade - 50 (BMG), Astley returns to his musical roots with mighty force. He plays every instrument on the album and penned each track. His key influences and complex understanding of different musical genres are evident in his songwriting, which draws from his life and inspirations. At times it's reflective and vulnerable, at others it's uplifting and progressive, but his distinctive, soulful voice remains familiar, enriched by the last decade of increasing time spent touring. Focus tracks on the new album include "Keep Singing", "I Like The Sun", "Angels On My Side" and "This Old House". Astley's new album will be released on June 10th, 2016, and he launches a sold-out tour across the UK at the end of March.

***************

Rick Astley - 50 (2016)

Track List:

01. Keep Singing [03:59]
02. Angels On My Side [03:36]
03. Wish Away [03:28]
04. This Old House [04:31]
05. Pieces [03:59]
06. God Says [03:16]
07. I Like The Sun [03:41]
08. Somebody Loves Me [03:22]
09. Let It Rain [03:53]
10. Pray With Me [03:40]
11. Coming Home Tonight [03:29]
12. Let It Be Tonight [03:49]

Exact Audio Copy V1.1 from 23. June 2015

EAC extraction logfile from 9. June 2016, 20:24

Rick Astley / 50

Used drive : HL-DT-STDVDRAM GH24NSD1 Adapter: 0 ID: 0

Read mode : Secure
Utilize accurate stream : Yes
Defeat audio cache : Yes
Make use of C2 pointers : No

Read offset correction : 6
Overread into Lead-In and Lead-Out : No
Fill up missing offset samples with silence : Yes
Delete leading and trailing silent blocks : No
Null samples used in CRC calculations : Yes
Used interface : Installed external ASPI interface

Used output format : Internal WAV Routines
Sample format : 44.100 Hz; 16 Bit; Stereo


TOC of the extracted CD

Track | Start | Length | Start sector | End sector
––––––––––––––––––––––––––––-
1 | 0:00.00 | 3:58.36 | 0 | 17885
2 | 3:58.36 | 3:35.52 | 17886 | 34062
3 | 7:34.13 | 3:27.16 | 34063 | 49603
4 | 11:01.29 | 4:30.60 | 49604 | 69913
5 | 15:32.14 | 3:58.23 | 69914 | 87786
6 | 19:30.37 | 3:15.10 | 87787 | 102421
7 | 22:45.47 | 3:40.74 | 102422 | 118995
8 | 26:26.46 | 3:22.00 | 118996 | 134145
9 | 29:48.46 | 3:52.08 | 134146 | 151553
10 | 33:40.54 | 3:39.21 | 151554 | 167999
11 | 37:20.00 | 3:28.01 | 168000 | 183600
12 | 40:48.01 | 3:48.13 | 183601 | 200713


Range status and errors

Selected range

Filename H:\SPOTNET\Rick Astley - 50 (EAC)\Rick Astley - 50.wav

Peak level 99.8 %
Extraction speed 7.0 X
Range quality 100.0 %
Test CRC D6DE1138
Copy CRC D6DE1138
Copy OK

No errors occurred


AccurateRip summary

Track 1 not present in database
Track 2 not present in database
Track 3 not present in database
Track 4 not present in database
Track 5 not present in database
Track 6 not present in database
Track 7 not present in database
Track 8 not present in database
Track 9 not present in database
Track 10 not present in database
Track 11 not present in database
Track 12 not present in database

None of the tracks are present in the AccurateRip database

End of status report

[CUETools log; Date: 08.09.2018 11:50:19; Version: 2.1.6]
[CTDB TOCID: ht1JJfP33VAsVr3zrYl4WUOPL0E-] found.
Track | CTDB Status
1 | (226/226) Accurately ripped
2 | (226/226) Accurately ripped
3 | (226/226) Accurately ripped
4 | (226/226) Accurately ripped
5 | (225/226) Accurately ripped
6 | (226/226) Accurately ripped
7 | (226/226) Accurately ripped
8 | (226/226) Accurately ripped
9 | (226/226) Accurately ripped
10 | (226/226) Accurately ripped
11 | (226/226) Accurately ripped
12 | (226/226) Accurately ripped
[AccurateRip ID: 00141f1f-00bb25ec-940a740c] found.
Track [ CRC | V2 ] Status
01 [31cc34de|12f64f7a] (04+64/68) Accurately ripped
02 [bd25f255|7398c9ce] (04+63/67) Accurately ripped
03 [99a4a3d0|6ae730c1] (04+63/67) Accurately ripped
04 [e4cfe77e|5362fd0f] (04+64/68) Accurately ripped
05 [5b725205|d0841aea] (04+63/67) Accurately ripped
06 [c6db9adb|e3261376] (04+63/67) Accurately ripped
07 [7ff54323|21560dca] (04+63/67) Accurately ripped
08 [7c16eeb0|b1fce2bf] (04+63/67) Accurately ripped
09 [e755173e|1eb8d618] (04+63/67) Accurately ripped
10 [b0b1d427|f1fb2bad] (04+63/67) Accurately ripped
11 [a7bf916a|5845111d] (04+63/67) Accurately ripped
12 [7fa5911a|42f3580f] (04+63/67) Accurately ripped

Track Peak [ CRC32 ] [W/O NULL] [ LOG ]
– 99,8 [D6DE1138] [3CEAA677] CRC32
01 99,8 [32DC2E9E] [7E5903FD]
02 99,8 [B94412B3] [37528CB6]
03 99,8 [B06515C1] [8B9A0202]
04 99,8 [DEB77415] [7180B44F]
05 99,8 [37E2C1E4] [7F23636B]
06 99,8 [B7F75F5E] [2EF8032F]
07 99,8 [CE2C8C75] [3344EA39]
08 99,8 [8683E2A5] [F31E0074]
09 99,8 [E395BEF2] [7CA7E998]
10 99,8 [5F3C07F5] [4947A8DD]
11 99,8 [00AB37FB] [8D35DDFB]
12 99,8 [A2AD1583] [1BA9354E]

Rick Astley - 50 (2016)


All thanks go to the original ripper(s) …

Rick Astley in my Blog

DOWNLOAD: