Subcategories

Rickie Lee Jones - Pop Pop (1991)

Posted By: mfrwiz
Rickie Lee Jones - Pop Pop  (1991)

Rickie Lee Jones - Pop Pop (1991)
Loseless (Flac Image + Cue + Log): 204 Mb | Mp3 (320 Kbps): 115 Mb | EAC Rip | Covers | File-Host: RS.com
Audio CD (September 10, 1991) - Label: Geffen Records - ASIN: B000000OSL - Rock, Pop/Rock

Review: An eclectic collection of covers from one of jazz-pop's most eclectic performers, Pop Pop travels from the stage to tin pan alley through Jimi Hendrix's sky. Rickie Lee Jones cradles each of these songs with her pleading, gentle voice, backing them with subtle orchestration courtesy of notable performers including Robben Ford, Joe Henderson, and Charlie Haden. Her attention to love songs of the '40s and '50s demonstrates almost a longing for simpler times and simpler love, and these qualities are echoed in the treatment of songs like "My One and Only Love" and "I'll Be Seeing You." Her subdued take on the psychedelic Jimi Hendrix screamer "Up From the Skies" is slowed to a bluesy acoustic number, while the bratty refrain from Peter Pan's "I Won't Grow Up" seems blushingly sweet.
While fans of the folk styles she demonstrated with her 1979 self-titled debut might not see as much merit in these soulful jazz interpretations, it still demonstrates Jones' ability to evolve and her unwillingness to be pinned down into one category. ~ Zac Johnson, All Music Guide

Track Listing

01. My One And Only Love (5:55 )
02. Spring Can Really Hang You Up The Most (3:57)
03. Hi-Lili Hi-Lo (3:38)
04. Up From The Skies (4:32)
05. Second Time Around (4:51)
06. Dat Dere (4:10)
07. I'll Be Seeing You (3:16)
08. Bye Bye Blackbird (2:23)
09. The Ballad Of The Sad Young Men (4:22)
10. I Won't Grow Up (3:12)
11. Love Junkyard (4:11)
12. Comin' Back To Me (5:35)

Producer: Rickie Lee Jones; David Was
Personnel: Rickie Lee Jones - vocals, guitar, piano
Also: Robben Ford, Charlie Haden
Loseless
http://rapidshare.com/files/209125098/RLJPP.part1.rar

http://rapidshare.com/files/209125099/RLJPP.part2.rar

http://rapidshare.com/files/209123308/RLJPP.part3.rar

Mp3
http://rapidshare.com/files/209126398/RLJPP_2.part1.rar

http://rapidshare.com/files/209123442/RLJPP_2.part2.rar
Pass: guaza


Have a nice day.

Exact Audio Copy V0.99 prebeta 4 from 23. January 2008

EAC extraction logfile from 14. March 2009, 13:27

Rickie Lee Jones / Pop Pop

Used drive : TSSTcorpCDDVDW SE-S204N Adapter: 8 ID: 0

Read mode : Burst

Read offset correction : 6
Overread into Lead-In and Lead-Out : No
Fill up missing offset samples with silence : Yes
Delete leading and trailing silent blocks : No
Null samples used in CRC calculations : Yes
Used interface : Native Win32 interface for Win NT & 2000

Used output format : User Defined Encoder
Selected bitrate : 128 kBit/s
Quality : High
Add ID3 tag : No
Command line compressor : C:\Programmi\FLAC\flac.exe
Additional command line options : -5 -V -T "ARTIST=%a" -T "TITLE=%t" -T "ALBUM=%g" -T "DATE=%y" -T "TRACKNUMBER=%n" -T "GENRE=%m" -T "COMMENT=%e" %s -o %d


TOC of the extracted CD

Track | Start | Length | Start sector | End sector
––––––––––––––––––––––––––––-
1 | 0:00.00 | 5:56.45 | 0 | 26744
2 | 5:56.45 | 3:57.72 | 26745 | 44591
3 | 9:54.42 | 3:38.53 | 44592 | 60994
4 | 13:33.20 | 4:32.60 | 60995 | 81454
5 | 18:06.05 | 4:52.05 | 81455 | 103359
6 | 22:58.10 | 4:10.35 | 103360 | 122144
7 | 27:08.45 | 3:16.25 | 122145 | 136869
8 | 30:24.70 | 2:23.25 | 136870 | 147619
9 | 32:48.20 | 4:22.57 | 147620 | 167326
10 | 37:11.02 | 3:12.55 | 167327 | 181781
11 | 40:23.57 | 4:11.05 | 181782 | 200611
12 | 44:34.62 | 5:35.10 | 200612 | 225746


Range status and errors

Selected range

Filename H:\Da Masterizzare o Uploadare\-=AVAX\-=14-03-09\Rickie Lee Jones - Pop Pop (1991)\RLJPP\Rickie Lee Jones - Pop Pop (1991) @ Fllac\Rickie Lee Jones - Pop Pop.wav

Timing problem 0:38:05

Peak level 100.0 %
Copy CRC 53FBE88B
Copy finished

No errors occurred


AccurateRip summary

Track 1 accurately ripped (confidence 12) [136BF539]
Track 2 accurately ripped (confidence 12) [60222F96]
Track 3 accurately ripped (confidence 12) [6C0612EB]
Track 4 accurately ripped (confidence 12) [9643105A]
Track 5 accurately ripped (confidence 12) [2D107CCF]
Track 6 accurately ripped (confidence 13) [8682C3EC]
Track 7 accurately ripped (confidence 12) [4C1309A3]
Track 8 accurately ripped (confidence 12) [DC1CDDB3]
Track 9 accurately ripped (confidence 12) [DA4896BE]
Track 10 accurately ripped (confidence 13) [B8812F28]
Track 11 accurately ripped (confidence 13) [1D8762C8]
Track 12 accurately ripped (confidence 13) [83BED511]

All tracks accurately ripped

End of status report