Tags
Language
Tags

Riff Raff - Outside Looking In (Their Unreleased Debut Album) [Recorded 1972] (1999) (Re-up)

Posted By: gribovar
Riff Raff - Outside Looking In (Their Unreleased Debut Album) [Recorded 1972] (1999) (Re-up)

Riff Raff - Outside Looking In (Their Unreleased Debut Album) [Recorded 1972] (1999)
EAC Rip | FLAC (tracks+.cue+log) - 364 MB | MP3 CBR 320 kbps (LAME 3.93) - 150 MB | Covers (3 MB) included
Genre: Progressive/Jazz Rock | RAR 3% Rec. | Label: Disconforme (DISC 1951 CD)

Riff Raff, co-led by Brit keyboard boss Tommy Eyre and bassist Roger Sutton, grew out of the Mark-Almond Band. Before meeting Jon Mark, Eyre had played with Joe Cocker's Grease Band. The pair decided to form solo projects while with Mark-Almond, and recruited vocalist Alan Marshall, drummer Kenny Slade, and guitarist Martin Ball. This lineup was never formalized, though they had recorded demos and even finished some tracks for a debut album for Richard Branson. The amalgam of jazz, rock, and soul was intoxicating and was a fine emotional alternative to the Canterbury bands, which were much more concerned with complexity than groove. The music included here features all seven of those original finished tracks as well as the first four recordings of the final band lineup after Marshall and Slade left.

Tracklist:
01. Outside Looking In
02. The Blind Man
03. Bach B. Minor Prelude
04. Feeling Paranoic
05. Buthelezi
06. So You Want To Be Free
07. Changes
08. Child Of The Summer (Bonus track)
09. For Every Dog (Bonus track)
10. Morning (Bonus track)
11. The Garden (Bonus track)

Total time: 01:02:31

Exact Audio Copy V0.99 prebeta 4 from 23. January 2008

EAC extraction logfile from 25. April 2008, 13:14

Riff Raff / Outside Looking In

Used drive : Optiarc DVD RW AD-7170A Adapter: 1 ID: 0

Read mode : Secure
Utilize accurate stream : Yes
Defeat audio cache : Yes
Make use of C2 pointers : No

Read offset correction : 48
Overread into Lead-In and Lead-Out : No
Fill up missing offset samples with silence : Yes
Delete leading and trailing silent blocks : No
Null samples used in CRC calculations : Yes
Used interface : Installed external ASPI interface
Gap handling : Appended to previous track

Used output format : Internal WAV Routines
Sample format : 44.100 Hz; 16 Bit; Stereo


TOC of the extracted CD

Track | Start | Length | Start sector | End sector
––––––––––––––––––––––––––––-
1 | 0:00.00 | 9:17.34 | 0 | 41808
2 | 9:17.34 | 8:18.07 | 41809 | 79165
3 | 17:35.41 | 2:58.08 | 79166 | 92523
4 | 20:33.49 | 0:43.15 | 92524 | 95763
5 | 21:16.64 | 3:42.45 | 95764 | 112458
6 | 24:59.34 | 10:56.39 | 112459 | 161697
7 | 35:55.73 | 3:25.48 | 161698 | 177120
8 | 39:21.46 | 6:02.52 | 177121 | 204322
9 | 45:24.23 | 4:08.13 | 204323 | 222935
10 | 49:32.36 | 5:59.23 | 222936 | 249883
11 | 55:31.59 | 6:59.55 | 249884 | 281363


Track 1

Filename C:\Riff Raff - Outside Looking In (1999) [FLAC] {Disconforme}\01. Outside Looking In.wav

Pre-gap length 0:00:02.00

Peak level 99.4 %
Track quality 99.8 %
Test CRC 5A481410
Copy CRC 5A481410
Track not present in AccurateRip database
Copy OK

Track 2

Filename C:\Riff Raff - Outside Looking In (1999) [FLAC] {Disconforme}\02. The Blind Man.wav

Peak level 99.5 %
Track quality 99.9 %
Test CRC 064701D9
Copy CRC 064701D9
Track not present in AccurateRip database
Copy OK

Track 3

Filename C:\Riff Raff - Outside Looking In (1999) [FLAC] {Disconforme}\03. Bach B. Minor Prelude.wav

Peak level 99.1 %
Track quality 100.0 %
Test CRC 367B55BE
Copy CRC 367B55BE
Track not present in AccurateRip database
Copy OK

Track 4

Filename C:\Riff Raff - Outside Looking In (1999) [FLAC] {Disconforme}\04. Feeling Paranoic.wav

Peak level 100.0 %
Track quality 100.0 %
Test CRC 5668C8C3
Copy CRC 5668C8C3
Track not present in AccurateRip database
Copy OK

Track 5

Filename C:\Riff Raff - Outside Looking In (1999) [FLAC] {Disconforme}\05. Buthelezi.wav

Peak level 99.3 %
Track quality 100.0 %
Test CRC 71ACC4D3
Copy CRC 71ACC4D3
Track not present in AccurateRip database
Copy OK

Track 6

Filename C:\Riff Raff - Outside Looking In (1999) [FLAC] {Disconforme}\06. So You Want to Be Free.wav

Peak level 99.1 %
Track quality 100.0 %
Test CRC 3B8114C0
Copy CRC 3B8114C0
Track not present in AccurateRip database
Copy OK

Track 7

Filename C:\Riff Raff - Outside Looking In (1999) [FLAC] {Disconforme}\07. Changes.wav

Peak level 89.8 %
Track quality 100.0 %
Test CRC C700B78B
Copy CRC C700B78B
Track not present in AccurateRip database
Copy OK

Track 8

Filename C:\Riff Raff - Outside Looking In (1999) [FLAC] {Disconforme}\08. Child of the Summer.wav

Peak level 99.2 %
Track quality 100.0 %
Test CRC D83A9537
Copy CRC D83A9537
Track not present in AccurateRip database
Copy OK

Track 9

Filename C:\Riff Raff - Outside Looking In (1999) [FLAC] {Disconforme}\09. For every Dog.wav

Peak level 81.0 %
Track quality 100.0 %
Test CRC 6DA679B9
Copy CRC 6DA679B9
Track not present in AccurateRip database
Copy OK

Track 10

Filename C:\Riff Raff - Outside Looking In (1999) [FLAC] {Disconforme}\10. Morning.wav

Peak level 81.2 %
Track quality 99.9 %
Test CRC D678989E
Copy CRC D678989E
Track not present in AccurateRip database
Copy OK

Track 11

Filename C:\Riff Raff - Outside Looking In (1999) [FLAC] {Disconforme}\11. The Garden.wav

Peak level 81.1 %
Track quality 99.9 %
Test CRC B21FCA64
Copy CRC B21FCA64
Track not present in AccurateRip database
Copy OK


None of the tracks are present in the AccurateRip database

No errors occurred

End of status report

[CUETools log; Date: 14.07.2021 16:07:11; Version: 2.1.4]
[CTDB TOCID: 7WZM6fPMHmSwryCygSC4V4VIceE-] found.
Track | CTDB Status
1 | (8/8) Accurately ripped
2 | (8/8) Accurately ripped
3 | (8/8) Accurately ripped
4 | (8/8) Accurately ripped
5 | (8/8) Accurately ripped
6 | (8/8) Accurately ripped
7 | (8/8) Accurately ripped
8 | (8/8) Accurately ripped
9 | (8/8) Accurately ripped
10 | (8/8) Accurately ripped
11 | (8/8) Accurately ripped
[AccurateRip ID: 001a3b08-00de9478-960ea70b] found.
Track [ CRC | V2 ] Status
01 [756f643d|6b5f97bb] (3+0/6) Accurately ripped
02 [92d41a7c|1d2cf327] (3+0/6) Accurately ripped
03 [9c41cdb4|f85a5ec0] (3+0/6) Accurately ripped
04 [072250f7|4f609e68] (3+0/6) Accurately ripped
05 [3bd54f0b|1f596a4d] (3+0/6) Accurately ripped
06 [93bee907|b435dc2b] (3+0/6) Accurately ripped
07 [91f4d621|e71425ae] (3+0/6) Accurately ripped
08 [e1c06070|a7b3f296] (3+0/6) Accurately ripped
09 [6c96b1b0|12f47552] (3+0/6) Accurately ripped
10 [878b955b|e4e463bf] (3+0/6) Accurately ripped
11 [324ce58c|12a0fa25] (3+0/6) Accurately ripped
Offsetted by -30:
01 [db3b6207] (0/6) No match (V2 was not tested)
02 [816321e4] (0/6) No match (V2 was not tested)
03 [88879e48] (0/6) No match (V2 was not tested)
04 [784002b9] (0/6) No match (V2 was not tested)
05 [280c2cd1] (0/6) No match (V2 was not tested)
06 [c4d5c4d5] (0/6) No match (V2 was not tested)
07 [e05c65b7] (0/6) No match (V2 was not tested)
08 [cc0d6c7e] (0/6) No match (V2 was not tested)
09 [54e037c2] (0/6) No match (V2 was not tested)
10 [75c52919] (0/6) No match (V2 was not tested)
11 [53dc5928] (0/6) No match (V2 was not tested)

Track Peak [ CRC32 ] [W/O NULL] [ LOG ]
– 100,0 [837EA27D] [A3B28896]
01 99,4 [5A481410] [FB1C1572] CRC32
02 99,5 [064701D9] [7F9854BF] CRC32
03 99,1 [367B55BE] [DF73414D] CRC32
04 100,0 [5668C8C3] [64298197] CRC32
05 99,3 [71ACC4D3] [DD789282] CRC32
06 99,1 [3B8114C0] [939741C1] CRC32
07 89,8 [C700B78B] [0F493AC3] CRC32
08 99,2 [D83A9537] [07097ED9] CRC32
09 81,0 [6DA679B9] [91738423] CRC32
10 81,2 [D678989E] [DBB5A731] CRC32
11 81,1 [B21FCA64] [4A14EE5A] CRC32

Thanks to prOgger

See also:
Riff Raff - 2 Studio Albums (1973-1974) [Reissue 2016-2017]