Subcategories

Riff Raff - Riff Raff (1973) [Reissue 2016]

Posted By: gribovar
Riff Raff - Riff Raff (1973) [Reissue 2016]

Riff Raff - Riff Raff (1973) [Reissue 2016]
EAC Rip | FLAC (image+.cue+log) - 287 MB | MP3 CBR 320 kbps (LAME 3.93) - 103 MB | Covers - 33 MB
Genre: Progressive Rock | RAR 3% Rec. | Label: Big Pink Music (Big Pink 468)

British progressive rock band's folk and jazz oriented debut album little bit similar to Igginbottom's Wrench. Featuring Tommy Eyre on keyboard who has been actively involved with numerous bands including The Aynsley Dunbar Retaliation, Juicy Lucy and The Sensational Alex Harvey Band.

Tracklist:
01. Your World
02. For Every Dog
03. Little Miss Drag
04. Dreaming
05. Times Lost
06. You Must Be Joking
07. La Même Chose

Total time: 43:53

Exact Audio Copy V1.1 from 23. June 2015

Отчёт EAC об извлечении, выполненном 16. января 2017, 15:30

Riff Raff / Riff Raff

Дисковод: ASUS DRW-24B3ST Adapter: 0 ID: 0

Режим чтения : Достоверность
Использование точного потока : Да
Отключение кэша аудио : Да
Использование указателей C2 : Нет

Коррекция смещения при чтении : 6
Способность читать области Lead-in и Lead-out : Нет
Заполнение пропущенных сэмплов тишиной : Да
Удаление блоков с тишиной в начале и конце : Нет
При вычислениях CRC использовались нулевые сэмплы : Да
Интерфейс : Установленный внешний ASPI-интерфейс

Выходной формат : Пользовательский кодировщик
Выбранный битрейт : 1024 kBit/s
Качество : Высокий
Добавление ID3-тега : Нет
Утилита сжатия : C:\Program Files (x86)\Exact Audio Copy\FLAC\FLAC.EXE
Дополнительные параметры : -6 -V -T "ARTIST=%artist%" -T "TITLE=%title%" -T "ALBUM=%albumtitle%" -T "DATE=%year%" -T "TRACKNUMBER=%tracknr%" -T "GENRE=%genre%" -T "COMMENT=%comment%" -T "BAND=%albuminterpret%" -T "ALBUMARTIST=%albuminterpret%" -T "COMPOSER=%composer%" %haslyrics%–tag-from-file=LYRICS="%lyricsfile%"%haslyrics% -T "DISCNUMBER=%cdnumber%" -T "TOTALDISCS=%totalcds%" -T "TOTALTRACKS=%numtracks%" %hascover%–picture="%coverfile%"%hascover% %source% -o %dest%


TOC извлечённого CD

Трек | Старт | Длительность | Начальный сектор | Конечный сектор
––––––––––––––––––––––––––––––––––-
1 | 0:00.00 | 7:46.62 | 0 | 35011
2 | 7:46.62 | 3:51.69 | 35012 | 52405
3 | 11:38.56 | 3:18.26 | 52406 | 67281
4 | 14:57.07 | 4:37.50 | 67282 | 88106
5 | 19:34.57 | 4:19.01 | 88107 | 107532
6 | 23:53.58 | 7:37.10 | 107533 | 141817
7 | 31:30.68 | 12:21.62 | 141818 | 197454


Характеристики диапазона извлечения и сообщения об ошибках

Выбранный диапазон

Имя файла C:\Torrents - my\Riff Raff - 1973 - Riff Raff\Riff Raff - Riff Raff.wav

Пиковый уровень 100.0 %
Скорость извлечения 7.9 X
Качество диапазона 99.9 %
CRC теста BF0B9724
CRC копии BF0B9724
Копирование… OK

Ошибок не произошло


AccurateRip: сводка

Трек 1 отсутствует в базе данных
Трек 2 отсутствует в базе данных
Трек 3 отсутствует в базе данных
Трек 4 отсутствует в базе данных
Трек 5 отсутствует в базе данных
Трек 6 отсутствует в базе данных
Трек 7 отсутствует в базе данных

Ни одного трека нет в базе AccurateRip

Конец отчёта

==== Контрольная сумма отчёта A69499DF0E90FDB49B7D73EB5D21960CAE0D0E613B7F3426522F517EBF5C70BC ====

[CUETools log; Date: 07.02.2017 15:15:37; Version: 2.1.4]
[CTDB TOCID: W8aJXQcu4UfL4AzrZzqcvC4VwWw-] disk not present in database.
[AccurateRip ID: 000a85cd-003f6466-650a4807] disk not present in database.

Track Peak [ CRC32 ] [W/O NULL] [ LOG ]
– 100,0 [BF0B9724] [2EB42DBC] CRC32
01 98,8 [B55776B9] [6E371E72]
02 98,8 [EC4BA77E] [D7666B3C]
03 98,8 [76344B1E] [6DC1BB61]
04 98,8 [F7F21301] [AB729AE9]
05 100,0 [D9840F1C] [4027E664]
06 98,8 [09F6BD70] [E700B479]
07 98,8 [72C5BFFB] [8DE2B17B]

Thanks to Копысов