Subcategories

Rinaldo Alessandrini, Fabio Biondi - Pergolesi, A.Scarlatti, Leo: Stabat Mater, Salve Regina, Messa di S. Emidio (2010)

Posted By: ArlegZ
Rinaldo Alessandrini, Fabio Biondi - Pergolesi, A.Scarlatti, Leo: Stabat Mater, Salve Regina, Messa di S. Emidio (2010)

Rinaldo Alessandrini, Fabio Biondi - Pergolesi: Stabat Mater, Salve Regina, Messa di S. Emidio; A.Scarlatti: Stabat Mater, Messa per il Santissimo Natale; Leo: Salve Regina (2010)
EAC | FLAC | Image (Cue & Log) ~ 884 Mb | Total time: 79:39+58:39+58:00 | Scans included
Classical | Label: Naïve | # OP 30507 | Recorded: 1995, 1998, 2008

The legendary Italian composer Giovanni Battista Pergolesi was born 300 years ago, in 1710. To mark the anniversary, Naïve re-issues three renowned recordings to feature his choral music, in a specially-priced box set, headed by the Gramophone award-winning version of his Stabat Mater by Rinaldo Alessandrini and Concerto Italiano, considered one of the best ever recorded.
The fact that Pergolesi died at only 26 years is only one reason why music lovers have always admired and been fascinated by him. His Stabat Mater is among the most popular sacred works ever composed, at its heart a universally-felt pain and emotion. Of this recording Gramophone remarked: “Alessandrini lays emphasis on the relationship between words and music, and he has come up with some ideas which probe deeper than many, in his aim to bring the piece to life with expressive fervour”.
This 3-CD set gathers together this winning disc with Fabio Biondi’s recording of the Salve Regina and Alessandrini’s of Messa di San Emidio. This latter work is paired on its disc with another mass that was premiered in Rome, Scarlatti’s Messa per il santissimo natale. An Editor’s Choice in Gramophone, the magazine said of the 2008 recording: “The performances are terrific. The Pergolesi especially is shattering at times, while the Scarlatti is gorgeous. Even by Alessandrini's high standards this is smashing”.
Also featured in the bargain “3 for the price of 1” set are other short pieces by Pergolesi, plus more by Alessandro Scarlatti and Leonardo Leo.

Performed:
Gemma Bertagnolli (cd1), Barbara Schlick (cd2) - sopranos
Sara Mingardo (cd1) – contralto
Concerto Italiano, Rinaldo Alessandrini (cd1 & cd3)
Europa Galante, Fabio Biondi (cd2)

Track List:
CD1:
Giovanni Battista Pergolesi – Stabat Mater
01. I. Stabat Mater dolorosa
02. II. Cujus animam gementem
03. III. O quam tristis
04. IV. Quae moerebat et dolebat
05. V. Quis est homo
06. VI. Vidit suum dulcem natum
07. VII. Eia Mater
08. VIII. Fac ut ardeat cor meum
09. IX. Sancta Mater
10. X. Fac ut portem Christi mortem
11. XI. Inflammatus et accensus
12. XII. Quando corpus morietur
Alessandro Scarlatti – Stabat Mater
13. I. Stabat Mater dolorosa
14. II. Cujus animam gementem
15. III. O quam tristis
16. IV. Quae moerebat et dolebat
17. V. Quis est homo
18. VI. Quis non posset contristari
19. VII. Pro peccatis suae gentis
20. VIII. Vidit suum dulcem natum
21. IX. Pia Mater
22. X. Sancta Mater
23. XI. Fac ut ardeat cor meum
24. XII. Tui nati vulnerati
25. XIII. Juxta crucem
26. XIV. Virgo virginum praeclara
27. XV. Fac ut portem Christi mortem
28. XVI. Inflammatus et accensus
29. XVII. Fac me cruce custodiri
30. XVIII. Quando corpus morietur
CD2:
Giovanni Battista Pergolesi – Salve Regina in la minore
01. Largo
02. Allegro. Larghetto
03. Andante
04. Largo
Sonate in si bemolle maggiore
05. Presto
06. Adagio
07. Presto
Salve regina in do minore
08. Largo
09. Andante
10. Largo
11. Andante
12. Andante Amoroso
13. Largo Assai
Sonate in sol maggiore
14. Moderato
15. Adagio
16. Allegro
Leonardo Leo - Salve regina in fa maggiore
17. Largo
18. Allegro
19. Largo
20. Allegretto
21. Largo
CD3:
Giovanni Battista Pergolesi – Messa di S. Emidio
01. Kyrie eleison
02. Christe eleison
03. Kyrie eleison
04. Gloria in excelsis Deo
05. Laudamus te
06. Gratias agimus tibi
07. Domine Deus
08. Qui tollis peccata mundi
09. Qui tollis peccata mundi
10. Qui sedes ad dexteram Patris
11. Quoniam tu solus sanctus
12. Cum Sancto Spiriti
Alessandro Scarlatti – Messa per il Santissimo Natale
13. Kyrie
14. Gloria
15. Credo
16. Sanctus
17. Agnus Dei


Exact Audio Copy V1.3 from 2. September 2016

EAC extraction logfile from 10. April 2018, 17:44

Gemma Bertagnolli, Sara Mingardo, Rinaldo Alessandrini, Concerto Italiano / Pergolesi, Scarlatti - Stabat Mater

Used drive : HL-DT-STDVDRAM GH24NS95 Adapter: 1 ID: 0

Read mode : Secure
Utilize accurate stream : Yes
Defeat audio cache : Yes
Make use of C2 pointers : No

Read offset correction : 6
Overread into Lead-In and Lead-Out : No
Fill up missing offset samples with silence : Yes
Delete leading and trailing silent blocks : No
Null samples used in CRC calculations : Yes
Used interface : Native Win32 interface for Win NT & 2000

Used output format : User Defined Encoder
Selected bitrate : 128 kBit/s
Quality : High
Add ID3 tag : No
Command line compressor : C:\Program Files\Exact Audio Copy\Flac\flac.exe
Additional command line options : -V -8 -T "Date=%year%" -T "Genre=%genre%" %source%


TOC of the extracted CD

Track | Start | Length | Start sector | End sector
––––––––––––––––––––––––––––-
1 | 0:00.00 | 5:10.35 | 0 | 23284
2 | 5:10.35 | 2:21.02 | 23285 | 33861
3 | 7:31.37 | 2:09.05 | 33862 | 43541
4 | 9:40.42 | 1:38.73 | 43542 | 50964
5 | 11:19.40 | 3:09.15 | 50965 | 65154
6 | 14:28.55 | 3:04.65 | 65155 | 79019
7 | 17:33.45 | 2:05.15 | 79020 | 88409
8 | 19:38.60 | 1:56.69 | 88410 | 97178
9 | 21:35.54 | 5:07.11 | 97179 | 120214
10 | 26:42.65 | 4:52.02 | 120215 | 142116
11 | 31:34.67 | 1:39.18 | 142117 | 149559
12 | 33:14.10 | 5:04.72 | 149560 | 172431
13 | 38:19.07 | 3:01.63 | 172432 | 186069
14 | 41:20.70 | 2:02.20 | 186070 | 195239
15 | 43:23.15 | 2:48.07 | 195240 | 207846
16 | 46:11.22 | 3:27.23 | 207847 | 223394
17 | 49:38.45 | 1:37.50 | 223395 | 230719
18 | 51:16.20 | 1:55.60 | 230720 | 239404
19 | 53:12.05 | 2:32.67 | 239405 | 250871
20 | 55:44.72 | 1:37.68 | 250872 | 258214
21 | 57:22.65 | 2:30.30 | 258215 | 269494
22 | 59:53.20 | 2:40.70 | 269495 | 281564
23 | 62:34.15 | 2:00.20 | 281565 | 290584
24 | 64:34.35 | 3:57.45 | 290585 | 308404
25 | 68:32.05 | 1:55.57 | 308405 | 317086
26 | 70:27.62 | 1:26.48 | 317087 | 323584
27 | 71:54.35 | 1:37.22 | 323585 | 330881
28 | 73:31.57 | 1:57.53 | 330882 | 339709
29 | 75:29.35 | 0:59.45 | 339710 | 344179
30 | 76:29.05 | 3:08.40 | 344180 | 358319


Range status and errors

Selected range

Filename C:\Program Files\Exact Audio Copy\Flac\Pergolesi, Scarlatti - Stabat Mater.wav

Peak level 100.0 %
Extraction speed 8.4 X
Range quality 100.0 %
Test CRC F864728E
Copy CRC F864728E
Copy OK

No errors occurred

End of status report

==== Log checksum 5BD7C7686A56352AE20240313B5A5ECEBE28B0E3170543BE6891F7AA7B999478 ====


Exact Audio Copy V1.3 from 2. September 2016

EAC extraction logfile from 10. April 2018, 19:01

Barbara Schlick, Europa Galante, Fabio Biondi / Pergolesi, Leo - Salve Regina

Used drive : HL-DT-STDVDRAM GH24NS95 Adapter: 1 ID: 0

Read mode : Secure
Utilize accurate stream : Yes
Defeat audio cache : Yes
Make use of C2 pointers : No

Read offset correction : 6
Overread into Lead-In and Lead-Out : No
Fill up missing offset samples with silence : Yes
Delete leading and trailing silent blocks : No
Null samples used in CRC calculations : Yes
Used interface : Native Win32 interface for Win NT & 2000

Used output format : User Defined Encoder
Selected bitrate : 128 kBit/s
Quality : High
Add ID3 tag : No
Command line compressor : C:\Program Files\Exact Audio Copy\Flac\flac.exe
Additional command line options : -V -8 -T "Date=%year%" -T "Genre=%genre%" %source%


TOC of the extracted CD

Track | Start | Length | Start sector | End sector
––––––––––––––––––––––––––––-
1 | 0:00.32 | 3:21.00 | 32 | 15106
2 | 3:21.32 | 2:45.53 | 15107 | 27534
3 | 6:07.10 | 1:58.15 | 27535 | 36399
4 | 8:05.25 | 3:31.12 | 36400 | 52236
5 | 11:36.37 | 2:16.53 | 52237 | 62489
6 | 13:53.15 | 2:31.37 | 62490 | 73851
7 | 16:24.52 | 1:06.28 | 73852 | 78829
8 | 17:31.05 | 4:30.57 | 78830 | 99136
9 | 22:01.62 | 1:01.55 | 99137 | 103766
10 | 23:03.42 | 3:58.43 | 103767 | 121659
11 | 27:02.10 | 1:24.15 | 121660 | 127974
12 | 28:26.25 | 2:12.30 | 127975 | 137904
13 | 30:38.55 | 2:06.70 | 137905 | 147424
14 | 32:45.50 | 2:07.17 | 147425 | 156966
15 | 34:52.67 | 3:13.73 | 156967 | 171514
16 | 38:06.65 | 1:35.42 | 171515 | 178681
17 | 39:42.32 | 4:03.28 | 178682 | 196934
18 | 43:45.60 | 3:06.52 | 196935 | 210936
19 | 46:52.37 | 3:58.00 | 210937 | 228786
20 | 50:50.37 | 3:53.13 | 228787 | 246274
21 | 54:43.50 | 4:35.55 | 246275 | 266954


Range status and errors

Selected range

Filename C:\Program Files\Exact Audio Copy\Flac\Pergolesi, Leo - Salve Regina.wav

Peak level 99.9 %
Extraction speed 1.7 X
Range quality 99.9 %
Test CRC 0894B3C0
Copy CRC 0894B3C0
Copy OK

No errors occurred

End of status report

==== Log checksum E2263CDFCF921D27D753F22836E510A7F520754E7DDA0F081517F3254663E8DB ====


Exact Audio Copy V1.3 from 2. September 2016

EAC extraction logfile from 10. April 2018, 19:32

Rinaldo Alessandrini, Concerto Italiano / Pergolesi, Scarlatti - Messe

Used drive : HL-DT-STDVDRAM GH24NS95 Adapter: 1 ID: 0

Read mode : Secure
Utilize accurate stream : Yes
Defeat audio cache : Yes
Make use of C2 pointers : No

Read offset correction : 6
Overread into Lead-In and Lead-Out : No
Fill up missing offset samples with silence : Yes
Delete leading and trailing silent blocks : No
Null samples used in CRC calculations : Yes
Used interface : Native Win32 interface for Win NT & 2000

Used output format : User Defined Encoder
Selected bitrate : 128 kBit/s
Quality : High
Add ID3 tag : No
Command line compressor : C:\Program Files\Exact Audio Copy\Flac\flac.exe
Additional command line options : -V -8 -T "Date=%year%" -T "Genre=%genre%" %source%


TOC of the extracted CD

Track | Start | Length | Start sector | End sector
––––––––––––––––––––––––––––-
1 | 0:00.00 | 0:41.22 | 0 | 3096
2 | 0:41.22 | 2:41.73 | 3097 | 15244
3 | 3:23.20 | 0:58.11 | 15245 | 19605
4 | 4:21.31 | 2:35.73 | 19606 | 31303
5 | 6:57.29 | 2:00.52 | 31304 | 40355
6 | 8:58.06 | 3:55.27 | 40356 | 58007
7 | 12:53.33 | 4:07.73 | 58008 | 76605
8 | 17:01.31 | 2:30.31 | 76606 | 87886
9 | 19:31.62 | 3:46.26 | 87887 | 104862
10 | 23:18.13 | 2:28.33 | 104863 | 115995
11 | 25:46.46 | 1:59.65 | 115996 | 124985
12 | 27:46.36 | 2:33.21 | 124986 | 136481
13 | 30:19.57 | 4:08.43 | 136482 | 155124
14 | 34:28.25 | 10:30.41 | 155125 | 202415
15 | 44:58.66 | 7:38.55 | 202416 | 236820
16 | 52:37.46 | 1:10.06 | 236821 | 242076
17 | 53:47.52 | 4:28.39 | 242077 | 262215


Range status and errors

Selected range

Filename C:\Program Files\Exact Audio Copy\Flac\Pergolesi, Scarlatti - Messe.wav

Peak level 85.1 %
Extraction speed 7.3 X
Range quality 100.0 %
Test CRC 94AC1F65
Copy CRC 94AC1F65
Copy OK

No errors occurred

End of status report

==== Log checksum 609C230E0BA6D527574B06C92F2008367DA211C1679CEB23F9E6000D90F8968A ====


Rinaldo Alessandrini, Fabio Biondi - Pergolesi, A.Scarlatti, Leo: Stabat Mater, Salve Regina, Messa di S. Emidio (2010)