Subcategories

Ringo Starr - Goodnight Vienna (1974) [Repost]

Posted By: Designol
Ringo Starr - Goodnight Vienna (1974) [Repost]

Ringo Starr - Goodnight Vienna (1974)
EAC | FLAC | Image (Cue&Log) ~ 281 Mb | Mp3 (CBR320) ~ 126 Mb | Scans included | 00:45:12
Classic Rock, Pop/Rock, Rock & Roll | Label: Capitol | # CDP 0777 7 80378 2 8

Goodnight Vienna was very much a follow-up to Ringo, on which Ringo Starr called upon his bevy of musical buddies. Most prominent among them was John Lennon, who again wrote the leadoff track, "(It's All Da-Da-Down To) Goodnight Vienna," and played on three songs; also included are Elton John, who wrote and played on "Snookeroo," Dr. John, Billy Preston, Robbie Robertson, and Harry Nilsson. Richard Perry again produced, bringing his strong pop sensibility to the diverse material. The only real fall-off was in the songwriting; the album's Top Ten hits were "Only You," the old Platters song, and Hoyt Axton's novelty number "No No Song," which winked at intoxicants, but little else on the set stood out. Goodnight Vienna was another enjoyable Ringo record, but it lacked the star power and consistency of its predecessor. Still, compared to the rest of his '70s albums, it was a masterpiece.

Review by William Ruhlmann, Allmusic.com

Ringo Starr - Goodnight Vienna (1974) [Repost]

Ringo Starr - Goodnight Vienna (1974) [Repost]



Tracklist:

01. Goodnight Vienna (2:35)
02. Occapella (2:57)
03. Oo-Wee (3:47)
04. Husbands And Wives (3:36)
05. Snookeroo (3:29)
06. All By Myself (3:24)
07. Call Me (4:09)
08. No No Song (2:35)
09. Only You (And You Alone) (3:27)
10. Easy For Me (2:22)
11. Goodnight Vienna (reprise) (1:21)
12. Back Off Boogaloo (3:22)
13. Blindman (2:45)
14. Six O'Clock (Extended Version) (5:23)


Exact Audio Copy V1.0 beta 3 from 29. August 2011

EAC extraction logfile from 12. September 2014, 14:09

Ringo Starr / Goodnight Vienna

Used drive : ASUS SDRW-08D1S-U Adapter: 1 ID: 0

Read mode : Secure
Utilize accurate stream : Yes
Defeat audio cache : Yes
Make use of C2 pointers : No

Read offset correction : 667
Overread into Lead-In and Lead-Out : No
Fill up missing offset samples with silence : Yes
Delete leading and trailing silent blocks : No
Null samples used in CRC calculations : Yes
Used interface : Native Win32 interface for Win NT & 2000

Used output format : User Defined Encoder
Selected bitrate : 128 kBit/s
Quality : High
Add ID3 tag : No
Command line compressor : C:\Program Files (x86)\Exact Audio Copy\Flac\flac.exe
Additional command line options : -V -8 -T "Date=%year%" -T "Genre=%genre%" %source%


TOC of the extracted CD

Track | Start | Length | Start sector | End sector
––––––––––––––––––––––––––––-
1 | 0:00.00 | 2:34.62 | 0 | 11611
2 | 2:34.62 | 2:56.45 | 11612 | 24856
3 | 5:31.32 | 3:46.48 | 24857 | 41854
4 | 9:18.05 | 3:36.10 | 41855 | 58064
5 | 12:54.15 | 3:29.25 | 58065 | 73764
6 | 16:23.40 | 3:24.02 | 73765 | 89066
7 | 19:47.42 | 4:08.65 | 89067 | 107731
8 | 23:56.32 | 2:34.53 | 107732 | 119334
9 | 26:31.10 | 3:27.15 | 119335 | 134874
10 | 29:58.25 | 2:21.55 | 134875 | 145504
11 | 32:20.05 | 1:21.15 | 145505 | 151594
12 | 33:41.20 | 3:22.30 | 151595 | 166774
13 | 37:03.50 | 2:44.70 | 166775 | 179144
14 | 39:48.45 | 5:23.22 | 179145 | 203391


Range status and errors

Selected range

Filename C:\Users\Олег\Desktop\Ringo Starr - Goodnight Vienna.wav

Peak level 100.0 %
Extraction speed 3.8 X
Range quality 100.0 %
Test CRC 9D1AA78D
Copy CRC 9D1AA78D
Copy OK

No errors occurred


AccurateRip summary

Track 1 accurately ripped (confidence 4) [B0368FC4] (AR v2)
Track 2 accurately ripped (confidence 4) [D88B8EE4] (AR v2)
Track 3 accurately ripped (confidence 4) [EC4057DC] (AR v2)
Track 4 accurately ripped (confidence 4) [B6771CCE] (AR v2)
Track 5 accurately ripped (confidence 5) [E2BB839B] (AR v2)
Track 6 accurately ripped (confidence 4) [B8AA75A1] (AR v2)
Track 7 accurately ripped (confidence 4) [00662548] (AR v2)
Track 8 accurately ripped (confidence 4) [D3024067] (AR v2)
Track 9 accurately ripped (confidence 4) [21392773] (AR v2)
Track 10 accurately ripped (confidence 4) [C50946DD] (AR v2)
Track 11 accurately ripped (confidence 4) [34CE3D6C] (AR v2)
Track 12 accurately ripped (confidence 4) [141E4F10] (AR v2)
Track 13 accurately ripped (confidence 4) [8AFEA765] (AR v2)
Track 14 accurately ripped (confidence 4) [98DEBFD1] (AR v2)

All tracks accurately ripped

End of status report

==== Log checksum C8818D4108F8FAB5A653840B72682018BA87B40D02614A6B7A74D1CABC23DC91 ====

[CUETools log; Date: 30.10.2017 19:24:57; Version: 2.1.4]
[CTDB TOCID: CdLS_RTTto0c9DnW5KfKKochnQ4-] found.
Track | CTDB Status
1 | (36/36) Accurately ripped
2 | (36/36) Accurately ripped
3 | (36/36) Accurately ripped
4 | (36/36) Accurately ripped
5 | (36/36) Accurately ripped
6 | (36/36) Accurately ripped
7 | (36/36) Accurately ripped
8 | (36/36) Accurately ripped
9 | (36/36) Accurately ripped
10 | (36/36) Accurately ripped
11 | (36/36) Accurately ripped
12 | (36/36) Accurately ripped
13 | (36/36) Accurately ripped
14 | (36/36) Accurately ripped
[AccurateRip ID: 001700f7-00f4f2a5-ba0a970e] found.
Track [ CRC | V2 ] Status
01 [cb931642|b0368fc4] (07+11/46) Accurately ripped
02 [0a68de56|d88b8ee4] (07+11/45) Accurately ripped
03 [bc5a8b9d|ec4057dc] (07+11/46) Accurately ripped
04 [a5cef7a0|b6771cce] (07+11/46) Accurately ripped
05 [4680a7d4|e2bb839b] (07+12/47) Accurately ripped
06 [a1f53774|b8aa75a1] (07+11/46) Accurately ripped
07 [53f07b18|00662548] (07+11/46) Accurately ripped
08 [31747947|d3024067] (08+11/47) Accurately ripped
09 [19733a21|21392773] (08+11/47) Accurately ripped
10 [089adfc0|c50946dd] (07+11/46) Accurately ripped
11 [a8522dc6|34ce3d6c] (07+11/45) Accurately ripped
12 [e63fc835|141e4f10] (07+11/46) Accurately ripped
13 [bf335323|8afea765] (07+11/46) Accurately ripped
14 [f9072fa3|98debfd1] (07+11/46) Accurately ripped
Offsetted by -142:
01 [cb6bd39b] (03/46) Accurately ripped
02 [ec02385b] (03/45) Accurately ripped
03 [495f5807] (03/46) Accurately ripped
04 [ef3d86fc] (03/46) Accurately ripped
05 [2003a0d6] (03/47) Accurately ripped
06 [e564bd04] (03/46) Accurately ripped
07 [30c792e2] (03/46) Accurately ripped
08 [e5a50e3f] (03/47) Accurately ripped
09 [5a6e45c1] (03/47) Accurately ripped
10 [d9f7d3d0] (03/46) Accurately ripped
11 [a8f2e572] (03/45) Accurately ripped
12 [709f7d8d] (03/46) Accurately ripped
13 [8e2ebc2d] (03/46) Accurately ripped
14 [a51e9945] (03/46) Accurately ripped
Offsetted by 522:
01 [2325ea86] (07/46) Accurately ripped
02 [b630cf48] (07/45) Accurately ripped
03 [25bc493f] (07/46) Accurately ripped
04 [e73154cc] (07/46) Accurately ripped
05 [4e94602e] (07/47) Accurately ripped
06 [aa0f89c4] (07/46) Accurately ripped
07 [e737889a] (07/46) Accurately ripped
08 [52f45cdf] (07/47) Accurately ripped
09 [72b0b541] (07/47) Accurately ripped
10 [ffc35e90] (07/46) Accurately ripped
11 [0e939902] (07/45) Accurately ripped
12 [79cdecad] (07/46) Accurately ripped
13 [bf1c88e5] (07/46) Accurately ripped
14 [b67ea41d] (07/46) Accurately ripped

Track Peak [ CRC32 ] [W/O NULL] [ LOG ]
– 100,0 [9D1AA78D] [A688C437] CRC32
01 100,0 [BB8DDB3F] [E3EBD7B3]
02 76,6 [4F995258] [C6871DF5]
03 92,7 [183AA407] [4B4C3391]
04 68,0 [75860844] [7BAA2213]
05 99,4 [C8386F81] [D5A3B89D]
06 94,3 [608481B0] [EF44EB89]
07 94,0 [B2F2A427] [523BAB85]
08 99,9 [50132CB4] [DC4F383D]
09 93,5 [DACED3C0] [2BB7974A]
10 84,3 [CBE35312] [1F4BAF14]
11 97,1 [F3F7B2C0] [6937495A]
12 96,8 [093FB8E7] [4138CDDF]
13 95,0 [E18A5138] [B47C60A1]
14 90,4 [610A19A4] [C4297424]

foobar2000 1.2 / Dynamic Range Meter 1.1.1
log date: 2017-10-30 20:35:42

––––––––––––––––––––––––––––––––––––––––
Analyzed: Ringo Starr / Goodnight Vienna
––––––––––––––––––––––––––––––––––––––––

DR Peak RMS Duration Track
––––––––––––––––––––––––––––––––––––––––
DR15 0.00 dB -17.36 dB 2:35 01-Goodnight Vienna
DR16 -2.31 dB -21.55 dB 2:57 02-Occapella
DR15 -0.66 dB -18.07 dB 3:47 03-Oo-Wee
DR13 -3.35 dB -18.26 dB 3:36 04-Husbands And Wives
DR14 -0.05 dB -15.01 dB 3:29 05-Snookeroo
DR15 -0.51 dB -17.72 dB 3:24 06-All By Myself
DR16 -0.53 dB -18.08 dB 4:09 07-Call Me
DR14 -0.01 dB -16.66 dB 2:35 08-No No Song
DR16 -0.58 dB -18.30 dB 3:27 09-Only You (And You Alone)
DR12 -1.48 dB -19.23 dB 2:22 10-Easy For Me
DR16 -0.25 dB -18.38 dB 1:21 11-Goodnight Vienna (reprise)
DR11 -0.27 dB -12.46 dB 3:22 12-Back Off Boogaloo
DR11 -0.44 dB -16.12 dB 2:45 13-Blindman
DR14 -0.87 dB -18.49 dB 5:23 14-Six O'Clock (Extended Version)
––––––––––––––––––––––––––––––––––––––––

Number of tracks: 14
Official DR value: DR14

Samplerate: 44100 Hz
Channels: 2
Bits per sample: 16
Bitrate: 799 kbps
Codec: FLAC
================================================================================

Ringo Starr - Goodnight Vienna (1974) [Repost]

Ringo Starr - Goodnight Vienna (1974) [Repost]