Subcategories

Ringo Starr - Ringo (1973) [DCC GZS-1066] Repost

Posted By: v3122
Ringo Starr - Ringo (1973) [DCC GZS-1066] Repost

Ringo Starr - Ringo (1973)
EAC | Flac(Image) + Cue + Log & MP3 CBR 320Kbps
1994 | DCC GZS-1066 | ~ 294 or 110 Mb | Artwork(jpg) -> 11 Mb
Rock / Pop Rock / Classic Rock

With Ringo, Ringo Starr finally put his solo career in gear in 1973, after serving notice with back-to-back Top Ten singles in 1971 and 1972 that he had more to offer than his eccentric first two solo albums. Ringo was a big-budget pop album produced by Richard Perry and featuring Ringo's former Beatles bandmates as songwriters, singers, and instrumentalists. On no single track did all four appear, though George Harrison played the guitars on the John Lennon-penned leadoff track "I'm the Greatest," with Lennon playing piano and singing harmony. But it wasn't only the guests who made Ringo a success: Ringo advanced his own cause by co-writing two of the album's Top Ten singles, the number one "Photograph" and "Oh My My." The album's biggest hit was a second chart-topper, Ringo's cover of the old Johnny Burnette hit "You're Sixteen." Songs like "Have You Seen My Baby," a Randy Newman song with guitar by Marc Bolan, and Ringo and Vini Poncia's "Devil Woman" were just as good as the hits. Ringo's best and most consistent new studio album, Ringo represented both the drummer/singer's most dramatic comeback and his commercial peak. The original ten-track 1973 album got even better in 1991 as a 13-track CD reissue, the bonus tracks including the 1971 gold single "It Don't Come Easy" and its B-side, "Early 1970," a telling depiction of Ringo's perspective on the Beatles breakup.

by William Ruhlmann, allmusic
Ringo Starr - Ringo (1973):

Ringo Starr - Ringo (1973) [DCC GZS-1066] Repost

Tracklist:

1. I'm The Greatest (3:30)
2. Have You Seen My Baby? (3:48)
3. Photograph (4:02)
4. Sunshine Life For Me (Sail Away Raymond) (2:50)
5. You're Sixteen (You're Beautiful And You're Mine) (2:52)
6. Oh, My My (4:20)
7. Step Lightly (3:19)
8. Six O'Clock (4:09)
9. Devil Woman (4:05)
10. You And Me (Babe) (5:16)
Bonus Tracks
11. It Don't Come Easy (3:06)
12. Early 1970 (2:24)
13. Down And Out (3:04)

EAC extraction logfile from 8. February 2008, 18:56 for CD
Ringo Starr / Ringo (Hoffman Remaster)

Used drive : PIONEER DVD-RW DVR-109 Adapter: 1 ID: 0
Read mode : Secure with NO C2, accurate stream, disable cache
Read offset correction : 48
Overread into Lead-In and Lead-Out : No

Used output format : C:\Program Files\FLAC\flac.exe (User Defined Encoder)
128 kBit/s
Additional command line options : -8 -V -T "ARTIST=%a" -T "TITLE=%t" -T "ALBUM=%g" -T "DATE=%y" -T "TRACKNUMBER=%n" -T "GENRE=%m" -T "COMMENT=EAC FLAC -8" %s

Other options :
Fill up missing offset samples with silence : Yes
Delete leading and trailing silent blocks : No
Native Win32 interface for Win NT & 2000


Track 1
Filename D:\Pedro's Torrents\Ringo Starr - RINGO (1973) [FLAC] {1994 DCC Gold}\01 - I'm The Greatest.wav

Pre-gap length 0:00:02.00

Peak level 100.0 %
Track quality 100.0 %
Test CRC 9E01F063
Copy CRC 9E01F063
Copy OK

Track 2
Filename D:\Pedro's Torrents\Ringo Starr - RINGO (1973) [FLAC] {1994 DCC Gold}\02 - Have You Seen My Baby (Hold On).wav

Pre-gap length 0:00:01.82

Peak level 100.0 %
Track quality 100.0 %
Test CRC 7DA28A08
Copy CRC 7DA28A08
Copy OK

Track 3
Filename D:\Pedro's Torrents\Ringo Starr - RINGO (1973) [FLAC] {1994 DCC Gold}\03 - Photograph.wav

Pre-gap length 0:00:01.86

Peak level 100.0 %
Track quality 100.0 %
Test CRC DE426E54
Copy CRC DE426E54
Copy OK

Track 4
Filename D:\Pedro's Torrents\Ringo Starr - RINGO (1973) [FLAC] {1994 DCC Gold}\04 - Sunshine Life For Me (Sail Away Raymond).wav

Pre-gap length 0:00:02.20

Peak level 100.0 %
Track quality 100.0 %
Test CRC 8A674188
Copy CRC 8A674188
Copy OK

Track 5
Filename D:\Pedro's Torrents\Ringo Starr - RINGO (1973) [FLAC] {1994 DCC Gold}\05 - You're Sixteen (You're Beautiful And You're Mine).wav

Pre-gap length 0:00:02.90

Peak level 100.0 %
Track quality 100.0 %
Test CRC FAD7B6B2
Copy CRC FAD7B6B2
Copy OK

Track 6
Filename D:\Pedro's Torrents\Ringo Starr - RINGO (1973) [FLAC] {1994 DCC Gold}\06 - Oh My My.wav

Pre-gap length 0:00:01.40

Peak level 100.0 %
Track quality 100.0 %
Test CRC 4A628C44
Copy CRC 4A628C44
Copy OK

Track 7
Filename D:\Pedro's Torrents\Ringo Starr - RINGO (1973) [FLAC] {1994 DCC Gold}\07 - Step Lightly.wav

Pre-gap length 0:00:01.26

Peak level 100.0 %
Track quality 100.0 %
Test CRC 8223DA9D
Copy CRC 8223DA9D
Copy OK

Track 8
Filename D:\Pedro's Torrents\Ringo Starr - RINGO (1973) [FLAC] {1994 DCC Gold}\08 - Six O'Clock.wav

Pre-gap length 0:00:01.40

Peak level 100.0 %
Track quality 100.0 %
Test CRC AA5A6148
Copy CRC AA5A6148
Copy OK

Track 9
Filename D:\Pedro's Torrents\Ringo Starr - RINGO (1973) [FLAC] {1994 DCC Gold}\09 - Devil Woman.wav

Pre-gap length 0:00:01.46

Peak level 100.0 %
Track quality 100.0 %
Test CRC 206A46E8
Copy CRC 206A46E8
Copy OK

Track 10
Filename D:\Pedro's Torrents\Ringo Starr - RINGO (1973) [FLAC] {1994 DCC Gold}\10 - You And Me (Babe).wav

Pre-gap length 0:00:01.06

Peak level 100.0 %
Track quality 100.0 %
Test CRC EFE52ADF
Copy CRC EFE52ADF
Copy OK

Track 11
Filename D:\Pedro's Torrents\Ringo Starr - RINGO (1973) [FLAC] {1994 DCC Gold}\11 - It Don't Come Easy.wav

Pre-gap length 0:00:12.42

Peak level 97.0 %
Track quality 100.0 %
Test CRC 4C7B74E6
Copy CRC 4C7B74E6
Copy OK

Track 12
Filename D:\Pedro's Torrents\Ringo Starr - RINGO (1973) [FLAC] {1994 DCC Gold}\12 - Early 1970.wav

Pre-gap length 0:00:01.60

Peak level 100.0 %
Track quality 100.0 %
Test CRC FAEC3B71
Copy CRC FAEC3B71
Copy OK

Track 13
Filename D:\Pedro's Torrents\Ringo Starr - RINGO (1973) [FLAC] {1994 DCC Gold}\13 - Down And Out.wav

Pre-gap length 0:00:02.02

Peak level 100.0 %
Track quality 100.0 %
Test CRC 95C292A6
Copy CRC 95C292A6
Copy OK

No errors occured


End of status report


[CUETools log; Date: 24.11.2018 17:26:37; Version: 2.1.4]
[AccurateRip ID: 0016c5ac-00e4758e-b30afa0d] found.
Track [ CRC | V2 ] Status
01 [1fb1d622|218d872c] (13+23/38) Accurately ripped
02 [4afdf62c|84caa5f1] (13+22/37) Accurately ripped
03 [9d3c513f|d73d1109] (14+23/39) Accurately ripped
04 [de1a6ab9|d9ff31ed] (13+22/37) Accurately ripped
05 [65bd7a18|91031a38] (13+23/38) Accurately ripped
06 [47fa0436|e8abc68c] (13+23/38) Accurately ripped
07 [0af1b1c8|44afc351] (13+23/38) Accurately ripped
08 [0c54279d|d9551681] (13+23/38) Accurately ripped
09 [d101f557|a17856cf] (13+23/36) Accurately ripped
10 [b5e0262b|2f9b5d7c] (13+22/37) Accurately ripped
11 [9a8a2ee9|d263a838] (14+23/41) Accurately ripped
12 [e0435675|62578713] (14+23/39) Accurately ripped
13 [ebe2b5e0|0d44c11c] (14+22/38) Accurately ripped
Offsetted by -30:
01 [f8047b7a] (02/38) Accurately ripped
02 [03580156] (02/37) Accurately ripped
03 [081bd191] (02/39) Accurately ripped
04 [0990b7d9] (02/37) Accurately ripped
05 [8fdfa762] (02/38) Accurately ripped
06 [bdd8f30a] (02/38) Accurately ripped
07 [acbd312c] (02/38) Accurately ripped
08 [a9146c37] (02/38) Accurately ripped
09 [c27b14a5] (00/36) No match (V2 was not tested)
10 [2f94bc83] (02/37) Accurately ripped
11 [19bdde07] (02/41) Accurately ripped
12 [28103599] (02/39) Accurately ripped
13 [503eced2] (02/38) Accurately ripped
Offsetted by 6:
01 [27a14eaa] (00/38) No match
02 [8c858d8a] (00/37) No match
03 [54a93795] (00/39) No match
04 [d5692819] (00/37) No match
05 [5d503dd6] (00/38) No match
06 [fd33d472] (00/38) No match
07 [1dc8feb4] (00/38) No match
08 [ecfa804b] (00/38) No match
09 [d3e9bbe1] (00/36) No match
10 [6a55a1b3] (00/37) No match
11 [1ab30be3] (02/41) Accurately ripped
12 [9eb3f6a1] (00/39) No match
13 [7169e416] (00/38) No match

Track Peak [ CRC32 ] [W/O NULL] [ LOG ]
– 100,0 [C7210920] [24C52C92]
01 100,0 [9E01F063] [5FD2F421] CRC32
02 100,0 [7DA28A08] [F35A0595] CRC32
03 100,0 [DE426E54] [11C090C8] CRC32
04 100,0 [8A674188] [8A6014DC] CRC32
05 100,0 [FAD7B6B2] [BB220EB7] CRC32
06 100,0 [4A628C44] [229DE7CE] CRC32
07 100,0 [8223DA9D] [916886DE] CRC32
08 100,0 [AA5A6148] [8D56F1CC] CRC32
09 100,0 [206A46E8] [79E20074] CRC32
10 100,0 [EFE52ADF] [87AD3740] CRC32
11 97,0 [4C7B74E6] [87D4F161] CRC32
12 100,0 [FAEC3B71] [0740CF5A] CRC32
13 100,0 [95C292A6] [14B76CC3] CRC32


Ringo Starr - Ringo (1973) [DCC GZS-1066] Repost

All thanks go to the original releaser

Ringo Starr or Ringo Starr in my Blog

Download Ringo Starr - Ringo (1973):