Subcategories
Tags
Language
Tags

Ringo Starr And His New All-Starr Band: Tour 2003 (2004) [CD & DVD]

Posted By: v3122
Ringo Starr And His New All-Starr Band: Tour 2003 (2004) [CD & DVD]

Ringo Starr And His New All-Starr Band: Tour 2003 (2004)
EAC | Flac(Image) + Cue + Log & MP3 CBR 320Kbps
KOCH-CD-9549 | ~ 512 or 161 Mb | Artwork(png) -> 13 Mb
DVD9: PAL 4:3 (720x576) VBR | Dolby AC3, 2 ch / Dolby AC3, 6 ch
Classic Rock / Pop Rock

Ringo Starr, continuing to recognize a good thing when he sees it as he did back in 1962, is still organizing all-star (or "All-Starr") bands and touring regularly with them. This disc melds a concert performance at the Casino Rama in Ontario, Canada with a good deal of backstage documentary-style footage.

This 2003 version of the All-Starr band includes John Waite of The Babys and Bad English; Colin Hay of Men At Work; Paul Carrack of Ace, Squeeze and Mike & the Mechanics; Sheila E of Prince and her successful solo career, and Mark Rivera, who is best known for playing with Billy Joel. These are not the huge megastar names that have populated past All-Starr Bands, but they're certainly all capable musicians and prominent figures from the 1980s music scene.

Ringo performs eight songs with the band, including most of his songs that he sang lead with The Beatles; his own solo career is represented only by It Don't Come Easy and Memphis in Your Mind. Waite, Hay, Carrack and Sheila E. each perform two of the songs that they had hits with over the years, sometimes with Ringo doubling on drums.

The songs of the guest stars are all done with interesting permutations on the familiar originals. Unfortunately, the Ringo songs are lacking in forward drive and have a somewhat lethargic quality to them. While he seems to be having fun, there's a vitality missing that was seen in some other performances on DVD. It doesn't help that the concert that's interspersed in the documentary footage is from one of the first (if not the very first) dates on the tour, so the band hasn't quite melded into a tight operation yet.

The documentary segments flow from beginning to the end of the tour, as they cross North America, with the performances giving a bit of an illusion that they're from different shows. This gets a little disorienting at times, such as when late in the tour Alice Cooper agrees to sing backup on With a Little Help From My Friends, but then cuts back to months before, and of course no Alice is in sight. That would have made for a good bonus track, if nothing else. The backstage material is only mildly interesting for the most part, though the segments of the band trying to learn Sheila E.'s Glamorous Life give an excellent sense of how difficult it is to assemble these shows. More such footage would certainly have been welcome…

by Mark Zimmer, digitallyobsessed
Ringo Starr And His New All-Starr Band: Tour 2003 (2004):

Ringo Starr And His New All-Starr Band: Tour 2003 (2004) [CD & DVD]

Tracklist CD:

1. It Don't Come Easy (Richard Starkey) – 3:44
2. Honey Don't (Carl Perkins) – 2:59
3. Memphis In Your Mind (Starkey/Mark Hudson/Gary Burr/Steve Dudas/Dean Grakal) – 4:23
4. How Long? (Paul Carrack) – 4:45
* Performed by Paul Carrack
5. Down Under (Ron Strykert/Colin Hay) – 4:25
* Performed by Colin Hay
6. When I See You Smile (Diane Warren) – 4:52
* Performed by John Waite
7. A Love Bizarre (Pete Escovedo) – 4:05
* Performed by Sheila E.
8. Boys (Luther Dixon/Wes Farrell) – 3:04
9. Don't Pass Me By (Starkey) – 4:02
10. Yellow Submarine (Lennon–McCartney) – 3:11
11. The Living Years (Mike Rutherford/B.A. Robertson) – 6:25
* Performed by Paul Carrack
12. Missing You (John Waite/Mark Leonard/Charles Sandford) – 4:18
* Performed by John Waite
13. The Glamorous Life (Prince) – 4:49
* Performed by Sheila E.
14. I Wanna Be Your Man (Lennon–McCartney) – 3:25
15. Who Can It Be Now (Hay) – 4:00
* Performed by Colin Hay
16. With a Little Help from My Friends (Lennon–McCartney) – 5:36

Exact Audio Copy V1.0 beta 3 from 29. August 2011

EAC extraction logfile from 7. August 2014, 18:42

Ringo Starr & His All-Starr Band / Tour 2003

Used drive : HL-DT-STDVDRAM GH24NSB0 Adapter: 1 ID: 0

Read mode : Secure
Utilize accurate stream : Yes
Defeat audio cache : Yes
Make use of C2 pointers : No

Read offset correction : 6
Overread into Lead-In and Lead-Out : No
Fill up missing offset samples with silence : Yes
Delete leading and trailing silent blocks : No
Null samples used in CRC calculations : Yes
Used interface : Native Win32 interface for Win NT & 2000
Gap handling : Appended to previous track

Used output format : User Defined Encoder
Selected bitrate : 1024 kBit/s
Quality : High
Add ID3 tag : No
Command line compressor : C:\Program Files (x86)\Exact Audio Copy\Flac\flac.exe
Additional command line options : -V -8 -T "Genre=%genre%" -T "Artist=%artist%" -T "Title=%title%" -T "Album=%albumtitle%" -T "Date=%year%" -T "Tracknumber=%tracknr%" -T "Comment=%comment%" %source%


TOC of the extracted CD

Track | Start | Length | Start sector | End sector
––––––––––––––––––––––––––––-
1 | 0:00.00 | 3:44.51 | 0 | 16850
2 | 3:44.51 | 2:59.04 | 16851 | 30279
3 | 6:43.55 | 4:23.53 | 30280 | 50057
4 | 11:07.33 | 4:45.52 | 50058 | 71484
5 | 15:53.10 | 4:25.72 | 71485 | 91431
6 | 20:19.07 | 4:52.64 | 91432 | 113395
7 | 25:11.71 | 4:05.33 | 113396 | 131803
8 | 29:17.29 | 3:04.15 | 131804 | 145618
9 | 32:21.44 | 4:02.73 | 145619 | 163841
10 | 36:24.42 | 3:11.56 | 163842 | 178222
11 | 39:36.23 | 6:25.70 | 178223 | 207167
12 | 46:02.18 | 4:18.66 | 207168 | 226583
13 | 50:21.09 | 4:49.58 | 226584 | 248316
14 | 55:10.67 | 3:25.72 | 248317 | 263763
15 | 58:36.64 | 4:00.71 | 263764 | 281834
16 | 62:37.60 | 5:36.36 | 281835 | 307070


Track 1

Filename D:\Music\Musicgate's rips\Ringo Starr & His All-Starr Band - Tour 2003 - 2004 (KOCH)\01. It Don't Come Easy.wav

Pre-gap length 0:00:02.00

Peak level 98.8 %
Extraction speed 1.1 X
Track quality 100.0 %
Test CRC 48278D98
Copy CRC 48278D98
Accurately ripped (confidence 2) [241C7582] (AR v1)
Copy OK

Track 2

Filename D:\Music\Musicgate's rips\Ringo Starr & His All-Starr Band - Tour 2003 - 2004 (KOCH)\02. Honey Don't.wav

Peak level 98.8 %
Extraction speed 1.2 X
Track quality 100.0 %
Test CRC B0D39035
Copy CRC B0D39035
Accurately ripped (confidence 2) [0BAEFFB9] (AR v1)
Copy OK

Track 3

Filename D:\Music\Musicgate's rips\Ringo Starr & His All-Starr Band - Tour 2003 - 2004 (KOCH)\03. Memphis In Your Mind.wav

Peak level 98.8 %
Extraction speed 1.3 X
Track quality 100.0 %
Test CRC 44A5487E
Copy CRC 44A5487E
Accurately ripped (confidence 2) [64433016] (AR v1)
Copy OK

Track 4

Filename D:\Music\Musicgate's rips\Ringo Starr & His All-Starr Band - Tour 2003 - 2004 (KOCH)\04. How Long.wav

Peak level 98.8 %
Extraction speed 1.5 X
Track quality 100.0 %
Test CRC 6039BE18
Copy CRC 6039BE18
Accurately ripped (confidence 2) [604035A0] (AR v1)
Copy OK

Track 5

Filename D:\Music\Musicgate's rips\Ringo Starr & His All-Starr Band - Tour 2003 - 2004 (KOCH)\05. Down Under.wav

Peak level 98.8 %
Extraction speed 1.4 X
Track quality 99.9 %
Test CRC E21ED998
Copy CRC E21ED998
Accurately ripped (confidence 2) [6144D742] (AR v1)
Copy OK

Track 6

Filename D:\Music\Musicgate's rips\Ringo Starr & His All-Starr Band - Tour 2003 - 2004 (KOCH)\06. When I See You Smile.wav

Peak level 98.8 %
Extraction speed 1.7 X
Track quality 100.0 %
Test CRC 6A7EC943
Copy CRC 6A7EC943
Accurately ripped (confidence 2) [F100ADC9] (AR v1)
Copy OK

Track 7

Filename D:\Music\Musicgate's rips\Ringo Starr & His All-Starr Band - Tour 2003 - 2004 (KOCH)\07. Love Bizarre.wav

Peak level 98.8 %
Extraction speed 1.7 X
Track quality 100.0 %
Test CRC 64BB53F5
Copy CRC 64BB53F5
Cannot be verified as accurate (confidence 2) [1C25ED5F], AccurateRip returned [10B09C39] (AR v2)
Copy OK

Track 8

Filename D:\Music\Musicgate's rips\Ringo Starr & His All-Starr Band - Tour 2003 - 2004 (KOCH)\08. Boys.wav

Peak level 98.8 %
Extraction speed 1.7 X
Track quality 100.0 %
Test CRC 761B9257
Copy CRC 761B9257
Accurately ripped (confidence 2) [FE2259D7] (AR v1)
Copy OK

Track 9

Filename D:\Music\Musicgate's rips\Ringo Starr & His All-Starr Band - Tour 2003 - 2004 (KOCH)\09. Don't Pass Me By.wav

Peak level 98.8 %
Extraction speed 1.8 X
Track quality 100.0 %
Test CRC 4EBE28DF
Copy CRC 4EBE28DF
Accurately ripped (confidence 2) [FEA73EB0] (AR v1)
Copy OK

Track 10

Filename D:\Music\Musicgate's rips\Ringo Starr & His All-Starr Band - Tour 2003 - 2004 (KOCH)\10. Yellow Submarine.wav

Pre-gap length 0:00:00.40

Peak level 98.8 %
Extraction speed 1.9 X
Track quality 100.0 %
Test CRC 5667CC0B
Copy CRC 5667CC0B
Accurately ripped (confidence 2) [B2146DFF] (AR v1)
Copy OK

Track 11

Filename D:\Music\Musicgate's rips\Ringo Starr & His All-Starr Band - Tour 2003 - 2004 (KOCH)\11. Living Years.wav

Pre-gap length 0:00:00.44

Peak level 98.8 %
Extraction speed 2.1 X
Track quality 100.0 %
Test CRC F30C4D82
Copy CRC F30C4D82
Accurately ripped (confidence 2) [CAD0586D] (AR v1)
Copy OK

Track 12

Filename D:\Music\Musicgate's rips\Ringo Starr & His All-Starr Band - Tour 2003 - 2004 (KOCH)\12. Missing You.wav

Peak level 100.0 %
Extraction speed 2.1 X
Track quality 100.0 %
Test CRC 3EB401D9
Copy CRC 3EB401D9
Accurately ripped (confidence 2) [2D67DE2B] (AR v1)
Copy OK

Track 13

Filename D:\Music\Musicgate's rips\Ringo Starr & His All-Starr Band - Tour 2003 - 2004 (KOCH)\13. Glamorous Life.wav

Peak level 98.8 %
Extraction speed 2.2 X
Track quality 100.0 %
Test CRC 457CA736
Copy CRC 457CA736
Cannot be verified as accurate (confidence 2) [F6F3F651], AccurateRip returned [299721F8] (AR v2)
Copy OK

Track 14

Filename D:\Music\Musicgate's rips\Ringo Starr & His All-Starr Band - Tour 2003 - 2004 (KOCH)\14. I Wanna Be Your Man.wav

Peak level 98.8 %
Extraction speed 2.2 X
Track quality 100.0 %
Test CRC DDEA0129
Copy CRC DDEA0129
Accurately ripped (confidence 2) [78F43A30] (AR v1)
Copy OK

Track 15

Filename D:\Music\Musicgate's rips\Ringo Starr & His All-Starr Band - Tour 2003 - 2004 (KOCH)\15. Who Can It Be Now.wav

Pre-gap length 0:00:01.50

Peak level 98.8 %
Extraction speed 2.2 X
Track quality 100.0 %
Test CRC 3F30E04B
Copy CRC 3F30E04B
Accurately ripped (confidence 2) [10A8194F] (AR v1)
Copy OK

Track 16

Filename D:\Music\Musicgate's rips\Ringo Starr & His All-Starr Band - Tour 2003 - 2004 (KOCH)\16. With A Little Help From My Friends.wav

Peak level 98.8 %
Extraction speed 2.4 X
Track quality 100.0 %
Test CRC 66D0EE26
Copy CRC 66D0EE26
Accurately ripped (confidence 2) [BFE01C15] (AR v1)
Copy OK


14 трек(и) скопированы точно
2 трек(и) не удалось проверить на точность

Some tracks could not be verified as accurate

No errors occurred

End of status report

==== Log checksum B0D19C8BDA8C5ACE5ACE48BEF5C31F7F4CAC82F1D2894EEA8D929020C3B187EA ====


[CUETools log; Date: 18.04.2020 15:59:22; Version: 2.1.4]
[AccurateRip ID: 002691f1-01d2a6f1-e60ffe10] found.
Track [ CRC | V2 ] Status
01 [241c7582|06b9804d] (02+06/10) Accurately ripped
02 [0baeffb9|bc87a0d8] (02+06/10) Accurately ripped
03 [64433016|6e13b987] (02+06/10) Accurately ripped
04 [604035a0|9649a5ce] (02+06/10) Accurately ripped
05 [6144d742|80077f7e] (02+06/10) Accurately ripped
06 [f100adc9|aa50f171] (02+06/08) Accurately ripped
07 [434f6011|1c25ed5f] (00+06/08) Accurately ripped
08 [fe2259d7|f338561f] (02+06/10) Accurately ripped
09 [fea73eb0|24b548cd] (02+05/09) Accurately ripped
10 [b2146dff|8ef8bdc7] (02+05/09) Accurately ripped
11 [cad0586d|1573e500] (02+06/10) Accurately ripped
12 [2d67de2b|3928ab63] (02+06/10) Accurately ripped
13 [e3c65dc3|f6f3f651] (00+06/08) Accurately ripped
14 [78f43a30|3d9bb98e] (02+05/09) Accurately ripped
15 [10a8194f|c1f07523] (02+06/10) Accurately ripped
16 [bfe01c15|624c224c] (02+06/10) Accurately ripped
Offsetted by -664:
01 [7b281ede] (02/10) Accurately ripped
02 [4de418fa] (02/10) Accurately ripped
03 [89f7fc8b] (02/10) Accurately ripped
04 [20e5ee0d] (02/10) Accurately ripped
05 [c77d2028] (02/10) Accurately ripped
06 [658f1b47] (00/08) No match (V2 was not tested)
07 [10b09c39] (02/08) Accurately ripped
08 [d65adcf2] (02/10) Accurately ripped
09 [25577b76] (02/09) Accurately ripped
10 [e646905f] (02/09) Accurately ripped
11 [6281c72c] (02/10) Accurately ripped
12 [e707f6ca] (02/10) Accurately ripped
13 [299721f8] (02/08) Accurately ripped
14 [580f8439] (02/09) Accurately ripped
15 [0fd95169] (02/10) Accurately ripped
16 [00e48e6f] (02/10) Accurately ripped

Track Peak [ CRC32 ] [W/O NULL] [ LOG ]
– 100,0 [C6EBA2C5] [DBE77DE9]
01 98,8 [48278D98] [B8B6E811] CRC32
02 98,8 [B0D39035] [777C56C4] CRC32
03 98,8 [44A5487E] [B38CDAC5] CRC32
04 98,8 [6039BE18] [27596294] CRC32
05 98,8 [E21ED998] [67C9B2C3] CRC32
06 98,8 [6A7EC943] [ACDF076C] CRC32
07 98,8 [64BB53F5] [F20E6504] CRC32
08 98,8 [761B9257] [B80CBF7E] CRC32
09 98,8 [4EBE28DF] [055AD91C] CRC32
10 98,8 [5667CC0B] [11215C45] CRC32
11 98,8 [F30C4D82] [05B3790C] CRC32
12 100,0 [3EB401D9] [FE2317DB] CRC32
13 98,8 [457CA736] [7F9A4193] CRC32
14 98,8 [DDEA0129] [4A485F1A] CRC32
15 98,8 [3F30E04B] [027C1619] CRC32
16 98,8 [66D0EE26] [CEF70A24] CRC32


Ringo Starr And His New All-Starr Band: Tour 2003 (2004) [CD & DVD]

Tracklist DVD:

01. It Don't Come Easy
02. Honey Don't
03. Memphis In Your Mind
04. How Long
05. Down Under
06. When I See You Smile
07. Love Bizarre
08. I Wanna Be Your Man
09. Yellow Submarine
10. Living Years
11. Who Can It Be Now
12. Missing You
13. Glamorous Life
14. Don't Pass Me By
15. Boys
16. With A Little Help From My Friends

Stars:

Ringo Starr,
John Waite,
Colin Hay,
Paul Carrack,
Sheila E.,
Mark Rivera,
Alice Cooper


Title: RStarr03LiveTour_dvd
Size: 5.96 Gb ( 6 252 076,00 KBytes ) - DVD-9
Enabled regions: 1, 2, 3, 4, 5, 6

VTS_01 :
Play Length: 01:49:46+00:00:48+00:02:54
Video: PAL 4:3 (720x576) VBR
Audio:
English (Dolby AC3, 2 ch)
English (Dolby AC3, 6 ch)
Subtitles:
English
Francais
Deutsch
Espanol
Portugues


Ringo Starr And His New All-Starr Band: Tour 2003 (2004) [CD & DVD]

Ringo Starr And His New All-Starr Band: Tour 2003 (2004) [CD & DVD]

Ringo Starr And His New All-Starr Band: Tour 2003 (2004) [CD & DVD]

Ringo Starr And His New All-Starr Band: Tour 2003 (2004) [CD & DVD]

Ringo Starr And His New All-Starr Band: Tour 2003 (2004) [CD & DVD]

Ringo Starr And His New All-Starr Band: Tour 2003 (2004) [CD & DVD]

Ringo Starr And His New All-Starr Band: Tour 2003 (2004) [CD & DVD]

All thanks go to the original releaser