Subcategories
Tags
Language
Tags

Riverside - Anno Domini High Definition (2009)

Posted By: gribovar
Riverside - Anno Domini High Definition (2009)

Riverside - Anno Domini High Definition (2009)
EAC Rip | FLAC (image+.cue+log) - 309 MB | MP3 CBR 320 kbps (LAME 3.93) - 105 MB | Covers - 108 MB
Genre: Progressive Rock/Metal | RAR 3% Rec. | Label: InsideOut Music (IOMSECD 313)

Warsaw's Riverside released three previous studio albums, all of which reflected their influences deeply, while quietly forging an identity all their own. Their deep love of heavy metal and prog rock was shared by some other Polish bands that created the "progski" scene in their home country, formed in the early part of the aughts. Influenced equally by Dream Theater, Porcupine Tree, and Tool, their reputation at home and across Europe quietly spread and was enhanced by a devastating live show that combined stellar musicianship and metal dynamics. Riverside is Mariusz Duda, lead vocals, bass guitar, acoustic guitar; Piotr Grudzinski, guitars; Piotr Kozieradzki, drums; and Michal Lapaj, keyboards, backing vocals, and on Anno Domini High Definition (interestingly, the first initials in the title form the acronym ADHD), they have come into their own and stand apart not only from their own early influences, but from virtually every single other band on the prog metal scene.

Tracklist:
01. Hyperactive
02. Driven To Destruction
03. Egoist Hedonist
I. Different?
II. Hedonist Party
III. Straw Man Dance
04. Left Out
05. Hybrid Times

Total time: 44:42

Exact Audio Copy V1.1 from 23. June 2015

EAC extraction logfile from 13. October 2015, 0:02

Riverside / Anno Domini High Definition

Used drive : ASUS DRW-24B3LT Adapter: 1 ID: 0

Read mode : Secure
Utilize accurate stream : Yes
Defeat audio cache : Yes
Make use of C2 pointers : No

Read offset correction : 6
Overread into Lead-In and Lead-Out : No
Fill up missing offset samples with silence : Yes
Delete leading and trailing silent blocks : No
Null samples used in CRC calculations : Yes
Used interface : Native Win32 interface for Win NT & 2000

Used output format : Internal WAV Routines
Sample format : 44.100 Hz; 16 Bit; Stereo


TOC of the extracted CD

Track | Start | Length | Start sector | End sector
––––––––––––––––––––––––––––-
1 | 0:00.00 | 5:45.61 | 0 | 25935
2 | 5:45.61 | 7:06.00 | 25936 | 57885
3 | 12:51.61 | 8:56.70 | 57886 | 98155
4 | 21:48.56 | 10:59.27 | 98156 | 147607
5 | 32:48.08 | 11:53.68 | 147608 | 201150


Range status and errors

Selected range

Filename D:\Osieron\Desktop\Test&Copy\Riverside - Anno Domini High Definition.wav

Peak level 100.0 %
Extraction speed 3.2 X
Range quality 100.0 %
Test CRC B428081B
Copy CRC B428081B
Copy OK

No errors occurred


AccurateRip summary

Track 1 accurately ripped (confidence 3) [B36B3A08] (AR v2)
Track 2 accurately ripped (confidence 3) [0F9B7EE5] (AR v2)
Track 3 accurately ripped (confidence 3) [BE5F01A8] (AR v2)
Track 4 accurately ripped (confidence 3) [747A9D89] (AR v2)
Track 5 accurately ripped (confidence 3) [FD974A64] (AR v2)

All tracks accurately ripped

End of status report

==== Log checksum 12DD6F4617DAE96CC2B4E71A3A6922DA29D01CE1C6319AEFB98D1B5C6C8D40D8 ====

[CUETools log; Date: 03.04.2019 13:36:40; Version: 2.1.4]
[CTDB TOCID: srt7p7GxFQy5ybwCJTZlZcpCnEI-] found.
Track | CTDB Status
1 | (405/414) Accurately ripped, or (5/414) differs in 40 samples @05:45:60
2 | (406/414) Accurately ripped, or (5/414) differs in 40 samples @07:05:74
3 | (406/414) Accurately ripped, or (5/414) differs in 15 samples @08:56:69
4 | (406/414) Accurately ripped, or (5/414) differs in 20 samples @10:59:26
5 | (405/414) Accurately ripped, or (5/414) differs in 39 samples @09:35:52-09:35:53
[AccurateRip ID: 00081931-00271c1d-370a7a05] found.
Track [ CRC | V2 ] Status
01 [55637e5b|b36b3a08] (000+004/285) Accurately ripped
02 [79e4809d|0f9b7ee5] (000+004/286) Accurately ripped
03 [0e4ee9bc|be5f01a8] (000+004/284) Accurately ripped
04 [2a543ab5|747a9d89] (000+004/287) Accurately ripped
05 [4d65a2bc|fd974a64] (000+004/282) Accurately ripped
Offsetted by -670:
01 [2c3e0bc5] (003/285) Accurately ripped
02 [5fe9623d] (003/286) Accurately ripped
03 [2a2b08c5] (003/284) Accurately ripped
04 [1462251d] (003/287) Accurately ripped
05 [b73c3002] (003/282) Accurately ripped
Offsetted by -50:
01 [3066b3b8] (028/285) Accurately ripped
02 [0bc54e1f] (028/286) Accurately ripped
03 [14577455] (028/284) Accurately ripped
04 [f615dcc8] (029/287) Accurately ripped
05 [f70484b2] (028/282) Accurately ripped
Offsetted by 6:
01 [8e30be55] (099/285) Accurately ripped
02 [0f331d80] (099/286) Accurately ripped
03 [73fa2dfb] (098/284) Accurately ripped
04 [4ca711a9] (099/287) Accurately ripped
05 [3150da0f] (096/282) Accurately ripped
Offsetted by -6:
01 [07180e08] (000/285) No match (V2 was not tested)
02 [ebd2883c] (000/286) No match (V2 was not tested)
03 [34c1fc04] (000/284) No match (V2 was not tested)
04 [b87c6386] (000/287) No match (V2 was not tested)
05 [0fba6b8d] (000/282) No match (V2 was not tested)
Offsetted by 12:
01 [e2773181] (003/285) Accurately ripped
02 [79cab2d5] (003/286) Accurately ripped
03 [542411a6] (003/284) Accurately ripped
04 [bd68e85f] (003/287) Accurately ripped
05 [bd5e6b9c] (000/282) No match (V2 was not tested)

Track Peak [ CRC32 ] [W/O NULL] [ LOG ]
– 100,0 [B428081B] [BD3969F0] CRC32
01 100,0 [F7502A42] [FC30DBC6]
02 100,0 [41C7AE8F] [FA4C4562]
03 100,0 [730BEDD3] [0B715044]
04 100,0 [57D0A51E] [DE56D7FA]
05 100,0 [398ADE9B] [D9225C5E]

Thanks to Vilenia

See also:
Riverside - Shrine of New Gene...s (2013) [2CD Limited Edition]
Lunatic Soul - 3 Studio Albums (2008-2011)