Subcategories
Tags
Language
Tags

Riverside - Eye Of The Soundscape (2016) (Repost)

Posted By: gribovar
Riverside - Eye Of The Soundscape (2016) (Repost)

Riverside - Eye Of The Soundscape (2016)
EAC Rip | FLAC (image+.cue+log) - 552 MB | MP3 CBR 320 kbps (LAME 3.93) - 241 MB | Covers - 79 MB
Genre: Progressive Rock, Electronic | RAR 3% Rec. | Label: Mystic Production (MYSTCD303)

Riverside emerge from tragedy with a collection of past experiments and new creations, for fans and newcomers alike.
Riverside have been thrown into major transitions during recent years. 2015 saw the release of their most successful album yet, Love, Fear, and the Time Machine, displaying their most melodic and accessible side beautifully. They were subsequently prepared to participate in tours across Europe and the U.S. These long-deserved triumphs for one of the finest modern progressive rock bands only add an extra layer of sadness to the passing away of guitarist Piotr Grudziński earlier that year. Riverside's remaining three members responded by pouring their hearts into what we now have here, the sprawling Eye of the Soundscape. The band have emerged from tragedy at the height of their popularity with an epic, diverse compilation of instrumental explorations that pay tribute to their fallen brethren while looking ahead to the band’s future.
The remaining trio has stated that they will continue onward as a band without replacing Grudziński.

CD 1 Tracklist:
01. Where the River Flows
02. Shine
03. Rapid Eye Movement (2016 mix)
04. Night Session - Part One
05. Night Session - Part Two

Total time: 50:02

CD 2 Tracklist:
01. Sleepwalkers
02. Rainbow Trip (2016 mix)
03. Heavenland
04. Return
05. Aether
06. Machines
07. Promise
08. Eye of the Soundscape

Total time: 52:25

Exact Audio Copy V1.0 beta 2 from 29. April 2011

EAC extraction logfile from 23. October 2016, 13:11

Riverside / Eye Of The Soundscape (CD1)

Used drive : ASUS DRW-24B3ST Adapter: 0 ID: 0

Read mode : Secure
Utilize accurate stream : Yes
Defeat audio cache : Yes
Make use of C2 pointers : No

Read offset correction : 6
Overread into Lead-In and Lead-Out : No
Fill up missing offset samples with silence : Yes
Delete leading and trailing silent blocks : No
Null samples used in CRC calculations : Yes
Used interface : Native Win32 interface for Win NT & 2000

Used output format : User Defined Encoder
Selected bitrate : 1024 kBit/s
Quality : High
Add ID3 tag : No
Command line compressor : C:\Program Files (x86)\Exact Audio Copy\Flac\flac.exe
Additional command line options : -8 -V -T "ARTIST=%artist%" -T "TITLE=%title%" -T "ALBUM=%albumtitle%" -T "DATE=%year%" -T "TRACKNUMBER=%tracknr%" -T "TOTALTRACKS=%numtracks%" -T "GENRE=%genre%" -T "ALBUMARTIST=%albumartist%" -T "ALBUM ARTIST=%albumartist%


TOC of the extracted CD

Track | Start | Length | Start sector | End sector
––––––––––––––––––––––––––––-
1 | 0:00.00 | 10:54.15 | 0 | 49064
2 | 10:54.15 | 4:10.39 | 49065 | 67853
3 | 15:04.54 | 12:41.58 | 67854 | 124986
4 | 27:46.37 | 10:40.60 | 124987 | 173046
5 | 38:27.22 | 11:34.46 | 173047 | 225142


Range status and errors

Selected range

Filename D:\Yurek Private\Uploads\RIVERSIDE (2016) - Eye of the Soundscape\CD 1\Riverside - Eye Of The Soundscape (CD1).wav

Peak level 98.7 %
Extraction speed 3.0 X
Range quality 99.9 %
Test CRC CD1CC6B7
Copy CRC CD1CC6B7
Copy OK

No errors occurred


AccurateRip summary

Track 1 not present in database
Track 2 not present in database
Track 3 not present in database
Track 4 not present in database
Track 5 not present in database

None of the tracks are present in the AccurateRip database

End of status report

==== Log checksum E64FEAF61F60141CF58913CFA5CD7B2D7486492DE96ACC8106EE9E8A5F10CEE2 ====

[CUETools log; Date: 28.04.2020 23:25:33; Version: 2.1.4]
[CTDB TOCID: dRzUxDlchEJNmMpHaJDWekuvN.s-] found.
Track | CTDB Status
1 | (402/404) Accurately ripped
2 | (401/404) Accurately ripped
3 | (401/404) Accurately ripped
4 | (401/404) Accurately ripped
5 | (400/404) Accurately ripped
[AccurateRip ID: 0009c460-002e0c06-450bb905] found.
Track [ CRC | V2 ] Status
01 [987c432e|a14c59a0] (00+43/89) Accurately ripped
02 [7243038d|5b82880d] (00+43/88) Accurately ripped
03 [2f4b3eb9|3fde41d1] (00+43/88) Accurately ripped
04 [caa4faa6|98f909d6] (00+42/87) Accurately ripped
05 [5c4d96d4|4b982a76] (00+42/87) Accurately ripped
Offsetted by -12:
01 [b3bb7ef2] (02/89) Accurately ripped
02 [8c754c01] (02/88) Accurately ripped
03 [ff1922f1] (02/88) Accurately ripped
04 [dcd4fe52] (02/87) Accurately ripped
05 [d5439ea8] (02/87) Accurately ripped
Offsetted by -18:
01 [415b1cd4] (00/89) No match (V2 was not tested)
02 [198e703b] (00/88) No match (V2 was not tested)
03 [6700150d] (00/88) No match (V2 was not tested)
04 [e5ed0028] (00/87) No match (V2 was not tested)
05 [11bea292] (00/87) No match (V2 was not tested)

Track Peak [ CRC32 ] [W/O NULL] [ LOG ]
– 98,7 [CD1CC6B7] [90241D13] CRC32
01 98,7 [7BDCE732] [5EDDEDB7]
02 98,7 [3C20F6FE] [AF5FE416]
03 98,7 [EDD669D2] [601AB0A5]
04 98,7 [0D51A118] [52D7F1E1]
05 98,7 [E7FB1A09] [5ED224CB]

Exact Audio Copy V1.0 beta 2 from 29. April 2011

EAC extraction logfile from 23. October 2016, 14:03

Riverside / Eye Of The Soundscape (CD2)

Used drive : ASUS DRW-24B3ST Adapter: 0 ID: 0

Read mode : Secure
Utilize accurate stream : Yes
Defeat audio cache : Yes
Make use of C2 pointers : No

Read offset correction : 6
Overread into Lead-In and Lead-Out : No
Fill up missing offset samples with silence : Yes
Delete leading and trailing silent blocks : No
Null samples used in CRC calculations : Yes
Used interface : Native Win32 interface for Win NT & 2000

Used output format : User Defined Encoder
Selected bitrate : 1024 kBit/s
Quality : High
Add ID3 tag : No
Command line compressor : C:\Program Files (x86)\Exact Audio Copy\Flac\flac.exe
Additional command line options : -8 -V -T "ARTIST=%artist%" -T "TITLE=%title%" -T "ALBUM=%albumtitle%" -T "DATE=%year%" -T "TRACKNUMBER=%tracknr%" -T "TOTALTRACKS=%numtracks%" -T "GENRE=%genre%" -T "ALBUMARTIST=%albumartist%" -T "ALBUM ARTIST=%albumartist%


TOC of the extracted CD

Track | Start | Length | Start sector | End sector
––––––––––––––––––––––––––––-
1 | 0:00.00 | 7:20.02 | 0 | 33001
2 | 7:20.02 | 6:20.04 | 33002 | 61505
3 | 13:40.06 | 5:00.43 | 61506 | 84048
4 | 18:40.49 | 6:50.50 | 84049 | 114848
5 | 25:31.24 | 8:44.34 | 114849 | 154182
6 | 34:15.58 | 3:54.16 | 154183 | 171748
7 | 38:09.74 | 2:44.47 | 171749 | 184095
8 | 40:54.46 | 11:29.71 | 184096 | 235841


Range status and errors

Selected range

Filename D:\Yurek Private\Uploads\RIVERSIDE (2016) - Eye of the Soundscape\CD 2\Riverside - Eye Of The Soundscape (CD2).wav

Peak level 98.7 %
Extraction speed 3.1 X
Range quality 100.0 %
Test CRC B51F6166
Copy CRC B51F6166
Copy OK

No errors occurred


AccurateRip summary

Track 1 not present in database
Track 2 not present in database
Track 3 not present in database
Track 4 not present in database
Track 5 not present in database
Track 6 not present in database
Track 7 not present in database
Track 8 not present in database

None of the tracks are present in the AccurateRip database

End of status report

==== Log checksum 4A891FFE2D70825F9405FDE86A4E68CFF0DE8863B06110041C3C1DBDD926527C ====

[CUETools log; Date: 28.04.2020 23:26:20; Version: 2.1.4]
[CTDB TOCID: bouwiGBL7l9wiglxr9nDlLhNVO0-] found.
Track | CTDB Status
1 | (397/397) Accurately ripped
2 | (397/397) Accurately ripped
3 | (397/397) Accurately ripped
4 | (395/397) Accurately ripped
5 | (396/397) Accurately ripped
6 | (397/397) Accurately ripped
7 | (397/397) Accurately ripped
8 | (396/397) Accurately ripped
[AccurateRip ID: 000fdbac-00690943-570c4808] found.
Track [ CRC | V2 ] Status
01 [cc5a3f6d|54009c4f] (00+42/89) Accurately ripped
02 [33e4f3d0|ade02888] (00+42/89) Accurately ripped
03 [1c572b39|fcadd284] (00+41/88) Accurately ripped
04 [351507eb|30aaaf5c] (00+41/88) Accurately ripped
05 [4af4ec61|855043ab] (00+41/88) Accurately ripped
06 [6d17fa33|fb26288a] (00+41/88) Accurately ripped
07 [dd18dc22|4aad433a] (00+41/88) Accurately ripped
08 [a543b6ea|911a31ea] (00+42/89) Accurately ripped
Offsetted by -12:
01 [0d3eae1d] (02/89) Accurately ripped
02 [9e03e084] (02/89) Accurately ripped
03 [2916cd61] (02/88) Accurately ripped
04 [5034a7df] (02/88) Accurately ripped
05 [47d05181] (02/88) Accurately ripped
06 [40bc829f] (02/88) Accurately ripped
07 [06f3f8ca] (02/88) Accurately ripped
08 [9266e8aa] (02/89) Accurately ripped
Offsetted by -18:
01 [2db0e575] (00/89) No match (V2 was not tested)
02 [d31356de] (00/89) No match (V2 was not tested)
03 [2f769e75] (00/88) No match (V2 was not tested)
04 [ddc477d9] (00/88) No match (V2 was not tested)
05 [c63e0411] (00/88) No match (V2 was not tested)
06 [2a8ec6d5] (00/88) No match (V2 was not tested)
07 [1be1871e] (00/88) No match (V2 was not tested)
08 [08f8818a] (00/89) No match (V2 was not tested)

Track Peak [ CRC32 ] [W/O NULL] [ LOG ]
– 98,7 [B51F6166] [774E3D6B] CRC32
01 98,7 [BDC8EDF2] [4A565528]
02 98,7 [09E4F226] [29CE5FEB]
03 98,7 [FF087D84] [577F4F4B]
04 98,7 [BCF8BE95] [A462CA6F]
05 98,7 [64D9342C] [945FA21C]
06 98,7 [E357A42A] [91228EE7]
07 98,7 [127B3B54] [9D0B87FF]
08 98,7 [9AA331D4] [138F16C7]

Thanks to ayurek

See also: