Subcategories
Tags
Language
Tags

Riverside - Memories in My Head [EP] (2011) (Repost)

Posted By: gribovar
Riverside - Memories in My Head [EP] (2011) (Repost)

Riverside - Memories in My Head [EP] (2011)
EAC Rip | FLAC (image+.cue+log) - 211 MB | MP3 CBR 320 kbps (LAME 3.93) - 76 MB | Covers - 48 MB
Genre: Progressive Rock/Metal | RAR 3% Rec. | Label: ProgTeam (PT_004)

Riverside is the top selling progressive rock band from Poland. They have performed at all the major prog festivals in North America and Europe. Extensive touring as a headliner and as a support act for Dream Theater has solidified their place in the progressive rock pantheon while establishing a foothold with metal fans as well. To commemorate their 10th anniversary, Riverside has recorded a new 3 song mini-album. This 33 minute work consists of three long tracks that segue into one cohesive whole. Stylistically it’s a return to the spacier melancholy sound of their debut "Out Of Myself". Memories In My Head is musical rollercoaster ride of deep emotional power. Recommended to fans of Porcupine Tree, Pink Floyd, and Anathema.

Tracklist:
01. Goodbye Sweet Innocence
02. Living in the Past
03. Forgotten Land

Total time: 32:36

Exact Audio Copy V1.0 beta 3 from 29. August 2011

EAC extraction logfile from 3. June 2012, 21:26

Riverside / Memories in My Head (EP)

Used drive : HL-DT-STDVDRAM GSA-H12N Adapter: 0 ID: 0

Read mode : Secure
Utilize accurate stream : Yes
Defeat audio cache : Yes
Make use of C2 pointers : No

Read offset correction : 667
Overread into Lead-In and Lead-Out : No
Fill up missing offset samples with silence : Yes
Delete leading and trailing silent blocks : No
Null samples used in CRC calculations : Yes
Used interface : Native Win32 interface for Win NT & 2000

Used output format : User Defined Encoder
Selected bitrate : 1024 kBit/s
Quality : High
Add ID3 tag : No
Command line compressor : C:\Program Files (x86)\Exact Audio Copy\FLAC\FLAC.EXE
Additional command line options : -6 -V -T "ARTIST=%artist%" -T "TITLE=%title%" -T "ALBUM=%albumtitle%" -T "DATE=%year%" -T "TRACKNUMBER=%tracknr%" -T "GENRE=%genre%" -T "COMMENT=%comment%" -T "BAND=%albuminterpret%" -T "ALBUMARTIST=%albuminterpret%" -T "COMPOSER=%composer%" %haslyrics%–tag-from-file=LYRICS="%lyricsfile%"%haslyrics% -T "DISCNUMBER=%cdnumber%" -T "TOTALDISCS=%totalcds%" -T "TOTALTRACKS=%numtracks%" %hascover%–picture="%coverfile%"%hascover% %source% -o %dest%


TOC of the extracted CD

Track | Start | Length | Start sector | End sector
––––––––––––––––––––––––––––-
1 | 0:00.00 | 10:39.71 | 0 | 47995
2 | 10:39.71 | 11:58.36 | 47996 | 101881
3 | 22:38.32 | 9:57.21 | 101882 | 146677


Range status and errors

Selected range

Filename E:\upload\Riverside - Memories in My Head (EP).wav

Peak level 98.8 %
Extraction speed 4.1 X
Range quality 100.0 %
Copy CRC 2922893B
Copy OK

No errors occurred


AccurateRip summary

Track 1 accurately ripped (confidence 13) [91542ACA] (AR v2)
Track 2 accurately ripped (confidence 13) [FB5A462E] (AR v2)
Track 3 accurately ripped (confidence 11) [6D4E4542] (AR v2)

All tracks accurately ripped

End of status report

==== Log checksum 33EEE00A33C3F87D1386F9EA1FF17124C581189B01AFEC21ACE6F513AD690F1A ====

[CUETools log; Date: 05.04.2020 17:35:57; Version: 2.1.4]
[CTDB TOCID: cZ09qsDbx1LruVDFdMiYzBlTx.g-] found.
Track | CTDB Status
1 | (137/140) Accurately ripped
2 | (137/140) Accurately ripped
3 | (136/140) Accurately ripped
[AccurateRip ID: 0004866c-000f14bf-1707a303] found.
Track [ CRC | V2 ] Status
01 [48f3275b|91542aca] (24+54/78) Accurately ripped
02 [8ade065b|fb5a462e] (24+54/78) Accurately ripped
03 [22db96ac|6d4e4542] (24+51/75) Accurately ripped

Track Peak [ CRC32 ] [W/O NULL] [ LOG ]
– 98,8 [2922893B] [65379CC2] CRC32
01 98,7 [CEFE7064] [8B65E252]
02 98,8 [97ED1B8A] [BA46CB12]
03 98,6 [B0076C52] [A060C87A]

Thanks to michuu66

See also:
Riverside - Anno Domini High Definition (2009)
Riverside - Shrine of New Gene...s (2013) [2CD Limited Edition]
Riverside - Wasteland (2018) [2CD Special Edition 2019]
Lunatic Soul - 3 Studio Albums (2008-2011)
Lunatic Soul - Walking on a Flashlight Beam (2014)