Subcategories
Tags
Language
Tags

Riverside - Wasteland (2018) [2CD Special Edition 2019]

Posted By: gribovar
Riverside - Wasteland (2018) [2CD Special Edition 2019]

Riverside - Wasteland (2018) [2CD Special Edition 2019]
EAC Rip | FLAC (image+.cue+log) - 468 MB | MP3 CBR 320 kbps (LAME 3.93) - 183 MB | Covers - 149 MB
Genre: Progressive Rock/Metal | RAR 3% Rec. | Label: InsideOut Music (IOMSECD 514)

An expanded 2CD edition of Riverside's seventh studio album, Wasteland (from 2018). The band's first as a trio following the tragic death of co-founder and guitarist Piotr Grudziński in 2016, it represented a new beginning and a new creative height. This edition contains five previously unreleased acoustic tracks/versions on a separate disc.

CD 1 Tracklist:
01. The Day After
02. Acid Rain
03. Vale of Tears
04. Guardian Angel
05. Lament
06. The Struggle for Survival
07. River Down Below
08. Wasteland
09. The Night Before

Total time: 50:56

CD 2 Tracklist (Acoustic Session):
01. Vale of Tears (acoustic)
02. Out of Myself (acoustic)
03. 02 Panic Room (acoustic)
04. River Down Below (acoustic)
05. Wasteland (Live intro)

Total time: 26:46

Exact Audio Copy V1.3 from 2. September 2016

EAC extraction logfile from 30. November 2019, 23:18

Riverside / Wasteland - Digipak Ed. CD1

Used drive : ASUS DRW-24D5MT Adapter: 1 ID: 0

Read mode : Secure
Utilize accurate stream : Yes
Defeat audio cache : Yes
Make use of C2 pointers : No

Read offset correction : 6
Overread into Lead-In and Lead-Out : No
Fill up missing offset samples with silence : Yes
Delete leading and trailing silent blocks : No
Null samples used in CRC calculations : Yes
Used interface : Native Win32 interface for Win NT & 2000

Used output format : User Defined Encoder
Selected bitrate : 768 kBit/s
Quality : High
Add ID3 tag : No
Command line compressor : C:\Program Files (x86)\Exact Audio Copy\FLAC\FLAC.EXE
Additional command line options : -6 -V -T "ARTIST=%artist%" -T "TITLE=%title%" -T "ALBUM=%albumtitle%" -T "DATE=%year%" -T "TRACKNUMBER=%tracknr%" -T "GENRE=%genre%" -T "COMMENT=%comment%" -T "BAND=%albuminterpret%" -T "ALBUMARTIST=%albuminterpret%" -T "COMPOSER=%composer%" %haslyrics%–tag-from-file=LYRICS="%lyricsfile%"%haslyrics% -T "DISCNUMBER=%cdnumber%" -T "TOTALDISCS=%totalcds%" -T "TOTALTRACKS=%numtracks%" %hascover%–picture="%coverfile%"%hascover% %source% -o %dest%


TOC of the extracted CD

Track | Start | Length | Start sector | End sector
––––––––––––––––––––––––––––-
1 | 0:00.00 | 1:48.16 | 0 | 8115
2 | 1:48.16 | 6:02.72 | 8116 | 35337
3 | 7:51.13 | 4:48.50 | 35338 | 56987
4 | 12:39.63 | 4:24.04 | 56988 | 76791
5 | 17:03.67 | 6:10.65 | 76792 | 104606
6 | 23:14.57 | 9:31.58 | 104607 | 147489
7 | 32:46.40 | 5:43.02 | 147490 | 173216
8 | 38:29.42 | 8:27.34 | 173217 | 211275
9 | 46:57.01 | 3:58.48 | 211276 | 229173


Range status and errors

Selected range

Filename E:\Música\EAC\Riverside\Riverside - Wasteland - Digipak Ed. CD1.wav

Peak level 98.7 %
Extraction speed 6.1 X
Range quality 100.0 %
Test CRC E28BEDF4
Copy CRC E28BEDF4
Copy OK

No errors occurred


AccurateRip summary

Track 1 accurately ripped (confidence 39) [579BB3A5] (AR v2)
Track 2 accurately ripped (confidence 39) [A9355480] (AR v2)
Track 3 accurately ripped (confidence 39) [1394B806] (AR v2)
Track 4 accurately ripped (confidence 39) [BA0FC735] (AR v2)
Track 5 accurately ripped (confidence 39) [52E6A7F5] (AR v2)
Track 6 accurately ripped (confidence 39) [4923D129] (AR v2)
Track 7 accurately ripped (confidence 39) [3B3BAEF1] (AR v2)
Track 8 accurately ripped (confidence 39) [2047022A] (AR v2)
Track 9 accurately ripped (confidence 38) [FA783BFB] (AR v2)

All tracks accurately ripped

End of status report

–– CUETools DB Plugin V2.1.6

[CTDB TOCID: PWeOEl_AboClpqL656.VxgI6sNs-] found
Submit result: PWeOEl_AboClpqL656.VxgI6sNs- has been confirmed
Track | CTDB Status
1 | (496/499) Accurately ripped
2 | (498/499) Accurately ripped
3 | (498/499) Accurately ripped
4 | (498/499) Accurately ripped
5 | (498/499) Accurately ripped
6 | (498/499) Accurately ripped
7 | (497/499) Accurately ripped
8 | (498/499) Accurately ripped
9 | (494/499) Accurately ripped, or (4/499) differs in 139 samples @03:58:28-03:58:31


==== Log checksum 9B52E0F281EEC5B9B7BF7774B36C7C9DBDEFADB88F1F25C35E9E5594C90180A6 ====

[CUETools log; Date: 03.12.2019 15:59:02; Version: 2.1.4]
[CTDB TOCID: PWeOEl_AboClpqL656.VxgI6sNs-] found.
Track | CTDB Status
1 | (502/505) Accurately ripped
2 | (504/505) Accurately ripped
3 | (504/505) Accurately ripped
4 | (504/505) Accurately ripped
5 | (504/505) Accurately ripped
6 | (504/505) Accurately ripped
7 | (503/505) Accurately ripped
8 | (504/505) Accurately ripped
9 | (500/505) Accurately ripped, or (4/505) differs in 139 samples @03:58:28-03:58:31
[AccurateRip ID: 000fea36-0079a947-6e0bef09] found.
Track [ CRC | V2 ] Status
01 [a0bfa103|579bb3a5] (00+39/76) Accurately ripped
02 [57d5996b|a9355480] (00+39/77) Accurately ripped
03 [9b43bd98|1394b806] (00+39/77) Accurately ripped
04 [ab0cd470|ba0fc735] (00+39/77) Accurately ripped
05 [423ff01c|52e6a7f5] (00+39/77) Accurately ripped
06 [8847ead7|4923d129] (00+39/77) Accurately ripped
07 [18f82b64|3b3baef1] (00+39/77) Accurately ripped
08 [0e34d032|2047022a] (00+39/77) Accurately ripped
09 [7e24ce24|fa783bfb] (00+38/75) Accurately ripped
Offsetted by 12:
01 [7848f223] (00/76) No match (V2 was not tested)
02 [75e76603] (00/77) No match (V2 was not tested)
03 [6955c924] (00/77) No match (V2 was not tested)
04 [26c80fd8] (00/77) No match (V2 was not tested)
05 [5c980e2c] (00/77) No match (V2 was not tested)
06 [90a4f56f] (00/77) No match (V2 was not tested)
07 [ee325ea8] (00/77) No match (V2 was not tested)
08 [c35bd536] (00/77) No match (V2 was not tested)
09 [e2c240ec] (00/75) No match (V2 was not tested)

Track Peak [ CRC32 ] [W/O NULL] [ LOG ]
– 98,7 [E28BEDF4] [8881F3E9] CRC32
01 98,7 [26EEEAB5] [4A9453F5]
02 98,7 [CA01D482] [802943B5]
03 98,7 [33DA5CB3] [5458F381]
04 98,7 [F9A1484D] [4C11B914]
05 98,7 [BEBCC6B5] [C60C2E8D]
06 98,7 [CB06BF3E] [951B1B34]
07 98,7 [D3C89A31] [1BA87D92]
08 98,7 [86DA3FAC] [795E41F1]
09 98,7 [65661C88] [F9A5459F]

Exact Audio Copy V1.3 from 2. September 2016

EAC extraction logfile from 30. November 2019, 22:26

Riverside / Wasteland - Digipak Ed. CD2

Used drive : ASUS DRW-24D5MT Adapter: 1 ID: 0

Read mode : Secure
Utilize accurate stream : Yes
Defeat audio cache : Yes
Make use of C2 pointers : No

Read offset correction : 6
Overread into Lead-In and Lead-Out : No
Fill up missing offset samples with silence : Yes
Delete leading and trailing silent blocks : No
Null samples used in CRC calculations : Yes
Used interface : Native Win32 interface for Win NT & 2000

Used output format : User Defined Encoder
Selected bitrate : 768 kBit/s
Quality : High
Add ID3 tag : No
Command line compressor : C:\Program Files (x86)\Exact Audio Copy\FLAC\FLAC.EXE
Additional command line options : -6 -V -T "ARTIST=%artist%" -T "TITLE=%title%" -T "ALBUM=%albumtitle%" -T "DATE=%year%" -T "TRACKNUMBER=%tracknr%" -T "GENRE=%genre%" -T "COMMENT=%comment%" -T "BAND=%albuminterpret%" -T "ALBUMARTIST=%albuminterpret%" -T "COMPOSER=%composer%" %haslyrics%–tag-from-file=LYRICS="%lyricsfile%"%haslyrics% -T "DISCNUMBER=%cdnumber%" -T "TOTALDISCS=%totalcds%" -T "TOTALTRACKS=%numtracks%" %hascover%–picture="%coverfile%"%hascover% %source% -o %dest%


TOC of the extracted CD

Track | Start | Length | Start sector | End sector
––––––––––––––––––––––––––––-
1 | 0:00.00 | 5:18.73 | 0 | 23922
2 | 5:18.73 | 3:58.04 | 23923 | 41776
3 | 9:17.02 | 3:26.65 | 41777 | 57291
4 | 12:43.67 | 5:02.00 | 57292 | 79941
5 | 17:45.67 | 9:00.31 | 79942 | 120472


Range status and errors

Selected range

Filename E:\Música\EAC\Riverside\Riverside - Wasteland - Digipak Ed. CD2.wav

Peak level 98.7 %
Extraction speed 1.5 X
Range quality 100.0 %
Test CRC 063E8068
Copy CRC 063E8068
Copy OK

No errors occurred


AccurateRip summary

Track 1 not present in database
Track 2 not present in database
Track 3 not present in database
Track 4 not present in database
Track 5 not present in database

None of the tracks are present in the AccurateRip database

End of status report

–– CUETools DB Plugin V2.1.6

[CTDB TOCID: .rfdPm8ABguYEW2t9ysBPg2wP0U-] found
Submit result: .rfdPm8ABguYEW2t9ysBPg2wP0U- has been confirmed
Track | CTDB Status
1 | (3/3) Accurately ripped
2 | (3/3) Accurately ripped
3 | (3/3) Accurately ripped
4 | (3/3) Accurately ripped
5 | (3/3) Accurately ripped


==== Log checksum DC2C5DAF1F7CF1814571622E8C9C9110B8638D339FF7B337B27D88583DC7A328 ====

[CUETools log; Date: 03.12.2019 15:59:21; Version: 2.1.4]
[CTDB TOCID: .rfdPm8ABguYEW2t9ysBPg2wP0U-] found.
Track | CTDB Status
1 | (12/12) Accurately ripped
2 | (12/12) Accurately ripped
3 | (12/12) Accurately ripped
4 | (12/12) Accurately ripped
5 | (12/12) Accurately ripped
[AccurateRip ID: 0004ef4f-0017449e-3a064605] disk not present in database.

Track Peak [ CRC32 ] [W/O NULL] [ LOG ]
– 98,7 [063E8068] [7FAED404] CRC32
01 98,7 [585BAB9C] [18AC5353]
02 98,7 [00346FA3] [AA682D58]
03 98,7 [E169D9C3] [29A0C5C2]
04 98,7 [05E857E8] [C65CDD2D]
05 98,7 [E8153449] [F6F8E962]

Thanks to jarpomarx

See also:
Riverside - Anno Domini High Definition (2009)
Riverside - Shrine of New Gene...s (2013) [2CD Limited Edition]
Lunatic Soul - 3 Studio Albums (2008-2011)