Subcategories

VA - Riddim CD 04 (2006) {Riddim magazine}

Posted By: TestTickles
VA - Riddim CD 04 (2006) {Riddim magazine}

VA - Riddim CD 04 (2006) {Riddim magazine}
EAC Rip | FLAC with CUE and log | scans | 390 mb
MP3 CBR 320kbps | RAR | 155 mb
Genre: reggae, dancehall

This is the sampler CD that came with a German-based reggae/dancehall magazine called Riddim. The magazine is now available in English, and this is from the 4th English edition. The "Dub Plate Mix" by Heartical Sound is exclusive to this CD.

VA - Riddim CD 04 (2006) {Riddim magazine}

01. Million Stylez - Miss Fatty
02. YT - England Story
03. OSSBoss - Bossplayer Megamix
04. DYCR & Macka Diamond - Confrontation
05. Tanya Stephens - These Streets
06. Fragga Ranks - Things Kina Funny
07. Jah Mason & Lukie D - Burning Love
08. Anthony B. - One God
09. Nasio Fontaine - Show Me
10. Sound Trooper - Death Before Dishonour 2006
11. Heartical Sound - Dub Plate Mix
12. Rob Symeonn - The Chosen One
13. Tony Tuff - Yuh Name Weh Yuh Name
14. Dub Syndicate - Dubbing Is A Must (Rob Smith Mix)

VA - Riddim CD 04 (2006) {Riddim magazine}


EAC extraction logfile from 26. February 2007, 19:29 for CD
Various / Riddim CD #04

Used drive : LITE-ON DVDRW SOHW-1633S Adapter: 0 ID: 0
Read mode : Secure with NO C2, accurate stream, disable cache
Read offset correction : 12
Overread into Lead-In and Lead-Out : No

Used output format : Internal WAV Routines
44.100 Hz; 16 Bit; Stereo

Other options :
Fill up missing offset samples with silence : Yes
Delete leading and trailing silent blocks : No
Installed external ASPI interface


Track 1
Filename D:\FLAC\VA - Riddim CD 04 (2006) [FLAC] {Riddim magazine}\01 - Million Stylez - Miss Fatty.wav

Pre-gap length 0:00:02.00

Peak level 100.0 %
Track quality 100.0 %
Test CRC 06DF02FD
Copy CRC 06DF02FD
Copy OK

Track 2
Filename D:\FLAC\VA - Riddim CD 04 (2006) [FLAC] {Riddim magazine}\02 - YT - England Story.wav

Pre-gap length 0:00:02.00

Peak level 98.9 %
Track quality 99.9 %
Test CRC D6095779
Copy CRC D6095779
Copy OK

Track 3
Filename D:\FLAC\VA - Riddim CD 04 (2006) [FLAC] {Riddim magazine}\03 - OSSBoss - Bossplayer Megamix.wav

Pre-gap length 0:00:02.00

Peak level 89.1 %
Track quality 99.9 %
Test CRC C9178FEA
Copy CRC C9178FEA
Copy OK

Track 4
Filename D:\FLAC\VA - Riddim CD 04 (2006) [FLAC] {Riddim magazine}\04 - DYCR & Macka Diamond - Confrontation.wav

Pre-gap length 0:00:02.00

Peak level 100.0 %
Track quality 100.0 %
Test CRC 65D89E31
Copy CRC 65D89E31
Copy OK

Track 5
Filename D:\FLAC\VA - Riddim CD 04 (2006) [FLAC] {Riddim magazine}\05 - Tanya Stephens - These Streets.wav

Pre-gap length 0:00:02.00

Peak level 98.8 %
Track quality 100.0 %
Test CRC 05213910
Copy CRC 05213910
Copy OK

Track 6
Filename D:\FLAC\VA - Riddim CD 04 (2006) [FLAC] {Riddim magazine}\06 - Fragga Ranks - Things Kina Funny.wav

Pre-gap length 0:00:02.00

Peak level 98.8 %
Track quality 99.9 %
Test CRC 60C0F5D4
Copy CRC 60C0F5D4
Copy OK

Track 7
Filename D:\FLAC\VA - Riddim CD 04 (2006) [FLAC] {Riddim magazine}\07 - Jah Mason & Lukie D - Burning Love.wav

Pre-gap length 0:00:02.00

Peak level 89.1 %
Track quality 100.0 %
Test CRC 9F2BA050
Copy CRC 9F2BA050
Copy OK

Track 8
Filename D:\FLAC\VA - Riddim CD 04 (2006) [FLAC] {Riddim magazine}\08 - Anthony B. - One God.wav

Pre-gap length 0:00:02.00

Peak level 89.1 %
Track quality 99.9 %
Test CRC 3186C73B
Copy CRC 3186C73B
Copy OK

Track 9
Filename D:\FLAC\VA - Riddim CD 04 (2006) [FLAC] {Riddim magazine}\09 - Nasio Fontaine - Show Me.wav

Pre-gap length 0:00:02.00

Peak level 100.0 %
Track quality 100.0 %
Test CRC 7A84CCA9
Copy CRC 7A84CCA9
Copy OK

Track 10
Filename D:\FLAC\VA - Riddim CD 04 (2006) [FLAC] {Riddim magazine}\10 - Sound Trooper - Death Before Dishonour 2006.wav

Pre-gap length 0:00:02.00

Peak level 97.7 %
Track quality 100.0 %
Test CRC F5682DBB
Copy CRC F5682DBB
Copy OK

Track 11
Filename D:\FLAC\VA - Riddim CD 04 (2006) [FLAC] {Riddim magazine}\11 - Heartical Sound - Dub Plate Mix.wav

Pre-gap length 0:00:02.00

Peak level 84.7 %
Track quality 100.0 %
Test CRC E6969DA5
Copy CRC E6969DA5
Copy OK

Track 12
Filename D:\FLAC\VA - Riddim CD 04 (2006) [FLAC] {Riddim magazine}\12 - Rob Symeonn - The Chosen One.wav

Pre-gap length 0:00:02.00

Peak level 88.1 %
Track quality 100.0 %
Test CRC AEADB863
Copy CRC AEADB863
Copy OK

Track 13
Filename D:\FLAC\VA - Riddim CD 04 (2006) [FLAC] {Riddim magazine}\13 - Tony Tuff - Yuh Name Weh Yuh Name.wav

Pre-gap length 0:00:02.00

Peak level 97.7 %
Track quality 100.0 %
Test CRC 4E7F06BC
Copy CRC 4E7F06BC
Copy OK

Track 14
Filename D:\FLAC\VA - Riddim CD 04 (2006) [FLAC] {Riddim magazine}\14 - Dub Syndicate - Dubbing Is A Must (Rob Smith Mix).wav

Pre-gap length 0:00:02.00

Peak level 98.8 %
Track quality 100.0 %
Test CRC 94944758
Copy CRC 94944758
Copy OK

No errors occured


End of status report


VA - Riddim CD 04 (2006) {Riddim magazine}