Subcategories

VA - Riddim CD 06 (2006) {Riddim magazine}

Posted By: TestTickles
VA - Riddim CD 06 (2006) {Riddim magazine}

VA - Riddim CD 06 (2006) {Riddim magazine}
EAC Rip | FLAC with CUE and log | scans | 497 mb
MP3 CBR 320kbps | RAR | 246 mb
Genre: reggae, dancehall, dub

This is the sampler CD that came with a German-based reggae/dancehall magazine called Riddim. The magazine is now available in English, and this is from the 6th English edition.

VA - Riddim CD 06 (2006) {Riddim magazine}

01. Busy Signal featuring Mavado - Badman Place
02. Sly & Robbie featuring Elephant Man - Walk Out
03. Buju Banton - Fast Lane
04. Levysill - Hear & Def
05. Lexie Lee - Keep It Duttyah
06. Twilight Sound System featuring Natural Black - Are You Ready
07. Lustre Kings - Red Razor Megamix by DJ Child Of PGM
08. Irie Ites - Borderline Megamix
09. Michie One - Real Man
10. Sierra Leone's Refugee Allstars - Living Like A Refugee
11. Roger Robin - Take It Slow
12. Culture - Raw Truth
13. Riddim Soundclash Dub Fi Dub - Bass Odyssey vs. LP Int. vs. David Rodigan

VA - Riddim CD 06 (2006) {Riddim magazine}


EAC extraction logfile from 27. February 2007, 15:52 for CD
Various / Riddim CD#06

Used drive : LITE-ON DVDRW SOHW-1633S Adapter: 0 ID: 0
Read mode : Secure with NO C2, accurate stream, disable cache
Read offset correction : 12
Overread into Lead-In and Lead-Out : No

Used output format : Internal WAV Routines
44.100 Hz; 16 Bit; Stereo

Other options :
Fill up missing offset samples with silence : Yes
Delete leading and trailing silent blocks : No
Installed external ASPI interface


Track 1
Filename D:\FLAC\VA - Riddim CD #06 (2006) [FLAC] {Riddim magazine}\01 - Busy Signal featuring Mavado - Badman Place.wav

Pre-gap length 0:00:02.00

Peak level 87.3 %
Track quality 100.0 %
Test CRC 88172CA4
Copy CRC 88172CA4
Copy OK

Track 2
Filename D:\FLAC\VA - Riddim CD #06 (2006) [FLAC] {Riddim magazine}\02 - Sly & Robbie featuring Elephant Man - Walk Out.wav

Pre-gap length 0:00:02.00

Peak level 69.2 %
Track quality 100.0 %
Test CRC 8C3A7A79
Copy CRC 8C3A7A79
Copy OK

Track 3
Filename D:\FLAC\VA - Riddim CD #06 (2006) [FLAC] {Riddim magazine}\03 - Buju Banton - Fast Lane.wav

Pre-gap length 0:00:02.00

Peak level 89.1 %
Track quality 100.0 %
Test CRC 1A5D0937
Copy CRC 1A5D0937
Copy OK

Track 4
Filename D:\FLAC\VA - Riddim CD #06 (2006) [FLAC] {Riddim magazine}\04 - Levysill - Hear & Def.wav

Pre-gap length 0:00:02.00

Peak level 98.8 %
Track quality 100.0 %
Test CRC F550A05B
Copy CRC F550A05B
Copy OK

Track 5
Filename D:\FLAC\VA - Riddim CD #06 (2006) [FLAC] {Riddim magazine}\05 - Lexie Lee - Keep It Duttyah.wav

Pre-gap length 0:00:02.00

Peak level 100.0 %
Track quality 100.0 %
Test CRC 721C39A2
Copy CRC 721C39A2
Copy OK

Track 6
Filename D:\FLAC\VA - Riddim CD #06 (2006) [FLAC] {Riddim magazine}\06 - Twlight Sound System featuring Natural Black - Are You Ready.wav

Pre-gap length 0:00:02.00

Peak level 78.4 %
Track quality 100.0 %
Test CRC A8047A89
Copy CRC A8047A89
Copy OK

Track 7
Filename D:\FLAC\VA - Riddim CD #06 (2006) [FLAC] {Riddim magazine}\07 - Lustre Kings - Red Razor Megamix by DJ Child Of PGM.wav

Pre-gap length 0:00:02.00

Peak level 98.8 %
Track quality 99.9 %
Test CRC 74ECF21F
Copy CRC 74ECF21F
Copy OK

Track 8
Filename D:\FLAC\VA - Riddim CD #06 (2006) [FLAC] {Riddim magazine}\08 - Irie Ites - Borderline Megamix.wav

Pre-gap length 0:00:02.00

Peak level 76.6 %
Track quality 100.0 %
Test CRC 2E5DC6E4
Copy CRC 2E5DC6E4
Copy OK

Track 9
Filename D:\FLAC\VA - Riddim CD #06 (2006) [FLAC] {Riddim magazine}\09 - Michie One - Real Man.wav

Pre-gap length 0:00:02.00

Peak level 63.0 %
Track quality 100.0 %
Test CRC 06F0686E
Copy CRC 06F0686E
Copy OK

Track 10
Filename D:\FLAC\VA - Riddim CD #06 (2006) [FLAC] {Riddim magazine}\10 - Sierra Leone's Refugee Allstars - Living Like A Refugee.wav

Pre-gap length 0:00:02.00

Peak level 100.0 %
Track quality 100.0 %
Test CRC ED751526
Copy CRC ED751526
Copy OK

Track 11
Filename D:\FLAC\VA - Riddim CD #06 (2006) [FLAC] {Riddim magazine}\11 - Roger Robin - Take It Slow.wav

Pre-gap length 0:00:02.00

Peak level 99.9 %
Track quality 100.0 %
Test CRC 8073ECD9
Copy CRC 8073ECD9
Copy OK

Track 12
Filename D:\FLAC\VA - Riddim CD #06 (2006) [FLAC] {Riddim magazine}\12 - Culture - Raw Truth.wav

Pre-gap length 0:00:02.00

Peak level 98.8 %
Track quality 100.0 %
Test CRC 60306F8F
Copy CRC 60306F8F
Copy OK

Track 13
Filename D:\FLAC\VA - Riddim CD #06 (2006) [FLAC] {Riddim magazine}\13 - Riddim Soundclash Dub Fi Dub - Bass Odyssey vs. LP Int. vs. David Rodigan.wav

Pre-gap length 0:00:02.00

Peak level 98.8 %
Track quality 99.9 %
Test CRC 0779534F
Copy CRC 0779534F
Copy OK

No errors occured


End of status report


VA - Riddim CD 06 (2006) {Riddim magazine}