Subcategories

Rob Wasserman - Duets (1988) [1990]

Posted By: mfrwiz
Rob Wasserman - Duets (1988) [1990]

Rob Wasserman - Duets (1988) [1990]
Loseless (Flac Image File + Cue + Log + Audiochecker Log): 206 Mb | EAC Secure Mode Rip | Mp3 (CBR 320 kbps): 113 Mb | Covers
Original Release Date: 1988 - Audio CD (October 25, 1990) - Label: MCA Records - Catalog#: MCAD-42131 - ASIN: B000008CIY
Jazz, Contemporary Jazz

Review: This charming collection of duets features the bass of Rob Wasserman in a variety of different roles, from supportive to lead to orchestral. With the exception of Stephane Grappelli's violin, Lou Reed's guitar and Rickie Lee Jones' guitar and bells/percussion, every sound on this album is bass and voice, demonstrating that these two musical forces can be everything by themselves. My favorites include the joyful Brothers (with Bobby McFerrin), the weighty One For My Baby And One More For The Road (with Lou Reed), the poignant Leonard Cohen song Ballad Of The Runaway Horse (with Jennifer Warnes) and the moving Over The Rainbow (with the violin of Grappelli), quite spectacular instrumental. Stardust (with Aaron Neville) and Gone With The Wind (with Dan Hicks) are quite listenable too, but I don't enjoy Rickie Lee Jones' The Moon Is Made Of Gold, since her nasal whine is too pronounced and her delivery sounds affected and over the top. This is a successful experiment combining the human voice with the bass guitar and it delivers some very soulful sounds. It should appeal to fans of these featured artists and to everyone who loves the bass guitar.
Rob Wasserman - Duets (1988) [1990]

This album, though old, has multiple tracts that help when testing new HI-Fi equipment. Track 2, with Ricki Lee Jones, will bust many a systems ability to take high notes. Buy it, take it to your favorite store and listen to the difference in equipment.
Tracklisting

01 Stardust (4:30)
Vocals - Aaron Neville
02 The Moon Is Made Of Gold (3:38)
Drums, Vocals - Rickie Lee Jones
03 Brothers (4:44)
Vocals - Bobby McFerrin
04 Duet (3:22)
05 One For My Baby (And One More For The Road) (4:01)
Guitar, Vocals - Lou Reed
06 Ballad Of The Runaway Horse (6:45)
Vocals - Jennifer Warnes
07 Gone With The Wind (4:58)
Vocals - Dan Hicks (2)
08 Angel Eyes (4:15)
Vocals - Cheryl Bentyne
09 Over The Rainbow (5:59)
Violin - Stéphane Grappelli
10 Autumn Leaves (4:13)
Vocals - Rickie Lee Jones

Credits

Bass - Rob Wasserman
Producer - Clare Wasserman , Rob Wasserman
Producer [Executive] - Ricky Schulz



Have a nice day.

Exact Audio Copy V0.99 prebeta 4 from 23. January 2008

EAC extraction logfile from 5. May 2009, 13:41

Wasserman Rob / Duets

Used drive : HL-DT-STDVD-ROM GDR8162B Adapter: 4 ID: 1

Read mode : Secure
Utilize accurate stream : Yes
Defeat audio cache : Yes
Make use of C2 pointers : Yes

Read offset correction : 102
Overread into Lead-In and Lead-Out : No
Fill up missing offset samples with silence : Yes
Delete leading and trailing silent blocks : No
Null samples used in CRC calculations : Yes
Used interface : Native Win32 interface for Win NT & 2000

Used output format : User Defined Encoder
Selected bitrate : 128 kBit/s
Quality : High
Add ID3 tag : No
Command line compressor : C:\Programmi\Exact Audio Copy\FLAC\FLAC.EXE
Additional command line options : -5 -V -T "ARTIST=%a" -T "TITLE=%t" -T "ALBUM=%g" -T "DATE=%y" -T "TRACKNUMBER=%n" -T "GENRE=%m" -T "COMMENT=%e" %s -o %d


TOC of the extracted CD

Track | Start | Length | Start sector | End sector
––––––––––––––––––––––––––––-
1 | 0:00.00 | 4:36.70 | 0 | 20769
2 | 4:36.70 | 3:40.70 | 20770 | 37339
3 | 8:17.65 | 4:47.07 | 37340 | 58871
4 | 13:04.72 | 3:27.00 | 58872 | 74396
5 | 16:31.72 | 4:05.08 | 74397 | 92779
6 | 20:37.05 | 6:47.40 | 92780 | 123344
7 | 27:24.45 | 5:11.47 | 123345 | 146716
8 | 32:36.17 | 4:18.73 | 146717 | 166139
9 | 36:55.15 | 6:01.57 | 166140 | 193271
10 | 42:56.72 | 4:16.15 | 193272 | 212486


Range status and errors

Selected range

Filename M:\Musica_3\=Da Condividere\Rob Wasserman - Duets (1988)\Wasserman Rob - Duets.wav

Peak level 97.5 %
Range quality 100.0 %
Copy CRC D9ED895C
Copy OK

No errors occurred


AccurateRip summary

Track 1 accurately ripped (confidence 5) [63577557]
Track 2 accurately ripped (confidence 5) [21AC233B]
Track 3 accurately ripped (confidence 5) [0DFD285A]
Track 4 accurately ripped (confidence 5) [26629A6F]
Track 5 accurately ripped (confidence 5) [7D9301F0]
Track 6 accurately ripped (confidence 5) [117332BA]
Track 7 accurately ripped (confidence 5) [9FBF6B30]
Track 8 accurately ripped (confidence 5) [2C31B08C]
Track 9 accurately ripped (confidence 5) [D03A8345]
Track 10 accurately ripped (confidence 5) [D78F752E]

All tracks accurately ripped

End of status report


AUDIOCHECKER v2.0 beta (build 457) - by Dester - opdester@freemail.hu
~~~~~~~~~~~~~~~~~~~~~~~~~~~~~~~~~~
-=== NON MODIFICARE QUESTO FILE! ===-

Percorso: …\Rob Wasserman - Duets (1988)

1 -=- Wasserman Rob - Duets.flac -=- CDDA (100%)

196678196