Subcategories

Robert Ealey - I Like Music When I Party (1997)

Posted By: Designol
Robert Ealey - I Like Music When I Party (1997)

Robert Ealey - I Like Music When I Party (1997)
EAC | FLAC | Tracks (Cue&Log) ~ 322 Mb | Mp3 (CBR320) ~ 115 Mb | Scans ~ 65 Mb
Genre: Texas Blues | Label: Black Top Records | # CD BT-1138 | Time: 00:50:25

Robert Ealey is no spring chicken. After singing in local Texas bands for years, he finally started recording in the '90s – I Like Music When I Party was the fourth album he cut after starting his recording career. Like the others, it's a greasy colleciton of Texas blues, spiked with a bit of soul. Ealey's voice may be gravelly with age, but it's by no means gone, and with the support of his youthful backing band, he can really bring it home. There's nothing deep here – just party music, played good and simple. Sometimes, that's enough.

Review by Thom Owens, Allmusic.com

Robert Ealey at Allmusic
Robert Ealey at Wiki

Tracklist:

01. Shake Your Butt (04:38)
02. See About Me (03:14)
03. Don't I Love You (04:51)
04. Is Your Bathroom Clean (05:02)
05. Too Many Ways (03:35)
06. Cristena (04:52)
07. Elloise (03:56)
08. Shoo-Bee-Doo (03:45)
09. Graveyard Blues (03:12)
10. When The Lights Go Out (Let's Push It) (05:44)
11. Picture On The Wall (03:39)
12. Wild Wild West (03:53)


Exact Audio Copy V1.0 beta 1 from 15. November 2010

EAC extraction logfile from 26. October 2013, 16:39

Robert Ealey / I Like Music When I Party

Used drive : PLEXTOR DVDR PX-891SA Adapter: 4 ID: 1

Read mode : Secure
Utilize accurate stream : Yes
Defeat audio cache : Yes
Make use of C2 pointers : No

Read offset correction : 6
Overread into Lead-In and Lead-Out : No
Fill up missing offset samples with silence : Yes
Delete leading and trailing silent blocks : No
Null samples used in CRC calculations : Yes
Used interface : Native Win32 interface for Win NT & 2000
Gap handling : Appended to previous track

Used output format : User Defined Encoder
Selected bitrate : 128 kBit/s
Quality : High
Add ID3 tag : No
Command line compressor : D:\Exact Audio Copy\Flac\flac.exe
Additional command line options : -8 -V -T "ARTIST=%a" -T "TITLE=%t" -T "ALBUM=%g" -T "DATE=%y" -T "TRACKNUMBER=%n" -T "TOTALTRACKS=%x" -T "GENRE=%m" -T "ALBUMARTIST=%v" -T "ALBUM ARTIST=%v" -T "COMMENT=EAC Secure Mode, Test & Copy, AccurateRip, FLAC -8" %s


TOC of the extracted CD

Track | Start | Length | Start sector | End sector
––––––––––––––––––––––––––––-
1 | 0:00.00 | 4:38.62 | 0 | 20911
2 | 4:38.62 | 3:14.73 | 20912 | 35534
3 | 7:53.60 | 4:51.10 | 35535 | 57369
4 | 12:44.70 | 5:02.30 | 57370 | 80049
5 | 17:47.25 | 3:35.02 | 80050 | 96176
6 | 21:22.27 | 4:52.05 | 96177 | 118081
7 | 26:14.32 | 3:56.28 | 118082 | 135809
8 | 30:10.60 | 3:45.10 | 135810 | 152694
9 | 33:55.70 | 3:12.05 | 152695 | 167099
10 | 37:08.00 | 5:44.25 | 167100 | 192924
11 | 42:52.25 | 3:39.42 | 192925 | 209391
12 | 46:31.67 | 3:53.33 | 209392 | 226899


Track 1

Filename D:\01 - Shake Your Butt.wav

Pre-gap length 0:00:02.00

Peak level 100.0 %
Extraction speed 5.8 X
Track quality 100.0 %
Test CRC C27E182E
Copy CRC C27E182E
Accurately ripped (confidence 2) [778451F5]
Copy OK

Track 2

Filename D:\02 - See About Me.wav

Peak level 96.6 %
Extraction speed 5.8 X
Track quality 100.0 %
Test CRC 35DC859E
Copy CRC 35DC859E
Accurately ripped (confidence 2) [0725D566]
Copy OK

Track 3

Filename D:\03 - Don't I Love You.wav

Pre-gap length 0:00:02.60

Peak level 100.0 %
Extraction speed 6.5 X
Track quality 100.0 %
Test CRC 7BBC4BE7
Copy CRC 7BBC4BE7
Accurately ripped (confidence 2) [D6A149D7]
Copy OK

Track 4

Filename D:\04 - Is Your Bathroom Clean.wav

Peak level 99.9 %
Extraction speed 7.0 X
Track quality 100.0 %
Test CRC B9979DC3
Copy CRC B9979DC3
Accurately ripped (confidence 2) [AC7A5EB7]
Copy OK

Track 5

Filename D:\05 - Too Many Ways.wav

Pre-gap length 0:00:02.46

Peak level 100.0 %
Extraction speed 7.0 X
Track quality 100.0 %
Test CRC 560C6963
Copy CRC 560C6963
Accurately ripped (confidence 2) [5722AC3D]
Copy OK

Track 6

Filename D:\06 - Cristena.wav

Pre-gap length 0:00:02.25

Peak level 100.0 %
Extraction speed 7.6 X
Track quality 100.0 %
Test CRC 7C4DCBC4
Copy CRC 7C4DCBC4
Accurately ripped (confidence 2) [B9A7BE0F]
Copy OK

Track 7

Filename D:\07 - Elloise.wav

Pre-gap length 0:00:01.57

Peak level 100.0 %
Extraction speed 7.7 X
Track quality 100.0 %
Test CRC 6A083AC1
Copy CRC 6A083AC1
Accurately ripped (confidence 2) [B0BFE9FB]
Copy OK

Track 8

Filename D:\08 - Shoo-Bee-Doo.wav

Pre-gap length 0:00:02.35

Peak level 100.0 %
Extraction speed 6.3 X
Track quality 99.9 %
Test CRC 726CE838
Copy CRC 726CE838
Accurately ripped (confidence 2) [524A1F40]
Copy OK

Track 9

Filename D:\09 - Graveyard Blues.wav

Pre-gap length 0:00:01.58

Peak level 100.0 %
Extraction speed 7.9 X
Track quality 100.0 %
Test CRC 48F17CE4
Copy CRC 48F17CE4
Accurately ripped (confidence 2) [DB96808D]
Copy OK

Track 10

Filename D:\10 - When The Lights Go Out (Let's Push It).wav

Peak level 100.0 %
Extraction speed 7.6 X
Track quality 99.9 %
Test CRC 30BBC488
Copy CRC 30BBC488
Accurately ripped (confidence 2) [8E1E989D]
Copy OK

Track 11

Filename D:\11 - Picture On The Wall.wav

Pre-gap length 0:00:01.35

Peak level 100.0 %
Extraction speed 8.6 X
Track quality 100.0 %
Test CRC 3AEE7A9A
Copy CRC 3AEE7A9A
Accurately ripped (confidence 2) [B8ED7E5B]
Copy OK

Track 12

Filename D:\12 - Wild Wild West.wav

Pre-gap length 0:00:01.62

Peak level 100.0 %
Extraction speed 7.1 X
Track quality 99.9 %
Test CRC 9101E2FC
Copy CRC 9101E2FC
Accurately ripped (confidence 2) [F3383C47]
Copy OK


All tracks accurately ripped

No errors occurred

End of status report

==== Log checksum 00DE72D7D5360B92C8C4DD5FE0BC4ABA26293619CD8FD15E002030C17692F3DA ====

foobar2000 1.2 / Dynamic Range Meter 1.1.1
log date: 2013-12-16 18:23:51

––––––––––––––––––––––––––––––––––––––––
Analyzed: Robert Ealey / I Like Music When I Party
––––––––––––––––––––––––––––––––––––––––

DR Peak RMS Duration Track
––––––––––––––––––––––––––––––––––––––––
DR12 0.00 dB -13.29 dB 4:39 01-Shake Your Butt
DR11 -0.30 dB -12.70 dB 3:15 02-See About Me
DR11 0.00 dB -12.64 dB 4:51 03-Don't I Love You
DR11 0.00 dB -12.44 dB 5:02 04-Is Your Bathroom Clean
DR10 0.00 dB -10.67 dB 3:35 05-Too Many Ways
DR11 0.00 dB -12.24 dB 4:52 06-Cristena
DR10 0.00 dB -11.08 dB 3:56 07-Elloise
DR11 0.00 dB -11.84 dB 3:45 08-Shoo-Bee-Doo
DR10 0.00 dB -11.73 dB 3:12 09-Graveyard Blues
DR11 0.00 dB -12.39 dB 5:44 10-When The Lights Go Out (Let's Push It)
DR10 0.00 dB -11.70 dB 3:40 11-Picture On The Wall
DR10 0.00 dB -11.33 dB 3:53 12-Wild Wild West
––––––––––––––––––––––––––––––––––––––––

Number of tracks: 12
Official DR value: DR11

Samplerate: 44100 Hz
Channels: 2
Bits per sample: 16
Bitrate: 874 kbps
Codec: FLAC
================================================================================

Robert Ealey - I Like Music When I Party (1997)

Robert Ealey - I Like Music When I Party (1997)

All thanks to original releaser - Smal_AV

More interesting music in My Blog