Subcategories

Robert Plant - The Principle Of Moments (1983) [Es Paranza 790 101-2, Germany, Target СD]

Posted By: v3122
Robert Plant - The Principle Of Moments (1983) [Es Paranza 790 101-2, Germany, Target СD]

Robert Plant - The Principle Of Moments (1983)
EAC | Flac(Image) + Cue + Log & MP3 CBR 320Kbps
Es Paranza 790 101-2 | ~ 228 or 92 Mb | Artwork(png) -> 99 Mb
Blues Rock / Classic Rock / Hard Rock

Robert Plant's follow-up to Pictures at Eleven implements much of his debut's style and vocal meandering into a new and more exciting bunch of songs. The mysteriousness of "Big Log," the album's first single, reached the Top 20 in the United States and in the U.K., while "In the Mood" is The Principle of Moments' finest offering, proving that Plant could roam freely with his voice and still have it work effectively. But Plant doesn't stop here, as he gives tracks like "Wreckless Love," "Stranger Here…Than Over There," and "Other Arms" an equal amount of curt abstractness and rock appeal. Because Plant's voice is so compelling in any state, the convolution of his writing tends to take a back seat to his singing in most of his solo work, which is definitely the case in most of the songs here. Plant went on tour with the Honeydrippers within the same year of The Principle of Moments' release, adding another facet to his already diverse solo repertoire.

by Mike DeGagne, allmusic
Robert Plant - The Principle Of Moments (1983):

Robert Plant - The Principle Of Moments (1983) [Es Paranza 790 101-2, Germany, Target СD]

Tracklist:

01. Other Arms 04:19
02. In The Mood 05:21
03. Messin' With The Mekon 04:38
04. Wreckless Love 05:14
05. Thru' With The Two Step 05:32
06. Horizontal Departure 04:21
07. Stranger Here….Than Over There 04:19
08. Big Log 05:02

Exact Audio Copy V1.0 beta 3 from 29. August 2011

EAC extraction logfile from 4. January 2014, 17:22

Robert Plant / The Principle Of Moments

Used drive : PLEXTOR DVDR PX-L890SA Adapter: 1 ID: 0

Read mode : Secure
Utilize accurate stream : Yes
Defeat audio cache : Yes
Make use of C2 pointers : No

Read offset correction : 6
Overread into Lead-In and Lead-Out : No
Fill up missing offset samples with silence : Yes
Delete leading and trailing silent blocks : No
Null samples used in CRC calculations : Yes
Used interface : Native Win32 interface for Win NT & 2000

Used output format : User Defined Encoder
Selected bitrate : 768 kBit/s
Quality : High
Add ID3 tag : No
Command line compressor : G:\Program Files\Exact Audio Copy\FLAC\FLAC.EXE
Additional command line options : -V -8 -T "Date=%year%" -T "Genre=%genre%" %source%


TOC of the extracted CD

Track | Start | Length | Start sector | End sector
––––––––––––––––––––––––––––-
1 | 0:00.32 | 4:19.25 | 32 | 19481
2 | 4:19.57 | 5:21.45 | 19482 | 43601
3 | 9:41.27 | 4:38.35 | 43602 | 64486
4 | 14:19.62 | 5:14.45 | 64487 | 88081
5 | 19:34.32 | 5:32.30 | 88082 | 113011
6 | 25:06.62 | 4:21.05 | 113012 | 132591
7 | 29:27.67 | 4:19.33 | 132592 | 152049
8 | 33:47.25 | 5:02.25 | 152050 | 174724


Range status and errors

Selected range

Filename H:\TORRENTS\Robert Plant Off\Robert Plant - Discography\1983. The Principle Of Moments\1983. Robert Plant - The Principle Of Moments (Es Paranza 790 101-2, Germany, Target CD)\The Principle Of Moments.wav

Peak level 74.0 %
Extraction speed 2.8 X
Range quality 99.9 %
Test CRC 5719F7D4
Copy CRC 5719F7D4
Copy OK

No errors occurred


AccurateRip summary

Track 1 accurately ripped (confidence 28) [3DF1AEE7] (AR v2)
Track 2 accurately ripped (confidence 28) [67593C7E] (AR v2)
Track 3 accurately ripped (confidence 29) [E0E8CB65] (AR v2)
Track 4 accurately ripped (confidence 29) [AB034F85] (AR v2)
Track 5 accurately ripped (confidence 29) [E7561350] (AR v2)
Track 6 accurately ripped (confidence 29) [9F45C3FC] (AR v2)
Track 7 accurately ripped (confidence 29) [89059597] (AR v2)
Track 8 accurately ripped (confidence 27) [7888884D] (AR v2)

All tracks accurately ripped

End of status report

–– CUETools DB Plugin V2.1.3

[CTDB TOCID: teHv3hEzKXGnhxRdyDDiVgD_Jp8-] found, Submit result: discs with pregaps not supported in this protocol version
[2ba17fc4] (36/36) Differs in 13055 samples @00:00:24-00:00:41
You can use CUETools to repair this rip.


==== Log checksum 32DDEC8A00A8A6D54FD53E39129C27B6C27950D371C96820B4F3FB2269C80693 ====


[CUETools log; Date: 24.03.2019 11:25:06; Version: 2.1.4]
Pregap length 00:00:32.
[AccurateRip ID: 000c0660-00504fc5-6b091908] found.
Track [ CRC | V2 ] Status
01 [05f22715|3df1aee7] (033+064/097) Accurately ripped
02 [dc58e6d4|67593c7e] (035+063/098) Accurately ripped
03 [4241ebb5|e0e8cb65] (035+064/099) Accurately ripped
04 [1c92c5ff|ab034f85] (036+064/100) Accurately ripped
05 [7952c1ef|e7561350] (035+064/099) Accurately ripped
06 [715cd4e8|9f45c3fc] (035+063/098) Accurately ripped
07 [5f0e1e24|89059597] (035+063/098) Accurately ripped
08 [d8b58cb7|7888884d] (035+060/095) Accurately ripped

Track Peak [ CRC32 ] [W/O NULL] [ LOG ]
– 74,0 [5719F7D4] [BF0386A7] CRC32
01 70,4 [A59FEC46] [5BC365F9]
02 67,5 [128DA5DE] [DDEAE3C5]
03 65,7 [6BD5A3CC] [07F3E491]
04 68,3 [B5A98E12] [B17E9480]
05 67,4 [AC043A96] [82425B95]
06 74,0 [E4811987] [CB7C8E05]
07 72,0 [51C5DD0F] [89F343A0]
08 66,4 [49F5DF7F] [52116E30]


Robert Plant - The Principle Of Moments (1983) [Es Paranza 790 101-2, Germany, Target СD]

All thanks go to the original releaser

Robert Plant in my Blog

Download Robert Plant - The Principle Of Moments (1983):