Subcategories

Robert Rich - A Troubled Resting Place (1996)

Posted By: gribovar
Robert Rich - A Troubled Resting Place (1996)

Robert Rich - A Troubled Resting Place (1996)
EAC Rip | FLAC (image+.cue+log) - 322 MB | MP3 CBR 320 kbps (LAME 3.93) - 155 MB | Covers - 105 MB
Genre: Ambient | RAR 3% Rec. | Label: Fathom (11067-2)

A collection of hard-to-find solo outings previously released on small-run labels such as Amplexus and Side Effects, A Troubled Resting Place showcases some of the finest examples of Rich's open-ended, penetrating approach to music. A slightly restive, alien feel permeates the album's tracks, thanks to Rich's use of just intonation in his compositions and the mix of flutes, steel guitar, incidental noise and synths in his arrangements on tracks like "Bioelectric Plasma." Reminiscent of Stalker, the calm austerity of A Troubled Resting Place explores Rich's use of music as a possibility, not as an end in itself.
Tracklist:
01. The Simorgh Sleeps On Velvet Tongues
02. Calling By Stormlight
03. Buoyant On Motionless Deluge
04. Bioelectric Plasma
05. Black Skies
06. Night Sky Replies
6.1. A Ripple Of Sand
6.2. Night Spinning Inward
6.3. A Wheel Questions The Ground
6.4. The Night Sky Replies

Total time: 01:05:50

Exact Audio Copy V1.0 beta 1 from 15. November 2010

EAC extraction logfile from 29. December 2010, 21:09

Robert Rich / A Troubled Resting Place

Used drive : ASUS DRW-22B2S Adapter: 3 ID: 0

Read mode : Secure
Utilize accurate stream : Yes
Defeat audio cache : Yes
Make use of C2 pointers : No

Read offset correction : 6
Overread into Lead-In and Lead-Out : No
Fill up missing offset samples with silence : Yes
Delete leading and trailing silent blocks : No
Null samples used in CRC calculations : Yes
Used interface : Native Win32 interface for Win NT & 2000

Used output format : Internal WAV Routines
Sample format : 44.100 Hz; 16 Bit; Stereo


TOC of the extracted CD

Track | Start | Length | Start sector | End sector
––––––––––––––––––––––––––––-
1 | 0:00.00 | 10:21.55 | 0 | 46629
2 | 10:21.55 | 5:09.31 | 46630 | 69835
3 | 15:31.11 | 7:50.49 | 69836 | 105134
4 | 23:21.60 | 16:39.52 | 105135 | 180111
5 | 40:01.37 | 5:18.42 | 180112 | 204003
6 | 45:20.04 | 20:30.06 | 204004 | 296259


Range status and errors

Selected range

Filename D:\NEW\Robert Rich - A Troubled Resting Place\Robert Rich - A Troubled Resting Place.wav

Peak level 96.6 %
Extraction speed 1.9 X
Range quality 100.0 %
Test CRC 4AFCFE68
Copy CRC 4AFCFE68
Copy OK

No errors occurred


AccurateRip summary

Track 1 cannot be verified as accurate (confidence 9) [44688E61], AccurateRip returned [53F1A98D]
Track 2 cannot be verified as accurate (confidence 9) [12B73556], AccurateRip returned [F8DDF618]
Track 3 cannot be verified as accurate (confidence 9) [763AFBF7], AccurateRip returned [A2434FB1]
Track 4 cannot be verified as accurate (confidence 9) [29A97F62], AccurateRip returned [71E93FEF]
Track 5 cannot be verified as accurate (confidence 9) [9CACD569], AccurateRip returned [C5634504]
Track 6 cannot be verified as accurate (confidence 9) [DCF87FB1], AccurateRip returned [C3057290]

No tracks could be verified as accurate
You may have a different pressing from the one(s) in the database

End of status report

==== Log checksum A7FDA555BE2722FE75E0A4AADCA25BCF0F4B144DAAB49193F1B1235F5C94B4E8 ====

[CUETools log; Date: 24.06.2017 20:45:03; Version: 2.1.4]
[CTDB TOCID: yfF6gG0WACQvYoq8LSGtVgEA7Rk-] found.
Track | CTDB Status
1 | (19/19) Accurately ripped
2 | (19/19) Accurately ripped
3 | (19/19) Accurately ripped
4 | (19/19) Accurately ripped
5 | (19/19) Accurately ripped
6 | (19/19) Accurately ripped
[AccurateRip ID: 000dc359-004b1971-3a0f6e06] found.
Track [ CRC | V2 ] Status
01 [44688e61|eab6bc9b] (00+00/25) No match
02 [12b73556|6b9f85b2] (00+00/25) No match
03 [763afbf7|261e1b13] (00+00/24) No match
04 [29a97f62|5332926b] (00+00/25) No match
05 [9cacd569|f89aa404] (00+00/25) No match
06 [dcf87fb1|d9cbbb8d] (00+00/24) No match
Offsetted by -12:
01 [53f1a98d] (11/25) Accurately ripped
02 [f8ddf618] (11/25) Accurately ripped
03 [a2434fb1] (10/24) Accurately ripped
04 [71e93fef] (11/25) Accurately ripped
05 [c5634504] (11/25) Accurately ripped
06 [c3057290] (10/24) Accurately ripped

Track Peak [ CRC32 ] [W/O NULL] [ LOG ]
– 96,6 [4AFCFE68] [30971AEB] CRC32
01 96,6 [A7E6F32F] [B5702C99]
02 96,6 [F9E74FDC] [BCEE3AA7]
03 96,5 [47699E7F] [7133ECB0]
04 96,6 [70EC45F2] [2B8B7C61]
05 96,5 [7E7F95BA] [617EE4FA]
06 96,6 [0F440925] [ED56EE2E]

Thanks to station10