Subcategories

Robert Rich - Echo of Small Things (2005)

Posted By: gribovar
Robert Rich - Echo of Small Things (2005)

Robert Rich - Echo of Small Things (2005)
EAC Rip | FLAC (image+.cue+log) - 324 MB | MP3 CBR 320 kbps (LAME 3.93) - 149 MB | Covers (5 MB) included
Genre: Ambient | RAR 3% Rec. | Label: Soundscape Productions (SP008)

A collaboration of image and sound - although listed here as a CD by Robert Rich, the photography of David Agasi is an integral part of this work. The music is organic, melodic ambience with a variety of environmental sounds. Drones and whale-like shafts of sound slowly revolve with shifting densities whilst the musical surface is repeatedly ruffled by organic recordings. At times angel-soft and then gruff or thick, the aural mass is punctuated by muted chimes and a variety of less indentifiable struck objects. Robert Rich is credited with MOTM modular, TimewARP 2600, Sculpture, lap steel guitar, flutes and small things.
Tracklist:
01. Pathways
02. Fences
03. Circle Unwound
04. Passing Terrain
05. Glint In Her Eyes
06. Scent Of Night Jasmine
07. Summer Thunder
08. Hollow Rings Longer
09. Weightless Morning

Total time: 01:01:14

Exact Audio Copy V0.99 prebeta 4 from 23. January 2008

EAC extraction logfile from 12. July 2008, 19:10

Robert Rich / Echo of Small Things

Used drive : PIONEER DVD-RW DVR-110D Adapter: 0 ID: 0

Read mode : Secure
Utilize accurate stream : Yes
Defeat audio cache : Yes
Make use of C2 pointers : No

Read offset correction : 48
Overread into Lead-In and Lead-Out : No
Fill up missing offset samples with silence : Yes
Delete leading and trailing silent blocks : No
Null samples used in CRC calculations : Yes
Used interface : Installed external ASPI interface

Used output format : User Defined Encoder
Selected bitrate : 768 kBit/s
Quality : High
Add ID3 tag : No
Command line compressor : C:\Program Files\Exact Audio Copy\FLAC\FLAC.EXE
Additional command line options : -6 -V -T "ARTIST=%a" -T "TITLE=%t" -T "ALBUM=%g" -T "DATE=%y" -T "TRACKNUMBER=%n" -T "GENRE=%m" -T "COMMENT=%e" %s -o %d


TOC of the extracted CD

Track | Start | Length | Start sector | End sector
––––––––––––––––––––––––––––-
1 | 0:00.00 | 9:36.00 | 0 | 43199
2 | 9:36.00 | 4:57.00 | 43200 | 65474
3 | 14:33.00 | 9:00.00 | 65475 | 105974
4 | 23:33.00 | 6:09.00 | 105975 | 133649
5 | 29:42.00 | 6:25.00 | 133650 | 162524
6 | 36:07.00 | 9:09.00 | 162525 | 203699
7 | 45:16.00 | 4:27.00 | 203700 | 223724
8 | 49:43.00 | 5:19.00 | 223725 | 247649
9 | 55:02.00 | 6:12.00 | 247650 | 275549


Range status and errors

Selected range

Filename C:\Kyryan\Раздача\Robert Rich - Echo of Small Things\Robert Rich - Echo of Small Things.wav

Peak level 97.4 %
Range quality 100.0 %
Test CRC 0EED8EFB
Copy CRC 0EED8EFB
Copy OK

No errors occurred


AccurateRip summary

Track 1 not present in database
Track 2 not present in database
Track 3 not present in database
Track 4 not present in database
Track 5 not present in database
Track 6 not present in database
Track 7 not present in database
Track 8 not present in database
Track 9 not present in database

None of the tracks are present in the AccurateRip database

End of status report

[CUETools log; Date: 24.06.2017 21:09:18; Version: 2.1.4]
[CTDB TOCID: xHYj9M4VgQMDkOWVHitiDSDmqcg-] found.
Track | CTDB Status
1 | (3/3) Accurately ripped
2 | (3/3) Accurately ripped
3 | (3/3) Accurately ripped
4 | (3/3) Accurately ripped
5 | (3/3) Accurately ripped
6 | (3/3) Accurately ripped
7 | (3/3) Accurately ripped
8 | (3/3) Accurately ripped
9 | (3/3) Accurately ripped
[AccurateRip ID: 00164cca-00a0fba0-8f0e5a09] found.
Track [ CRC | V2 ] Status
01 [c13dd56f|95f9f3b2] (3+4/7) Accurately ripped
02 [a31774dc|61b59018] (3+4/7) Accurately ripped
03 [263eb786|0ab24018] (3+4/7) Accurately ripped
04 [470ae865|4587e0ca] (3+4/7) Accurately ripped
05 [da79a18f|ee8a2fdd] (3+4/7) Accurately ripped
06 [0d0439a1|fe5d21e1] (3+4/7) Accurately ripped
07 [bf8415e4|15fdfb02] (3+4/7) Accurately ripped
08 [c63b5f8b|0006aff1] (3+4/7) Accurately ripped
09 [8afcd2fa|be11f8b8] (3+4/7) Accurately ripped

Track Peak [ CRC32 ] [W/O NULL] [ LOG ]
– 97,4 [0EED8EFB] [0D37B974] CRC32
01 97,4 [38F8E2C4] [116A6F57]
02 96,7 [1EB007FA] [237182A0]
03 97,0 [B8CE3C74] [BAA7349E]
04 97,2 [8A97CD8D] [A4B03695]
05 97,1 [DDE82F40] [740B5DB9]
06 96,6 [4E02FF55] [0602D44A]
07 96,8 [C1FB6980] [F8F343B8]
08 68,3 [69D02A8A] [86EC797D]
09 58,1 [9D8B5E9B] [7E21B870]

Thanks to kyryan