Subcategories

Robert Rich - Inner Landscapes (1999)

Posted By: gribovar
Robert Rich - Inner Landscapes (1999)

Robert Rich - Inner Landscapes (1999)
EAC Rip | FLAC (image+.cue+log) - 414 MB | MP3 CBR 320 kbps (LAME 3.93) - 179 MB | Covers included
Genre: Ambient | RAR 3% Rec. | Label: Hypnos (hyp1915)

The work that became Inner Landscapes was taken from a live and wholly improvised set performed in 1985. With Inner Landscapes being released in 1999, there was a bit of a nostalgic feeling that allowed listeners to look back to where Rich came from and put in perspective his 14 years of work since this 1985 concert. This recording is full and diverse with its synth drones, flute sounds, and Rich's lap steel. It is a fine recording of recycled music, and one that is both complimentary and insightful. This is a must-have recording for fans of Robert Rich and any fan of early new age/space music circa the mid-'80s.
Tracklist:
01. Part 1
02. Part 2
03. Part 3
04. Part 4
05. Part 5
06. Part 6
07. Part 7
08. Part 8

Total time: 01:13:57

Exact Audio Copy V0.99 prebeta 4 from 23. January 2008

EAC extraction logfile from 4. October 2008, 19:09

Robert Rich / Inner Landscapes

Used drive : PIONEER DVD-RW DVR-110D Adapter: 0 ID: 0

Read mode : Secure
Utilize accurate stream : Yes
Defeat audio cache : Yes
Make use of C2 pointers : No

Read offset correction : 48
Overread into Lead-In and Lead-Out : No
Fill up missing offset samples with silence : Yes
Delete leading and trailing silent blocks : No
Null samples used in CRC calculations : Yes
Used interface : Installed external ASPI interface

Used output format : User Defined Encoder
Selected bitrate : 768 kBit/s
Quality : High
Add ID3 tag : No
Command line compressor : C:\Program Files\Exact Audio Copy\FLAC\FLAC.EXE
Additional command line options : -6 -V -T "ARTIST=%a" -T "TITLE=%t" -T "ALBUM=%g" -T "DATE=%y" -T "TRACKNUMBER=%n" -T "GENRE=%m" -T "COMMENT=%e" %s -o %d


TOC of the extracted CD

Track | Start | Length | Start sector | End sector
––––––––––––––––––––––––––––-
1 | 0:01.00 | 13:22.60 | 75 | 60284
2 | 13:23.60 | 11:20.00 | 60285 | 111284
3 | 24:43.60 | 8:14.00 | 111285 | 148334
4 | 32:57.60 | 13:25.00 | 148335 | 208709
5 | 46:22.60 | 7:09.00 | 208710 | 240884
6 | 53:31.60 | 2:21.00 | 240885 | 251459
7 | 55:52.60 | 9:21.00 | 251460 | 293534
8 | 65:13.60 | 8:42.63 | 293535 | 332747


Range status and errors

Selected range

Filename C:\Kyryan\Раздача\Robert Rich - Inner Landscapes\Robert Rich - Inner Landscapes.wav

Peak level 96.6 %
Range quality 100.0 %
Test CRC 4AB0B58C
Copy CRC 4AB0B58C
Copy OK

No errors occurred


AccurateRip summary

Track 1 accurately ripped (confidence 2) [EAFD00C7]
Track 2 accurately ripped (confidence 2) [03BA8787]
Track 3 accurately ripped (confidence 2) [B26B9D08]
Track 4 accurately ripped (confidence 2) [B9E947A5]
Track 5 accurately ripped (confidence 2) [BB5BAAD5]
Track 6 accurately ripped (confidence 2) [FB8C7420]
Track 7 accurately ripped (confidence 2) [B0F69DC2]
Track 8 accurately ripped (confidence 2) [E01668E0]

All tracks accurately ripped

End of status report

[CUETools log; Date: 24.06.2017 20:51:35; Version: 2.1.4]
Pregap length 00:01:00.
[CTDB TOCID: z2sC37AaUkng9kJRmWGb2oGyTIU-] found.
Track | CTDB Status
1 | (4/5) Accurately ripped
2 | (4/5) Accurately ripped
3 | (4/5) Accurately ripped
4 | (4/5) Accurately ripped
5 | (4/5) Accurately ripped
6 | (4/5) Accurately ripped
7 | (4/5) Accurately ripped
8 | (4/5) Accurately ripped
[AccurateRip ID: 001922d6-00a25a3c-7b115308] found.
Track [ CRC | V2 ] Status
01 [eafd00c7|67f10991] (11+05/16) Accurately ripped
02 [03ba8787|1e3e42f0] (11+05/16) Accurately ripped
03 [b26b9d08|d79fd985] (11+04/15) Accurately ripped
04 [b9e947a5|044ffca8] (11+05/16) Accurately ripped
05 [bb5baad5|30db5e40] (11+05/16) Accurately ripped
06 [fb8c7420|becc3311] (11+05/16) Accurately ripped
07 [b0f69dc2|3ae4349b] (11+05/16) Accurately ripped
08 [e01668e0|e177ef39] (11+05/16) Accurately ripped

Track Peak [ CRC32 ] [W/O NULL] [ LOG ]
– 96,6 [4AB0B58C] [016FC4BC] CRC32
01 96,0 [DB7D9BE1] [E7298432]
02 96,6 [5175107A] [B9819A9F]
03 96,5 [01085051] [8277FD58]
04 93,2 [68CEF609] [16CF1C49]
05 83,5 [D17347CF] [9F90C1DF]
06 13,3 [5B171C61] [4C0CB20D]
07 96,5 [DD7C656B] [59C7A85A]
08 82,7 [61DB5D9A] [B2ACBF8A]

Thanks to kyryan