Robert Rich & Steve Roach - Strata (1990)

Posted By: gribovar
Robert Rich & Steve Roach - Strata (1990)

Robert Rich & Steve Roach - Strata (1990)
EAC Rip | FLAC (tracks+.cue+log) - 237 MB | MP3 CBR 320 kbps (LAME 3.93) - 143 MB | Covers (4 MB) included
Genre: Electronic, Ambient | RAR 3% Rec. | Label: Hearts Of Space ‎(HS11019-2)

Steve Roach and Robert Rich are two of the strongest e-musicians ever - musically, spiritually, and emotionally. But their greatest strengths are their abilities to express themselves musically and to interact cohesively. Rich and Roach approach music from almost completely divergent angles. Roach is always right in the middle of things, searching for answers to his questions. Rich, on the other hand, spends a great deal of time in the setup before diving into the middle. Once there, he begins searching for questions to his answers. Together, these approaches complement each other and they get right down to it. This CD consists of four very personal statements. It is personal to the composers, individually and as a duo, and to deep listeners. It evokes remote feelings and close recollections. Roach and Rich explore the unknown to learn and to ask more about the real and the surreal. This is a great disc, covering many styles and much ground.
Tracklist:
01. Fearless
02. Mica
03. Forever
04. The Grotto Of Time Lost
05. Iguana
06. Magma
07. Persistence Of Memory (For Dali)
08. Remembrance
09. Ceremony Of Shadows
10. La Luna

Total time: 59:05

Exact Audio Copy V0.99 prebeta 4 from 23. January 2008

EAC extraction logfile from 18. February 2009, 23:16

Robert Rich & Steve Roach / Strata

Used drive : PLEXTOR DVDR PX-810SA Adapter: 3 ID: 1

Read mode : Secure
Utilize accurate stream : Yes
Defeat audio cache : Yes
Make use of C2 pointers : No

Read offset correction : 48
Overread into Lead-In and Lead-Out : No
Fill up missing offset samples with silence : Yes
Delete leading and trailing silent blocks : No
Null samples used in CRC calculations : Yes
Used interface : Installed external ASPI interface
Gap handling : Appended to previous track

Used output format : User Defined Encoder
Selected bitrate : 128 kBit/s
Quality : High
Add ID3 tag : No
Command line compressor : C:\Archivos de programa\Exact Audio Copy\Flac\flac.exe
Additional command line options : -8 -V -T "artist=%a" -T "title=%t" -T "album=%g" -T "date=%y" -T "tracknumber=%n" -T "genre=%m" %s


TOC of the extracted CD

Track | Start | Length | Start sector | End sector
––––––––––––––––––––––––––––-
1 | 0:00.32 | 4:35.03 | 32 | 20659
2 | 4:35.35 | 4:57.25 | 20660 | 42959
3 | 9:32.60 | 4:52.22 | 42960 | 64881
4 | 14:25.07 | 9:04.38 | 64882 | 105719
5 | 23:29.45 | 7:16.35 | 105720 | 138454
6 | 30:46.05 | 3:39.02 | 138455 | 154881
7 | 34:25.07 | 5:12.55 | 154882 | 178336
8 | 39:37.62 | 2:25.48 | 178337 | 189259
9 | 42:03.35 | 6:20.30 | 189260 | 217789
10 | 48:23.65 | 10:41.42 | 217790 | 265906


Track 1

Filename C:\audio-rips\01 - Fearless.wav

Pre-gap length 0:00:02.42

Peak level 78.1 %
Track quality 100.0 %
Test CRC 61781CFA
Copy CRC 61781CFA
Accurately ripped (confidence 3) [EDC0F955]
Copy OK

Track 2

Filename C:\audio-rips\02 - Mica.wav

Pre-gap length 0:00:01.33

Peak level 92.8 %
Track quality 100.0 %
Test CRC 93008474
Copy CRC 93008474
Accurately ripped (confidence 3) [07CA4688]
Copy OK

Track 3

Filename C:\audio-rips\03 - Forever.wav

Peak level 83.6 %
Track quality 100.0 %
Test CRC 727EB856
Copy CRC 727EB856
Accurately ripped (confidence 3) [13D468FE]
Copy OK

Track 4

Filename C:\audio-rips\04 - The Grotto Of Time Lost.wav

Peak level 46.3 %
Track quality 100.0 %
Test CRC D1905B2C
Copy CRC D1905B2C
Accurately ripped (confidence 3) [64D150A1]
Copy OK

Track 5

Filename C:\audio-rips\05 - Iguana.wav

Pre-gap length 0:00:00.57

Peak level 76.5 %
Track quality 100.0 %
Test CRC 84EAD279
Copy CRC 84EAD279
Accurately ripped (confidence 4) [C8255FAA]
Copy OK

Track 6

Filename C:\audio-rips\06 - Magma.wav

Pre-gap length 0:00:01.20

Peak level 73.1 %
Track quality 100.0 %
Test CRC AC93A08D
Copy CRC AC93A08D
Accurately ripped (confidence 4) [E251A701]
Copy OK

Track 7

Filename C:\audio-rips\07 - Persistence Of Memory.wav

Pre-gap length 0:00:01.02

Peak level 57.5 %
Track quality 100.0 %
Test CRC 79B891AC
Copy CRC 79B891AC
Accurately ripped (confidence 4) [9640FDCF]
Copy OK

Track 8

Filename C:\audio-rips\08 - Remembrance.wav

Pre-gap length 0:00:01.60

Peak level 44.8 %
Track quality 100.0 %
Test CRC 40F2ADDE
Copy CRC 40F2ADDE
Accurately ripped (confidence 4) [060FE344]
Copy OK

Track 9

Filename C:\audio-rips\09 - Ceremony Of Shadows.wav

Pre-gap length 0:00:01.73

Peak level 40.5 %
Track quality 100.0 %
Test CRC 656242EB
Copy CRC 656242EB
Accurately ripped (confidence 4) [9C41BD26]
Copy OK

Track 10

Filename C:\audio-rips\10 - La Luna.wav

Pre-gap length 0:00:04.37

Peak level 57.7 %
Track quality 99.9 %
Test CRC AA3298AA
Copy CRC AA3298AA
Accurately ripped (confidence 4) [8AD630DD]
Copy OK


All tracks accurately ripped

No errors occurred

End of status report

[CUETools log; Date: 24.06.2017 2:45:59; Version: 2.1.4]
Pregap length 00:00:32.
[CTDB TOCID: 4CK9HhdBMnhFDBqXr80Wabrd0sE-] found.
Track | CTDB Status
1 | (18/18) Accurately ripped
2 | (18/18) Accurately ripped
3 | (18/18) Accurately ripped
4 | (18/18) Accurately ripped
5 | (17/18) Accurately ripped
6 | (18/18) Accurately ripped
7 | (18/18) Accurately ripped
8 | (18/18) Accurately ripped
9 | (18/18) Accurately ripped
10 | (17/18) Accurately ripped
[AccurateRip ID: 00150a45-00a97781-950dd90a] found.
Track [ CRC | V2 ] Status
01 [edc0f955|47731d18] (16+23/43) Accurately ripped
02 [07ca4688|857c9015] (15+23/42) Accurately ripped
03 [13d468fe|a789513c] (15+23/42) Accurately ripped
04 [64d150a1|571c548d] (15+23/40) Accurately ripped
05 [c8255faa|6b0ff317] (16+23/43) Accurately ripped
06 [e251a701|e0f0d168] (16+23/43) Accurately ripped
07 [9640fdcf|a4e2e763] (16+23/43) Accurately ripped
08 [060fe344|5d0991ad] (17+23/44) Accurately ripped
09 [9c41bd26|d02b7c5c] (16+23/43) Accurately ripped
10 [8ad630dd|d802b201] (16+23/43) Accurately ripped
Offsetted by -690:
01 [270bf6cf] (00/43) No match (V2 was not tested)
02 [15075087] (00/42) No match (V2 was not tested)
03 [d921dae7] (00/42) No match (V2 was not tested)
04 [5515dda5] (00/40) No match (V2 was not tested)
05 [922ccd90] (00/43) No match (V2 was not tested)
06 [f52bf5bf] (00/43) No match (V2 was not tested)
07 [49ef962b] (00/43) No match (V2 was not tested)
08 [e0d44a70] (00/44) No match (V2 was not tested)
09 [5f5bf564] (00/43) No match (V2 was not tested)
10 [45994a5c] (00/43) No match (V2 was not tested)

Track Peak [ CRC32 ] [W/O NULL] [ LOG ]
– 92,8 [CDA99C5A] [CCC01424]
01 78,1 [61781CFA] [360B73BF] CRC32
02 92,8 [93008474] [BCFF9853] CRC32
03 83,6 [727EB856] [561E7BC7] CRC32
04 46,3 [D1905B2C] [58BDBFFA] CRC32
05 76,5 [84EAD279] [B438F5B0] CRC32
06 73,1 [AC93A08D] [5DF57C9A] CRC32
07 57,5 [79B891AC] [C1683379] CRC32
08 44,8 [40F2ADDE] [18226F7B] CRC32
09 40,5 [656242EB] [CB6BEB2D] CRC32
10 57,7 [AA3298AA] [9F569CE1] CRC32

Thanks to Soulseek

See also: