Subcategories

Roberto Loreggian - Andrea Gabrieli: Complete Keyboard Music (2015)

Posted By: tirexiss
Roberto Loreggian - Andrea Gabrieli: Complete Keyboard Music (2015)

Roberto Loreggian - Andrea Gabrieli: Complete Keyboard Music (2015)
EAC | FLAC (image+.cue, log) | Covers Included | 05:58:06 | 2,16 Gb
Genre: Classical | Label: Brilliant Classics | Catalog: 94432

The first complete recording of the keyboard works of Andrea Gabrieli (1532-1585), one of the most famous and influential composers of the late Renaissance and the most important representative of the Venetian School. A native of Venice, he went to Germany to study with Lassus. Later he became organist of the famous San Marco in Venice, the most important post in Northern Italy at that moment.
Gabrieli was one of the first composers to write purely instrumental music. His works for keyboard (organ, cembalo) consist of Ricercars, a monothematic form which is the forerunner of the Fugue, brilliant and virtuoso Preludes and Toccatas, and lavishly ornamented arrangements of madrigals and other vocal works.
Italian Roberto Loreggian is one of the foremost keyboardists of this time. His extensive discography includes the complete keyboard works of Frescobaldi. He plays the wonderful, recently restored historic organ of the Duomo of Valvasone.

Roberto Loreggian - Andrea Gabrieli: Complete Keyboard Music (2015)

Track List:

Andrea Gabrieli (1532/3-1585)

CD1
[1]-[14] Intonationi d'organo: Libro primo
Anonymous, attr. A.Gabrieli
[15] Praeambulum quarti toni
[16] Praeambulum primi toni
[17] Praeambulum tertii toni
[18] Toccata primi toni
Missa Dominicalis
[19] Introito - Kyrie alternatim
[20] Gloria alternatim

Roberto Loreggian organ
Schola Gregoriana Scriptoria ([19]-[20])
Don Nicola Bellinazzo

Exact Audio Copy V1.1 from 23. June 2015

EAC extraction logfile from 25. April 2017, 2:04

Roberto Loreggian / Andrea Gabrieli - Complete Keyboard Music - CD1

Used drive : TSSTcorpCD/DVDW SH-S182M Adapter: 1 ID: 1

Read mode : Secure
Utilize accurate stream : Yes
Defeat audio cache : Yes
Make use of C2 pointers : No

Read offset correction : 6
Overread into Lead-In and Lead-Out : No
Fill up missing offset samples with silence : Yes
Delete leading and trailing silent blocks : No
Null samples used in CRC calculations : Yes
Used interface : Native Win32 interface for Win NT & 2000

Used output format : User Defined Encoder
Selected bitrate : 128 kBit/s
Quality : High
Add ID3 tag : No
Command line compressor : C:\Program Files (x86)\Exact Audio Copy\Flac\flac.exe
Additional command line options : -V -8 -T "Date=%year%" -T "Genre=%genre%" %source%


TOC of the extracted CD

Track | Start | Length | Start sector | End sector
––––––––––––––––––––––––––––-
1 | 0:00.00 | 1:37.59 | 0 | 7333
2 | 1:37.59 | 1:42.60 | 7334 | 15043
3 | 3:20.44 | 1:34.47 | 15044 | 22140
4 | 4:55.16 | 1:53.44 | 22141 | 30659
5 | 6:48.60 | 1:27.51 | 30660 | 37235
6 | 8:16.36 | 1:42.38 | 37236 | 44923
7 | 9:58.74 | 1:40.04 | 44924 | 52427
8 | 11:39.03 | 1:15.38 | 52428 | 58090
9 | 12:54.41 | 1:37.04 | 58091 | 65369
10 | 14:31.45 | 5:41.14 | 65370 | 90958
11 | 20:12.59 | 3:38.74 | 90959 | 107382
12 | 23:51.58 | 6:00.74 | 107383 | 134456
13 | 29:52.57 | 4:00.19 | 134457 | 152475
14 | 33:53.01 | 2:48.37 | 152476 | 165112
15 | 36:41.38 | 3:58.42 | 165113 | 183004
16 | 40:40.05 | 1:52.62 | 183005 | 191466
17 | 42:32.67 | 2:07.36 | 191467 | 201027
18 | 44:40.28 | 5:21.02 | 201028 | 225104
19 | 50:01.30 | 7:15.04 | 225105 | 257733
20 | 57:16.34 | 9:53.07 | 257734 | 302215


Range status and errors

Selected range

Filename C:\temp\Andrea Gabrieli - Complete Keyboard Music\CD1\Andrea Gabrieli - Complete Keyboard Music - CD1.wav

Peak level 100.0 %
Extraction speed 7.3 X
Range quality 100.0 %
Test CRC BF81C5D0
Copy CRC BF81C5D0
Copy OK

No errors occurred


AccurateRip summary

Track 1 not present in database
Track 2 not present in database
Track 3 not present in database
Track 4 not present in database
Track 5 not present in database
Track 6 not present in database
Track 7 not present in database
Track 8 not present in database
Track 9 not present in database
Track 10 not present in database
Track 11 not present in database
Track 12 not present in database
Track 13 not present in database
Track 14 not present in database
Track 15 not present in database
Track 16 not present in database
Track 17 not present in database
Track 18 not present in database
Track 19 not present in database
Track 20 not present in database

None of the tracks are present in the AccurateRip database

End of status report

==== Log checksum A0639A5EB232F7265D466EE59300D9E3ABDDE81D80DA2D625129DF1DC21FF22F ====

CD2
[1]-[11] Ricercari: Libro secondo
Missa Dominicalis
[12] Credo alternatim

Roberto Loreggian organ
Schola Gregoriana Scriptoria ([12])
Don Nicola Bellinazzo

Exact Audio Copy V1.1 from 23. June 2015

EAC extraction logfile from 26. April 2017, 0:44

Roberto Loreggian / Andrea Gabrieli - Complete Keyboard Music - CD2

Used drive : TSSTcorpCD/DVDW SH-S182M Adapter: 1 ID: 1

Read mode : Secure
Utilize accurate stream : Yes
Defeat audio cache : Yes
Make use of C2 pointers : No

Read offset correction : 6
Overread into Lead-In and Lead-Out : No
Fill up missing offset samples with silence : Yes
Delete leading and trailing silent blocks : No
Null samples used in CRC calculations : Yes
Used interface : Native Win32 interface for Win NT & 2000

Used output format : User Defined Encoder
Selected bitrate : 128 kBit/s
Quality : High
Add ID3 tag : No
Command line compressor : C:\Program Files (x86)\Exact Audio Copy\Flac\flac.exe
Additional command line options : -V -8 -T "Date=%year%" -T "Genre=%genre%" %source%


TOC of the extracted CD

Track | Start | Length | Start sector | End sector
––––––––––––––––––––––––––––-
1 | 0:00.00 | 5:40.72 | 0 | 25571
2 | 5:40.72 | 4:40.03 | 25572 | 46574
3 | 10:21.00 | 4:20.30 | 46575 | 66104
4 | 14:41.30 | 3:36.30 | 66105 | 82334
5 | 18:17.60 | 5:12.58 | 82335 | 105792
6 | 23:30.43 | 4:01.40 | 105793 | 123907
7 | 27:32.08 | 5:00.51 | 123908 | 146458
8 | 32:32.59 | 4:13.28 | 146459 | 165461
9 | 36:46.12 | 4:53.00 | 165462 | 187436
10 | 41:39.12 | 2:34.35 | 187437 | 199021
11 | 44:13.47 | 4:03.68 | 199022 | 217314
12 | 48:17.40 | 11:34.04 | 217315 | 269368


Range status and errors

Selected range

Filename C:\temp\Andrea Gabrieli - Complete Keyboard Music\CD2\Andrea Gabrieli - Complete Keyboard Music - CD2.wav

Peak level 100.0 %
Extraction speed 7.1 X
Range quality 99.9 %
Test CRC 6AA7D5FE
Copy CRC 6AA7D5FE
Copy OK

No errors occurred


AccurateRip summary

Track 1 not present in database
Track 2 not present in database
Track 3 not present in database
Track 4 not present in database
Track 5 not present in database
Track 6 not present in database
Track 7 not present in database
Track 8 not present in database
Track 9 not present in database
Track 10 not present in database
Track 11 not present in database
Track 12 not present in database

None of the tracks are present in the AccurateRip database

End of status report

==== Log checksum 4586B79E8BBEC59CE1671E9D59FA63EE81B105AA1D308E84DB7F8304DC0F1AB9 ====

CD3
[1]-[12] Il terzo libro de ricercari (Venice, 1596)
Anonymous, attr. A.Gabrieli
[13] Canzon primo tono
[14] Toccata sexti toni

Roberto Loreggian organ & harpsichord

Exact Audio Copy V1.1 from 23. June 2015

EAC extraction logfile from 26. April 2017, 1:07

Roberto Loreggian / Andrea Gabrieli - Complete Keyboard Music - CD3

Used drive : TSSTcorpCD/DVDW SH-S182M Adapter: 1 ID: 1

Read mode : Secure
Utilize accurate stream : Yes
Defeat audio cache : Yes
Make use of C2 pointers : No

Read offset correction : 6
Overread into Lead-In and Lead-Out : No
Fill up missing offset samples with silence : Yes
Delete leading and trailing silent blocks : No
Null samples used in CRC calculations : Yes
Used interface : Native Win32 interface for Win NT & 2000

Used output format : User Defined Encoder
Selected bitrate : 128 kBit/s
Quality : High
Add ID3 tag : No
Command line compressor : C:\Program Files (x86)\Exact Audio Copy\Flac\flac.exe
Additional command line options : -V -8 -T "Date=%year%" -T "Genre=%genre%" %source%


TOC of the extracted CD

Track | Start | Length | Start sector | End sector
––––––––––––––––––––––––––––-
1 | 0:00.00 | 2:51.22 | 0 | 12846
2 | 2:51.22 | 3:31.02 | 12847 | 28673
3 | 6:22.24 | 5:34.46 | 28674 | 53769
4 | 11:56.70 | 2:24.21 | 53770 | 64590
5 | 14:21.16 | 4:06.16 | 64591 | 83056
6 | 18:27.32 | 7:48.74 | 83057 | 118230
7 | 26:16.31 | 3:20.33 | 118231 | 133263
8 | 29:36.64 | 2:59.15 | 133264 | 146703
9 | 32:36.04 | 3:10.56 | 146704 | 161009
10 | 35:46.60 | 3:34.12 | 161010 | 177071
11 | 39:20.72 | 3:13.00 | 177072 | 191546
12 | 42:33.72 | 3:36.50 | 191547 | 207796
13 | 46:10.47 | 3:13.57 | 207797 | 222328
14 | 49:24.29 | 6:16.21 | 222329 | 250549


Range status and errors

Selected range

Filename C:\temp\Andrea Gabrieli - Complete Keyboard Music\CD3\Andrea Gabrieli - Complete Keyboard Music - CD3.wav

Peak level 100.0 %
Extraction speed 6.8 X
Range quality 100.0 %
Test CRC BA86811E
Copy CRC BA86811E
Copy OK

No errors occurred


AccurateRip summary

Track 1 not present in database
Track 2 not present in database
Track 3 not present in database
Track 4 not present in database
Track 5 not present in database
Track 6 not present in database
Track 7 not present in database
Track 8 not present in database
Track 9 not present in database
Track 10 not present in database
Track 11 not present in database
Track 12 not present in database
Track 13 not present in database
Track 14 not present in database

None of the tracks are present in the AccurateRip database

End of status report

==== Log checksum 5DF0B55E879C7831158F68BB30C65A4DBED23A4780A0DD2F0EDEAE20E6AC5337 ====

CD4
[1]-[4] Missa de Beata Virgine
[5]-[8] Missa Apostolorum

Roberto Loreggian organ
Schola Gregoriana Scriptoria
Don Nicola Bellinazzo

Exact Audio Copy V1.1 from 23. June 2015

EAC extraction logfile from 28. April 2017, 1:54

Roberto Loreggian, Schola Gregoriana Scriptoria / Andrea Gabrieli - Complete Keyboard Music - CD4

Used drive : PLDS DVD-RW DU8A6SH Adapter: 1 ID: 0

Read mode : Secure
Utilize accurate stream : Yes
Defeat audio cache : Yes
Make use of C2 pointers : No

Read offset correction : 6
Overread into Lead-In and Lead-Out : No
Fill up missing offset samples with silence : Yes
Delete leading and trailing silent blocks : No
Null samples used in CRC calculations : Yes
Used interface : Native Win32 interface for Win NT & 2000

Used output format : User Defined Encoder
Selected bitrate : 128 kBit/s
Quality : High
Add ID3 tag : No
Command line compressor : C:\Program Files (x86)\Exact Audio Copy\Flac\flac.exe
Additional command line options : -V -8 -T "Date=%year%" -T "Genre=%genre%" %source%


TOC of the extracted CD

Track | Start | Length | Start sector | End sector
––––––––––––––––––––––––––––-
1 | 0:00.00 | 8:32.59 | 0 | 38458
2 | 8:32.59 | 14:27.65 | 38459 | 103548
3 | 23:00.49 | 4:15.62 | 103549 | 122735
4 | 27:16.36 | 3:48.45 | 122736 | 139880
5 | 31:05.06 | 6:15.62 | 139881 | 168067
6 | 37:20.68 | 8:36.37 | 168068 | 206804
7 | 45:57.30 | 12:47.07 | 206805 | 264336
8 | 58:44.37 | 3:30.73 | 264337 | 280159


Range status and errors

Selected range

Filename C:\temp\Andrea Gabrieli - Complete Keyboard Music\CD4\Andrea Gabrieli - Complete Keyboard Music - CD4.wav

Peak level 100.0 %
Extraction speed 3.7 X
Range quality 100.0 %
Test CRC 19D4770D
Copy CRC 19D4770D
Copy OK

No errors occurred


AccurateRip summary

Track 1 not present in database
Track 2 not present in database
Track 3 not present in database
Track 4 not present in database
Track 5 not present in database
Track 6 not present in database
Track 7 not present in database
Track 8 not present in database

None of the tracks are present in the AccurateRip database

End of status report

==== Log checksum 6354A5A04FA20FAED247048608F501014EA6ED84D8BC8D096F161630416DF331 ====

CD5
[1]-[12] Canzoni alla francese et ricercari ariosi (Venice, 1605)
Missa Dominicalis
[13] Sanctus alternatim
[14] Agnus dei alternatim

Roberto Loreggian organ
Schola Gregoriana Scriptoria ([13]-[14])
Don Nicola Bellinazzo

Exact Audio Copy V1.1 from 23. June 2015

EAC extraction logfile from 29. April 2017, 2:08

Roberto Loreggian / Andrea Gabrieli - Complete Keyboard Music - CD5

Used drive : PLDS DVD-RW DU8A6SH Adapter: 1 ID: 0

Read mode : Secure
Utilize accurate stream : Yes
Defeat audio cache : Yes
Make use of C2 pointers : No

Read offset correction : 6
Overread into Lead-In and Lead-Out : No
Fill up missing offset samples with silence : Yes
Delete leading and trailing silent blocks : No
Null samples used in CRC calculations : Yes
Used interface : Native Win32 interface for Win NT & 2000

Used output format : User Defined Encoder
Selected bitrate : 128 kBit/s
Quality : High
Add ID3 tag : No
Command line compressor : C:\Program Files (x86)\Exact Audio Copy\Flac\flac.exe
Additional command line options : -V -8 -T "Date=%year%" -T "Genre=%genre%" %source%


TOC of the extracted CD

Track | Start | Length | Start sector | End sector
––––––––––––––––––––––––––––-
1 | 0:00.00 | 3:47.05 | 0 | 17029
2 | 3:47.05 | 4:11.42 | 17030 | 35896
3 | 7:58.47 | 3:45.51 | 35897 | 52822
4 | 11:44.23 | 5:58.60 | 52823 | 79732
5 | 17:43.08 | 2:41.27 | 79733 | 91834
6 | 20:24.35 | 4:26.17 | 91835 | 111801
7 | 24:50.52 | 2:31.17 | 111802 | 123143
8 | 27:21.69 | 5:12.30 | 123144 | 146573
9 | 32:34.24 | 3:45.14 | 146574 | 163462
10 | 36:19.38 | 3:46.54 | 163463 | 180466
11 | 40:06.17 | 3:25.27 | 180467 | 195868
12 | 43:31.44 | 4:55.32 | 195869 | 218025
13 | 48:27.01 | 3:08.60 | 218026 | 232185
14 | 51:35.61 | 2:44.65 | 232186 | 244550


Range status and errors

Selected range

Filename C:\temp\Andrea Gabrieli - Complete Keyboard Music\CD5\Andrea Gabrieli - Complete Keyboard Music - CD5.wav

Peak level 100.0 %
Extraction speed 3.5 X
Range quality 100.0 %
Test CRC 53DE7002
Copy CRC 53DE7002
Copy OK

No errors occurred


AccurateRip summary

Track 1 not present in database
Track 2 not present in database
Track 3 not present in database
Track 4 not present in database
Track 5 not present in database
Track 6 not present in database
Track 7 not present in database
Track 8 not present in database
Track 9 not present in database
Track 10 not present in database
Track 11 not present in database
Track 12 not present in database
Track 13 not present in database
Track 14 not present in database

None of the tracks are present in the AccurateRip database

End of status report

==== Log checksum CA3094AC1709511B31E0A0E9B7BE6D430F035DC89331B12265CBB046982FC2F9 ====

CD6
[1]-[17] Canzoni alla francese: Libro sesto (Venice, 1605)

Roberto Loreggian harpsichord

Exact Audio Copy V1.1 from 23. June 2015

EAC extraction logfile from 29. April 2017, 15:13

Roberto Loreggian / Andrea Gabrieli - Complete Keyboard Music - CD6

Used drive : PLDS DVD-RW DU8A6SH Adapter: 1 ID: 0

Read mode : Secure
Utilize accurate stream : Yes
Defeat audio cache : Yes
Make use of C2 pointers : No

Read offset correction : 6
Overread into Lead-In and Lead-Out : No
Fill up missing offset samples with silence : Yes
Delete leading and trailing silent blocks : No
Null samples used in CRC calculations : Yes
Used interface : Native Win32 interface for Win NT & 2000

Used output format : User Defined Encoder
Selected bitrate : 128 kBit/s
Quality : High
Add ID3 tag : No
Command line compressor : C:\Program Files (x86)\Exact Audio Copy\Flac\flac.exe
Additional command line options : -V -8 -T "Date=%year%" -T "Genre=%genre%" %source%


TOC of the extracted CD

Track | Start | Length | Start sector | End sector
––––––––––––––––––––––––––––-
1 | 0:00.00 | 3:56.29 | 0 | 17728
2 | 3:56.29 | 2:33.55 | 17729 | 29258
3 | 6:30.09 | 3:48.32 | 29259 | 46390
4 | 10:18.41 | 2:12.06 | 46391 | 56296
5 | 12:30.47 | 4:08.28 | 56297 | 74924
6 | 16:39.00 | 5:20.49 | 74925 | 98973
7 | 21:59.49 | 4:45.32 | 98974 | 120380
8 | 26:45.06 | 1:33.08 | 120381 | 127363
9 | 28:18.14 | 4:22.13 | 127364 | 147026
10 | 32:40.27 | 1:28.56 | 147027 | 153682
11 | 34:09.08 | 2:23.02 | 153683 | 164409
12 | 36:32.10 | 2:59.10 | 164410 | 177844
13 | 39:31.20 | 3:46.27 | 177845 | 194821
14 | 43:17.47 | 3:47.62 | 194822 | 211908
15 | 47:05.34 | 2:08.59 | 211909 | 221567
16 | 49:14.18 | 3:33.26 | 221568 | 237568
17 | 52:47.44 | 6:03.47 | 237569 | 264840


Range status and errors

Selected range

Filename C:\temp\Andrea Gabrieli - Complete Keyboard Music\CD6\Andrea Gabrieli - Complete Keyboard Music - CD6.wav

Peak level 100.0 %
Extraction speed 3.6 X
Range quality 100.0 %
Test CRC 61A47A41
Copy CRC 61A47A41
Copy OK

No errors occurred


AccurateRip summary

Track 1 not present in database
Track 2 not present in database
Track 3 not present in database
Track 4 not present in database
Track 5 not present in database
Track 6 not present in database
Track 7 not present in database
Track 8 not present in database
Track 9 not present in database
Track 10 not present in database
Track 11 not present in database
Track 12 not present in database
Track 13 not present in database
Track 14 not present in database
Track 15 not present in database
Track 16 not present in database
Track 17 not present in database

None of the tracks are present in the AccurateRip database

End of status report

==== Log checksum 34FA715E0A1BEBBC3331B7BC992329B45994964991C7F2874E023F4DBE7A7810 ====

Thanks to the Original ripper (A-Z)!

Download: