Subcategories

Rock Workshop - Rock Workshop (1970) {2002, Reissue, Remastered}

Posted By: hill0
Rock Workshop - Rock Workshop (1970)  {2002, Reissue, Remastered}

Rock Workshop - Rock Workshop (1970) {2002, Reissue, Remastered}
EAC Rip | FLAC (image & cue & log) | 530 MB | MP3 CBR 320 kbps | 176 MB | Scans included (JPG) | 72:16
Genre: Progressive Rock / Jazz Rock / Blues Rock | Country: UK | Label: Angel Air Records | SJPCD132

The group's debut album, formed in 1970 by the legendary Alex Harvey before his "famous Sensational Alex Harvey Band." An excellent material, which felt the impact of the second group creator Ray Russell. Music Group - predominantly powerful and dynamic brass-rock with a slight slope in the blues and even jazz great. The CD-reissue added 6 bonuses, 4 of them - the alternative version.
Formed in 1970, this fluid but short-lived jazz rock group formed by Ray Russell (guitar) and featured several of the UK’s leading young jazz musicians, and originally included Harry Beckett (trumpet/flugelhorn), Bob Downes (saxophone), Bud Parkes (trumpet) and Tony Roberts (trumpet/woodwind), Derek Wadsworth (trombone) Alan Greed (vocals) and Brian Miller (keyboards), Daryl Runswick (bass), Alan Rushton and Robin Jones (drums). Several were involved in other, simultaneous projects, notably solo albums by Downes and Russell and session appearances for albums at that time by Jack Bruce, Keef Hartley and Harvey. Wadsworth and Parkes appeared on the latter’s solo album, Roman Wall Blues, and Harvey reciprocated by singing on most of Rock Workshop. Their second album For The Very Last Time featured percussionists Phil Wainman and Tony Uter in place of Jones, while Ginger Harper was added on vocals. The individual members then went their separate ways. Rock Workshop in particular remains an underrated gem, featuring Russell’s frantic ‘Spoin Kop’ and the evocative and brassy ‘Primrose Hill’. Although both vinyl albums have long since been deleted, they represent a bold attempt at fusing what would be termed rock jazz as opposed to jazz rock. The debut was finally reissued in 2003 by Angel Air. This welcome release has bonus tracks and the running order changed yet the original version of ‘Primrose Hill’ is sadly replaced by an inferior alternate take.
Rock Workshop - Rock Workshop (1970)  {2002, Reissue, Remastered}



Tracklist

1. Ice Cold (2:58)
2. Wade In The Water (3:46)
3. Hole In Her Stocking (4:09)
4. He Looks At Me/Mooncross Grove (10:19)
5. Spine Cop (3:48)
6. Born In The City (3:02)
7. Theme For Freedom (7:35)
8. You To Lose (6:42)
Bonus tracks:
9. Spine Cop (alt version) (3:51)
10. Hole In Her Stocking (alt version) (5:31)
11. Born In The City (alt version) (2:47)
12. You To Lose (alt version) (5:26)
13. Primrose Hill (5:41)
14. Return Of The Goddess (5:41)

Exact Audio Copy V0.99 prebeta 4 from 23. January 2008

Отчёт EAC об извлечении, выполненном 13. августа 2009, 21:17

Rock Workshop / Rock Workshop

Дисковод: PLEXTOR DVD-ROM PX-116A2 Adapter: 3 ID: 0

Режим чтения : Достоверность
Использование точного потока : Да
Отключение кэша аудио : Да
Использование указателей C2 : Нет

Коррекция смещения при чтении : 102
Способность читать области Lead-in и Lead-out : Нет
Заполнение пропущенных сэмплов тишиной : Да
Удаление блоков с тишиной в начале и конце : Нет
При вычислениях CRC использовались нулевые сэмплы : Да
Интерфейс : Встроенный Win32-интерфейс для Win NT/2000

Выходной формат : Внутренние WAV-операции
Формат сэмплов : 44.100 Гц; 16 бит; стерео


TOC извлечённого CD

Трек | Старт | Длительность | Начальный сектор | Конечный сектор
––––––––––––––––––––––––––––––––––-
1 | 0:00.00 | 2:58.04 | 0 | 13353
2 | 2:58.04 | 3:45.48 | 13354 | 30276
3 | 6:43.52 | 4:09.17 | 30277 | 48968
4 | 10:52.69 | 10:19.07 | 48969 | 95400
5 | 21:12.01 | 3:47.72 | 95401 | 112497
6 | 24:59.73 | 3:01.61 | 112498 | 126133
7 | 28:01.59 | 7:34.72 | 126134 | 160255
8 | 35:36.56 | 6:41.62 | 160256 | 190392
9 | 42:18.43 | 3:50.60 | 190393 | 207702
10 | 46:09.28 | 5:31.01 | 207703 | 232528
11 | 51:40.29 | 2:47.37 | 232529 | 245090
12 | 54:27.66 | 5:25.65 | 245091 | 269530
13 | 59:53.56 | 5:41.18 | 269531 | 295123
14 | 65:34.74 | 5:40.65 | 295124 | 320688


Характеристики диапазона извлечения и сообщения об ошибках

Выбранный диапазон

Имя файла C:\1_MUSIC\Lossless\Rock Workshop - Rock Workshop 1971\Rock Workshop - Rock Workshop.wav

Пиковый уровень 91.2 %
Качество диапазона 100.0 %
CRC копии B1151436
Копирование… OK

Ошибок не произошло


AccurateRip: сводка

Трек 1 нет в базе данных
Трек 2 нет в базе данных
Трек 3 нет в базе данных
Трек 4 нет в базе данных
Трек 5 нет в базе данных
Трек 6 нет в базе данных
Трек 7 нет в базе данных
Трек 8 нет в базе данных
Трек 9 нет в базе данных
Трек 10 нет в базе данных
Трек 11 нет в базе данных
Трек 12 нет в базе данных
Трек 13 нет в базе данных
Трек 14 нет в базе данных

Ни одного трека нет в базе AccurateRip

Конец отчёта

[CUETools log; Date: 29.09.2016 15:24:15; Version: 2.1.5]
[CTDB TOCID: o_fZesqUAUuzgqsDKjKnNzWkd7s-] found.
Track | CTDB Status
1 | (4/4) Accurately ripped
2 | (4/4) Accurately ripped
3 | (4/4) Accurately ripped
4 | (4/4) Accurately ripped
5 | (4/4) Accurately ripped
6 | (4/4) Accurately ripped
7 | (4/4) Accurately ripped
8 | (4/4) Accurately ripped
9 | (4/4) Accurately ripped
10 | (4/4) Accurately ripped
11 | (4/4) Accurately ripped
12 | (4/4) Accurately ripped
13 | (4/4) Accurately ripped
14 | (4/4) Accurately ripped
[AccurateRip ID: 0023d3ad-01830d57-b910b30e] disk not present in database.

Track Peak [ CRC32 ] [W/O NULL] [ LOG ]
– 91,2 [B1151436] [80BC6913] CRC32
01 91,2 [49034D40] [89D7B013]
02 91,2 [EF0B3A77] [EB01213B]
03 91,2 [DD93C990] [A2EF538E]
04 91,2 [25D4B01F] [221319C1]
05 91,2 [36EBA8D6] [5440C1C8]
06 91,2 [0A75A304] [7B3E716A]
07 91,2 [4DC06CFF] [520F4C30]
08 91,2 [94A911E7] [726AA1C7]
09 91,2 [3D3A71AC] [EBFA02A8]
10 90,8 [04B1085E] [BF4C24F4]
11 90,4 [266F5D4F] [5F704A76]
12 91,2 [6287B330] [46D03339]
13 91,2 [E456539D] [7034D6A0]
14 91,2 [C7CDC21D] [CBAC5E1A]


Musicians

Ray Russell - guitar
Alan Greed & Alex Harvey - vocals
Bud Parkes - trumpet
Harry Beckett - trumpet, flugelhorn
Tony Roberts - tenor, concert flute, alto flute
Bob Downes - tenor, concert flute, alto flute
Derek Wadsworth - trombone
Brian Miller - keyboards
Daryl Runswick - bass
Alan Rushton - drums
Robin Jones - drums, congas

Rock Workshop - Rock Workshop (1970)  {2002, Reissue, Remastered}

All thanks goes to pinero
=====