Subcategories

Rock Workshop - The Very Last Time (1971) [Reissue 2004]

Posted By: gribovar
Rock Workshop - The Very Last Time (1971) [Reissue 2004]

Rock Workshop - The Very Last Time (1971) [Reissue 2004]
EAC Rip | FLAC (image+.cue+log) - 547 MB | MP3 CBR 320 kbps (LAME 3.93) - 184 MB | Covers (8 MB) included
Genre: Progressive/Jazz Rock | RAR 3% Rec. | Label: Angel Air Records (SJPCD171)

Ray Russell and Alex Harvey formed Rock Workshop in the early 70's, and it became an expansive band of thirteen musicians, most of which were of the U.K.'s leading young jazz musicians, who created an innovative and technically innovative form of experimental rhythm and blues. Ray Russell recalls that he was playing with Georgie Fame and the Blue Flames and then appeared in the 'Hair' musical together with Alex Harvey's brother Les. It was from this meeting, and Alex Harvey's involvement on backing vocals in the musical, the idea of Rock Workshop was born. The collective's first album was issued in 1971 to great critical acclaim. However, due to their record label wanting to market them as an English 'Blood Sweat & Tears', they never achieved any great commercial success. A second album was released, 1971's The Very Last Time before the band folded and Harvey went on to great commercial and critical success with his own band (The Sensational Alex Harvey Band).
Tracklist:
01. Living Reason
02. Street War (Pt. 1 & 2)
03. Going Home
04. What's Mine Is Mine
05. Wheeping Wood Mandalas
06. Forgotten How To Live
07. Light As Light
08. I Think It's…
09. Ella Banta Dum Bundy
10. Very Last Time
11. Is This The End… Baby?

Bonus tracks:
12. Let My Bluebird Sing (vocals Alex Harvey)
13. Wade In The Water (vocals Alex Harvey)
14. Ice Cold (vocals Alex Harvey)
15. Heavy Weather
16. Patterns
17. Watch Your Step
18. Ashen Besher

Total time: 01:14:32

Exact Audio Copy V0.99 prebeta 4 from 23. January 2008

Отчёт EAC об извлечении, выполненном 16. апреля 2009, 18:24

Rock Workshop / The Very Last time

Дисковод: PLEXTOR DVD-ROM PX-116A2 Adapter: 3 ID: 0

Режим чтения : Достоверность
Использование точного потока : Да
Отключение кэша аудио : Да
Использование указателей C2 : Нет

Коррекция смещения при чтении : 102
Способность читать области Lead-in и Lead-out : Нет
Заполнение пропущенных сэмплов тишиной : Да
Удаление блоков с тишиной в начале и конце : Нет
При вычислениях CRC использовались нулевые сэмплы : Да
Интерфейс : Встроенный Win32-интерфейс для Win NT/2000

Выходной формат : Внутренние WAV-операции
Формат сэмплов : 44.100 Гц; 16 бит; стерео


TOC извлечённого CD

Трек | Старт | Длительность | Начальный сектор | Конечный сектор
––––––––––––––––––––––––––––––––––-
1 | 0:00.00 | 4:13.05 | 0 | 18979
2 | 4:13.05 | 9:12.49 | 18980 | 60428
3 | 13:25.54 | 5:42.56 | 60429 | 86134
4 | 19:08.35 | 2:54.38 | 86135 | 99222
5 | 22:02.73 | 1:51.54 | 99223 | 107601
6 | 23:54.52 | 4:00.11 | 107602 | 125612
7 | 27:54.63 | 3:49.70 | 125613 | 142857
8 | 31:44.58 | 4:01.66 | 142858 | 160998
9 | 35:46.49 | 6:22.38 | 160999 | 189686
10 | 42:09.12 | 3:31.08 | 189687 | 205519
11 | 45:40.20 | 0:51.41 | 205520 | 209385
12 | 46:31.61 | 4:04.21 | 209386 | 227706
13 | 50:36.07 | 3:41.43 | 227707 | 244324
14 | 54:17.50 | 3:04.65 | 244325 | 258189
15 | 57:22.40 | 4:39.34 | 258190 | 279148
16 | 62:01.74 | 2:44.73 | 279149 | 291521
17 | 64:46.72 | 4:16.27 | 291522 | 310748
18 | 69:03.24 | 5:28.49 | 310749 | 335397


Характеристики диапазона извлечения и сообщения об ошибках

Выбранный диапазон

Имя файла C:\1_MUSIC\Lossless\Rock Workshop - The Very Last time\Rock Workshop - The Very Last time.wav

Пиковый уровень 100.0 %
Качество диапазона 100.0 %
CRC копии 920744D3
Копирование… OK

Ошибок не произошло


AccurateRip: сводка

Трек 1 точное извлечение (доверие 1) [7E1B622F]
Трек 2 точное извлечение (доверие 1) [D879AEF5]
Трек 3 точное извлечение (доверие 1) [A518C2A4]
Трек 4 точное извлечение (доверие 1) [236E67FF]
Трек 5 точное извлечение (доверие 1) [96CF34E9]
Трек 6 точное извлечение (доверие 1) [E1E9F9FD]
Трек 7 точное извлечение (доверие 1) [13D42402]
Трек 8 точное извлечение (доверие 1) [758979CF]
Трек 9 точное извлечение (доверие 1) [E931D97D]
Трек 10 точное извлечение (доверие 1) [D6E5EB7D]
Трек 11 точное извлечение (доверие 1) [DAFA5EA9]
Трек 12 точное извлечение (доверие 1) [4BCFC301]
Трек 13 точное извлечение (доверие 1) [7C3599F7]
Трек 14 точное извлечение (доверие 1) [A4F6017C]
Трек 15 точное извлечение (доверие 1) [3C69A0CA]
Трек 16 точное извлечение (доверие 1) [29F566ED]
Трек 17 точное извлечение (доверие 1) [F7B5FC24]
Трек 18 точное извлечение (доверие 1) [90B173EF]

Все треки извлечены точно

Конец отчёта

[CUETools log; Date: 22.10.2017 13:56:44; Version: 2.1.4]
[CTDB TOCID: BTie44EoxYU1y7llvIj5zOJc0wY-] found.
Track | CTDB Status
1 | (5/5) Accurately ripped
2 | (5/5) Accurately ripped
3 | (5/5) Accurately ripped
4 | (5/5) Accurately ripped
5 | (5/5) Accurately ripped
6 | (5/5) Accurately ripped
7 | (5/5) Accurately ripped
8 | (5/5) Accurately ripped
9 | (4/5) Accurately ripped
10 | (5/5) Accurately ripped
11 | (5/5) Accurately ripped
12 | (5/5) Accurately ripped
13 | (5/5) Accurately ripped
14 | (5/5) Accurately ripped
15 | (5/5) Accurately ripped
16 | (5/5) Accurately ripped
17 | (5/5) Accurately ripped
18 | (5/5) Accurately ripped
[AccurateRip ID: 00332b80-02979608-07117712] found.
Track [ CRC | V2 ] Status
01 [7e1b622f|1c50ac71] (2+0/2) Accurately ripped
02 [d879aef5|01753b5e] (2+0/2) Accurately ripped
03 [a518c2a4|715633aa] (2+0/2) Accurately ripped
04 [236e67ff|ddef9465] (2+0/2) Accurately ripped
05 [96cf34e9|e44e9131] (2+0/2) Accurately ripped
06 [e1e9f9fd|923da510] (2+0/2) Accurately ripped
07 [13d42402|5315d6cc] (2+0/2) Accurately ripped
08 [758979cf|73c1e48c] (2+0/2) Accurately ripped
09 [e931d97d|46f85876] (2+0/2) Accurately ripped
10 [d6e5eb7d|694b7733] (2+0/2) Accurately ripped
11 [dafa5ea9|9be9d411] (2+0/2) Accurately ripped
12 [4bcfc301|000e5bac] (2+0/2) Accurately ripped
13 [7c3599f7|4f9f1455] (2+0/2) Accurately ripped
14 [a4f6017c|fb3c67e4] (2+0/2) Accurately ripped
15 [3c69a0ca|bb2b3314] (2+0/2) Accurately ripped
16 [29f566ed|44c2d06d] (2+0/2) Accurately ripped
17 [f7b5fc24|95173e38] (2+0/2) Accurately ripped
18 [90b173ef|0fb920c3] (2+0/2) Accurately ripped

Track Peak [ CRC32 ] [W/O NULL] [ LOG ]
– 100,0 [920744D3] [40277B16] CRC32
01 96,9 [E0C20CDF] [8C10093B]
02 95,7 [C382661C] [7AFF5F39]
03 97,5 [F052D025] [285085DC]
04 95,8 [5684B88E] [4BCE9B50]
05 94,9 [E197E143] [404D7AA5]
06 100,0 [634006AE] [674BF5C1]
07 100,0 [1A2ED6D4] [0D6F6837]
08 96,2 [920D0AFA] [8C7333A3]
09 97,1 [F7CCE160] [6AB755CF]
10 99,7 [4A6CCB67] [02EA93A5]
11 62,7 [15C6C4E1] [D60CD1BD]
12 94,8 [4D15FD5C] [1BCEF90F]
13 100,0 [62DAE283] [FCFE56FD]
14 100,0 [40D1A8F6] [2D64D0A4]
15 77,9 [86503DB6] [E5B20E79]
16 85,5 [96F4821B] [23BB3CBC]
17 86,8 [B34D5AE7] [85D96EF3]
18 95,9 [4508BFAA] [174634B0]

Thanks to pinero