Subcategories

Rod Stewart - Atlantic Crossing (1975)

Posted By: v3122
Rod Stewart - Atlantic Crossing (1975)

Rod Stewart - Atlantic Crossing (1975)
Rock | EAC Rip | Flac(Image) + Cue + Log | MP3 CBR 320Kbps | 10 Tracks
Covers Included | Warner Bross | 9 47729-2 | ~325 + 109 Mb | FSonic, FServe

Rod Stewart's sixth album, released in 1975, and peaking at number nine on the Billboard Top Pop Albums chart.

Rod Stewart - Atlantic Crossing (1975)

Rod Stewart - Atlantic Crossing (1975)

Tracklist:

1. "Three Time Loser" (Stewart) – 4:03
2. "Alright For An Hour" (Stewart, Jesse Ed Davis) – 4:17
3. "All In The Name Of Rock & Roll" (Stewart) – 5:02
4. "Drift Away" (Mentor Williams) – 3:43
5. "Stone Cold Sober" (Stewart, Steve Cropper}– 4:00
6. "I Don't Want To Talk About It" (Danny Whitten) – 4:47
7. "It's Not The Spotlight" (Barry Goldberg, Gerry Goffin) – 4:47
8. "This Old Heart of Mine" (Holland-Dozier-Holland, Sylvia Moy) – 4:04
9. "Still Love You" (Stewart) – 5:08
10. "Sailing" (Gavin Sutherland) – 4:37

Personnel:

Rod Stewart - vocals
Pete Carr - guitars
Jesse Ed Davis - guitars
Steve Cropper - guitars
Fred Tackett, guitars
Jimmy Johnson - guitars
Barry Beckett - keyboards
Albhy Galuten - keyboards
Donald "Duck" Dunn - bass
Lee Sklar - bass
Bob Glaub - bass
David Hood - bass
David Lindley - mandolin, violin
Al Jackson - drums
Roger Hawkins - drums
Nigel Olsson - drums
Willie Correa - drums
The Memphis Horns - trumpet, trombone, saxophone
Cindy & Bob Singers, The Pets & The Clappers - backing vocals

Exact Audio Copy V0.99 prebeta 4 from 23. January 2008

Отчёт EAC об извлечении, выполненном 26. декабря 2008, 2:09

Rod Stewart / Atlantic Crossing

Дисковод: Optiarc DVD RW AD-7191S Adapter: 0 ID: 1

Режим чтения : Достоверность
Использование точного потока : Да
Отключение кэша аудио : Да
Использование указателей C2 : Нет

Коррекция смещения при чтении : 6
Способность читать области Lead-in и Lead-out : Нет
Заполнение пропущенных сэмплов тишиной : Да
Удаление блоков с тишиной в начале и конце : Нет
При вычислениях CRC использовались нулевые сэмплы : Да
Интерфейс : Встроенный Win32-интерфейс для Win NT/2000

Выходной формат : Пользовательский кодировщик
Выбранный битрейт : 768 kBit/s
Качество : Высокий
Добавление ID3-тэга : Нет
Утилита сжатия : C:\Program Files\Exact Audio Copy\FLAC\FLAC.EXE
Дополнительные параметры : -6 -V -T "ARTIST=%a" -T "TITLE=%t" -T "ALBUM=%g" -T "DATE=%y" -T "TRACKNUMBER=%n" -T "GENRE=%m" -T "COMMENT=%e" %s -o %d


TOC извлечённого CD

Трек | Старт | Длительность | Начальный сектор | Конечный сектор
––––––––––––––––––––––––––––––––––-
1 | 0:02.00 | 4:07.27 | 150 | 18701
2 | 4:09.27 | 4:20.30 | 18702 | 38231
3 | 8:29.57 | 5:03.58 | 38232 | 61014
4 | 13:33.40 | 3:46.07 | 61015 | 77971
5 | 17:19.47 | 4:14.53 | 77972 | 97074
6 | 21:34.25 | 4:50.05 | 97075 | 118829
7 | 26:24.30 | 4:24.22 | 118830 | 138651
8 | 30:48.52 | 4:07.23 | 138652 | 157199
9 | 34:56.00 | 5:13.17 | 157200 | 180691
10 | 40:09.17 | 4:37.72 | 180692 | 201538


Характеристики диапазона извлечения и сообщения об ошибках

Выбранный диапазон

Имя файла F:\download\norrent\ROD STEWART\1975' Atlantic Crossing\Rod Stewart - Atlantic Crossing.wav

Пиковый уровень 99.9 %
Качество диапазона 100.0 %
CRC теста EDB54C6E
CRC копии EDB54C6E
Копирование… OK

Ошибок не произошло


Конец отчёта

AUDIOCHECKER v2.0 beta (build 457) - by Dester - opdester@freemail.hu
~~~~~~~~~~~~~~~~~~~~~~~~~~~~~~~~~~
-=== DO NOT EDIT THIS FILE! ===-

Path: …\1975' Atlantic Crossing

01 -=- Rod Stewart - Atlantic Crossing.flac -=- CDDA (100%)

229893700

[Verification date: 26.08.2010 16:25:27]
[Disc ID: 0010a20b-00857d07-760a7d0a]
Pregap length 00:02:00.
Track [ CRC ] Status
01 [035acbbe] (01/01) Accurately ripped as in pressing(s) #1
02 [2fe6f45a] (01/01) Accurately ripped as in pressing(s) #1
03 [1c3e757d] (01/01) Accurately ripped as in pressing(s) #1
04 [dcc3c7f2] (01/01) Accurately ripped as in pressing(s) #1
05 [8053d093] (01/01) Accurately ripped as in pressing(s) #1
06 [89f6f5a6] (01/01) Accurately ripped as in pressing(s) #1
07 [5c673699] (01/01) Accurately ripped as in pressing(s) #1
08 [c2352942] (01/01) Accurately ripped as in pressing(s) #1
09 [76fa5121] (01/01) Accurately ripped as in pressing(s) #1
10 [734bdfa6] (01/01) Accurately ripped as in pressing(s) #1

Track [ CRC32 ] [W/O NULL] [ LOG ]
– [EDB54C6E] [20C5C2E0] CRC32
01 [BA7FC7E6] [30B8412E]
02 [B6EBB65A] [90C1EA75]
03 [7ECD0050] [40309007]
04 [0B3E3D0A] [6B7E8C27]
05 [1D2307F4] [68F2BD43]
06 [8B7C953C] [8CB90887]
07 [30DDB640] [9E6E9E9A]
08 [3929451C] [9D280BA5]
09 [86E129A6] [586B4EA0]
10 [E6538E86] [CB19F48C]

Rod Stewart - Atlantic Crossing (1975)


Download Rod Stewart - Atlantic Crossing (1975):

FileSonic: Flac | MP3
FileServe: Flac | MP3

In case you encounter dead links, please send me a private message.

All thanks go to mirgilip