Subcategories

Rod Stewart - Foot Loose & Fancy Free (1977)

Posted By: v3122
Rod Stewart - Foot Loose & Fancy Free (1977)

Rod Stewart - Foot Loose & Fancy Free (1977)
Rock | EAC Rip | Flac(Image) + Cue + Log | MP3 CBR 320Kbps | 8 Tracks
Covers Included | Warner Bross | 3092-2 | USA | ~273 + 109 Mb | HF, FileSonic

Kicking off with the swagger and machismo of one of the quintessential 70's anthems, "Hot Legs", FOOT LOOSE AND FANCY FREE is a blistering joyride, a swaggering period piece that,like all of Rod's best work, immerses itself in the prevalent style of the time– by 1977, funk-tinged rock was all therage, and FOOT LOOSE is a carnival of wah-wah guitars ("You're Insane"), epic arrangements ("You Just Keep Me Hanging On"), and unabashed earnestness (the nostalgic and confessional "I Was Only Joking".) FOOT LOOSE's greatest contribution to the Stewart canon has to be "You're In My Heart", a timely, sensitive classic that stirs in just enough breathy whimsy to its strangely down-home feel (bluegrass violins and U.K. football references not being one of your more common pairings in pop music) to create yet another milestone in Stewart's varied and timeless career.

Amazon Review

Tracklist:

1. Hot Legs (Rod Stewart) – 5:14
2. You're Insane (Rod Stewart, Phil Chen) – 4:48
3. You're In My Heart (The Final Acclaim) (Rod Stewart) – 4:30
4. Born Loose (Rod Stewart, Jim Cregan, Gary Grainger) – 6:02
5. You Keep Me Hangin' On (B. Holland, L.Dozier, E.Holland) – 7:28
6. (If Loving You Is Wrong) I Don't Want to Be Right (Homer Banks, Carl Hampton, Raymond Jackson) – 5:23
7. You Got A Nerve (Rod Stewart, Gary Grainger) – 4:59
8. I Was Only Joking (Rod Stewart, Gary Grainger) – 6:07

Personnel:

Jim Cregan, Gary Grainger, Steve Cropper, Billy Peek, Fred Tackett - guitars
Phil Chen - bass
Carmine Appice - drums
John Jarvis, David Foster, Nicky Hopkins - keyboards
Paulinho Da Costa, Tom Vig - percussion
Phil Kenzie - horns
Richard Greene - violin

Exact Audio Copy V0.99 prebeta 4 from 23. January 2008

Отчёт EAC об извлечении, выполненном 1. апреля 2008, 12:47

Rod Stewart / Foot Loose & Fancy Free

Дисковод: Optiarc DVD RW AD-7191S Adapter: 0 ID: 1

Режим чтения : Достоверность
Использование точного потока : Да
Отключение кэша аудио : Да
Использование указателей C2 : Нет

Коррекция смещения при чтении : 6
Способность читать области Lead-in и Lead-out : Нет
Заполнение пропущенных сэмплов тишиной : Да
Удаление блоков с тишиной в начале и конце : Нет
При вычислениях CRC использовались нулевые сэмплы : Да
Интерфейс : Встроенный Win32-интерфейс для Win NT/2000

Выходной формат : Пользовательский кодировщик
Выбранный битрейт : 768 kBit/s
Качество : Высокий
Добавление ID3-тэга : Нет
Утилита сжатия : C:\Program Files\Exact Audio Copy\FLAC\FLAC.EXE
Дополнительные параметры : -6 -V -T "ARTIST=%a" -T "TITLE=%t" -T "ALBUM=%g" -T "DATE=%y" -T "TRACKNUMBER=%n" -T "GENRE=%m" -T "COMMENT=%e" %s -o %d


TOC извлечённого CD

Трек | Старт | Длительность | Начальный сектор | Конечный сектор
––––––––––––––––––––––––––––––––––-
1 | 0:00.33 | 5:14.42 | 33 | 23624
2 | 5:15.00 | 4:51.55 | 23625 | 45504
3 | 10:06.55 | 4:30.20 | 45505 | 65774
4 | 14:37.00 | 6:04.20 | 65775 | 93094
5 | 20:41.20 | 7:28.08 | 93095 | 126702
6 | 28:09.28 | 5:26.27 | 126703 | 151179
7 | 33:35.55 | 4:59.23 | 151180 | 173627
8 | 38:35.03 | 6:07.05 | 173628 | 201157


Характеристики диапазона извлечения и сообщения об ошибках

Выбранный диапазон

Имя файла F:\rip\1977' Foot Loose & Fancy Free\Rod Stewart - Foot Loose & Fancy Free.wav

Пиковый уровень 100.0 %
Качество диапазона 99.9 %
CRC теста F3687117
CRC копии F3687117
Копирование… OK

Ошибок не произошло


Конец отчёта

AUDIOCHECKER v2.0 beta (build 457) - by Dester - opdester@freemail.hu
~~~~~~~~~~~~~~~~~~~~~~~~~~~~~~~~~~
-=== DO NOT EDIT THIS FILE! ===-

Path: …\1977' Foot Loose & Fancy Free

01 -=- Rod Stewart - Foot Loose & Fancy Free.flac -=- CDDA (100%)

11739460

Rod Stewart - Foot Loose & Fancy Free (1977)


All thanks go to mirgilip