Subcategories

Rod Stewart - Still The Same... Great Rock Classics Of Our Time (2006)

Posted By: popsakov
Rod Stewart - Still The Same... Great Rock Classics Of Our Time (2006)

Rod Stewart - Still The Same… Great Rock Classics Of Our Time (2006)
EAC Rip | FLAC (Img) + Cue + Log ~ 409 Mb | MP3 CBR320 ~ 148 Mb
Scans Included (JPG, 600 dpi) | RAR 5% Recovery
Pop Rock, Soft Rock | J Records / Sony BMG Music #88697 02204 2

Still the Same… Great Rock Classics of Our Time is an album by Rod Stewart, released on 10 October 2006. After four years singing pop standards from the Great American Songbook with great success, this album continues the notion of singing old material, but now in his classic musical genre – rock. The album is produced by Clive Davis and John Shanks (the former also produced the American Songbook albums) and includes rock milestones from the last four decades, including "It's a Heartache", "Day After Day" and Creedence Clearwater Revival's classic "Have You Ever Seen the Rain?", which was picked as the first single from the album. The album debuted #1 on the Billboard 200 albums chart, making it his fifth Top 5 and second #1 debut in three years. Stewart said he was "extremely happy" with the accomplishment.
~ Wiki
Rod Stewart - Still The Same... Great Rock Classics Of Our Time (2006)


***************

Rod Stewart - Still The Same... Great Rock Classics Of Our Time (2006)

Rod Stewart - Still The Same... Great Rock Classics Of Our Time (2006)

Track List:

01. Have You Ever Seen The Rain [3:12]
02. Fooled Around And Fell In Love [3:48]
03. I'll Stand By You [4:29]
04. Still The Same [3:38]
05. It's A Heartache [3:33]
06. Day After Day [3:07]
07. Missing You [4:18]
08. Father & Son [3:37]
09. The Best Of My Love [3:44]
10. If Not For You [3:36]
11. Love Hurts [3:47]
12. Everything I Own [3:06]
13. Crazy Love [2:43]
14. Lay Down Sally [3:27]

Exact Audio Copy V1.3 from 2. September 2016

EAC extraction logfile from 21. August 2017, 20:20

Rod Stewart / Still The Same… Great Rock Classics Of Our Time

Used drive : ATAPI iHAS122 C Adapter: 1 ID: 0

Read mode : Secure
Utilize accurate stream : Yes
Defeat audio cache : Yes
Make use of C2 pointers : No

Read offset correction : 6
Overread into Lead-In and Lead-Out : No
Fill up missing offset samples with silence : Yes
Delete leading and trailing silent blocks : No
Null samples used in CRC calculations : Yes
Used interface : Native Win32 interface for Win NT & 2000

Used output format : Internal WAV Routines
Sample format : 44.100 Hz; 16 Bit; Stereo


TOC of the extracted CD

Track | Start | Length | Start sector | End sector
––––––––––––––––––––––––––––-
1 | 0:00.00 | 3:12.11 | 0 | 14410
2 | 3:12.11 | 3:48.25 | 14411 | 31535
3 | 7:00.36 | 4:29.11 | 31536 | 51721
4 | 11:29.47 | 3:38.05 | 51722 | 68076
5 | 15:07.52 | 3:32.69 | 68077 | 84045
6 | 18:40.46 | 3:07.32 | 84046 | 98102
7 | 21:48.03 | 4:18.36 | 98103 | 117488
8 | 26:06.39 | 3:36.61 | 117489 | 133749
9 | 29:43.25 | 3:44.24 | 133750 | 150573
10 | 33:27.49 | 3:36.02 | 150574 | 166775
11 | 37:03.51 | 3:47.11 | 166776 | 183811
12 | 40:50.62 | 3:06.08 | 183812 | 197769
13 | 43:56.70 | 2:42.60 | 197770 | 209979
14 | 46:39.55 | 3:26.69 | 209980 | 225498


Range status and errors

Selected range

Filename C:\Users\London\Desktop\Rod Stewart - Still The Same… Great Rock Classics Of Our Time.wav

Peak level 97.7 %
Extraction speed 8.2 X
Range quality 100.0 %
Test CRC 8B423C11
Copy CRC 8B423C11
Copy OK

No errors occurred


AccurateRip summary

Track 1 accurately ripped (confidence 10) [57A4A596] (AR v2)
Track 2 accurately ripped (confidence 10) [BDC9629C] (AR v2)
Track 3 accurately ripped (confidence 10) [C12C064A] (AR v2)
Track 4 accurately ripped (confidence 10) [F7FF38CB] (AR v2)
Track 5 accurately ripped (confidence 10) [F2FF1D16] (AR v2)
Track 6 accurately ripped (confidence 10) [0720F562] (AR v2)
Track 7 accurately ripped (confidence 10) [3D461083] (AR v2)
Track 8 accurately ripped (confidence 10) [7F86BB8A] (AR v2)
Track 9 accurately ripped (confidence 10) [E51AD04E] (AR v2)
Track 10 accurately ripped (confidence 10) [C842D9B1] (AR v2)
Track 11 accurately ripped (confidence 10) [6F69D1B7] (AR v2)
Track 12 accurately ripped (confidence 10) [953A45F2] (AR v2)
Track 13 accurately ripped (confidence 10) [CE1BAC70] (AR v2)
Track 14 accurately ripped (confidence 10) [776098AB] (AR v2)

All tracks accurately ripped

End of status report

–– CUETools DB Plugin V2.1.6

[CTDB TOCID: k7B9p.FkE8wwwUEYiLo0mrxkrhs-] found
Submit result: k7B9p.FkE8wwwUEYiLo0mrxkrhs- has been confirmed
Track | CTDB Status
1 | (36/36) Accurately ripped
2 | (36/36) Accurately ripped
3 | (36/36) Accurately ripped
4 | (36/36) Accurately ripped
5 | (36/36) Accurately ripped
6 | (36/36) Accurately ripped
7 | (36/36) Accurately ripped
8 | (36/36) Accurately ripped
9 | (36/36) Accurately ripped
10 | (36/36) Accurately ripped
11 | (36/36) Accurately ripped
12 | (36/36) Accurately ripped
13 | (36/36) Accurately ripped
14 | (35/36) Accurately ripped


==== Log checksum 7B33F31BC90F641C18F4D36B068AFD6B1A7CE58A09407759DD64BF32F4037EB8 ====

foobar2000 1.3.16 / Dynamic Range Meter 1.1.1
log date: 2017-11-11 14:14:22

––––––––––––––––––––––––––––––––––––––––
Analyzed: Rod Stewart / Still The Same… Great Rock Classics Of Our Time
––––––––––––––––––––––––––––––––––––––––

DR Peak RMS Duration Track
––––––––––––––––––––––––––––––––––––––––
DR7 -0.21 dB -8.20 dB 3:12 01-Have You Ever Seen The Rain
DR6 -0.20 dB -7.63 dB 3:48 02-Fooled Around And Fell In Love
DR6 -0.24 dB -8.34 dB 4:29 03-I'll Stand By You
DR7 -0.20 dB -8.06 dB 3:38 04-Still The Same
DR7 -0.24 dB -8.01 dB 3:33 05-It's A Heartache
DR7 -0.20 dB -8.83 dB 3:07 06-Day After Day
DR7 -0.20 dB -8.26 dB 4:18 07-Missing You
DR8 -0.21 dB -10.05 dB 3:37 08-Father & Son
DR8 -0.20 dB -9.55 dB 3:44 09-The Best Of My Love
DR7 -0.20 dB -7.94 dB 3:36 10-If Not For You
DR7 -0.25 dB -8.77 dB 3:47 11-Love Hurts
DR7 -0.21 dB -9.71 dB 3:06 12-Everything I Own
DR9 -0.20 dB -10.42 dB 2:43 13-Crazy Love
DR7 -0.24 dB -8.39 dB 3:27 14-Lay Down Sally
––––––––––––––––––––––––––––––––––––––––

Number of tracks: 14
Official DR value: DR7

Samplerate: 44100 Hz
Channels: 2
Bits per sample: 16
Bitrate: 1013 kbps
Codec: FLAC
================================================================================

[CUETools log; Date: 11.11.2017 14:07:41; Version: 2.1.5]
[CTDB TOCID: k7B9p.FkE8wwwUEYiLo0mrxkrhs-] found.
Track | CTDB Status
1 | (38/38) Accurately ripped
2 | (38/38) Accurately ripped
3 | (38/38) Accurately ripped
4 | (38/38) Accurately ripped
5 | (38/38) Accurately ripped
6 | (38/38) Accurately ripped
7 | (38/38) Accurately ripped
8 | (38/38) Accurately ripped
9 | (38/38) Accurately ripped
10 | (38/38) Accurately ripped
11 | (38/38) Accurately ripped
12 | (38/38) Accurately ripped
13 | (38/38) Accurately ripped
14 | (37/38) Accurately ripped
[AccurateRip ID: 001a73a9-01197136-af0bbe0e] found.
Track [ CRC | V2 ] Status
01 [d155a275|57a4a596] (08+10/43) Accurately ripped
02 [1144d6fb|bdc9629c] (08+10/44) Accurately ripped
03 [507983ff|c12c064a] (08+10/44) Accurately ripped
04 [694b87dc|f7ff38cb] (08+10/44) Accurately ripped
05 [5fbd838f|f2ff1d16] (08+10/44) Accurately ripped
06 [5212614d|0720f562] (08+10/44) Accurately ripped
07 [8b896f45|3d461083] (08+10/44) Accurately ripped
08 [1ee9ee6d|7f86bb8a] (08+10/44) Accurately ripped
09 [58b393e4|e51ad04e] (07+10/43) Accurately ripped
10 [73e371e2|c842d9b1] (07+10/43) Accurately ripped
11 [008b9e2d|6f69d1b7] (07+10/43) Accurately ripped
12 [53426c35|953a45f2] (08+10/44) Accurately ripped
13 [2ca0857a|ce1bac70] (08+10/44) Accurately ripped
14 [0ba45852|776098ab] (08+10/44) Accurately ripped
Offsetted by -634:
01 [3c34ea0b] (05/43) Accurately ripped
02 [02106ed1] (05/44) Accurately ripped
03 [8f7cd071] (05/44) Accurately ripped
04 [e6067e8f] (05/44) Accurately ripped
05 [46f05062] (05/44) Accurately ripped
06 [1e6225db] (05/44) Accurately ripped
07 [b91f9aaa] (05/44) Accurately ripped
08 [63acca91] (05/44) Accurately ripped
09 [c92714eb] (05/43) Accurately ripped
10 [ba0b5cab] (05/43) Accurately ripped
11 [3c562942] (05/43) Accurately ripped
12 [4716b058] (05/44) Accurately ripped
13 [73c44c3d] (05/44) Accurately ripped
14 [bde3921a] (05/44) Accurately ripped
Offsetted by 12:
01 [11b864fa] (04/43) Accurately ripped
02 [4da181d8] (04/44) Accurately ripped
03 [1bd5ad7b] (04/44) Accurately ripped
04 [ac99730e] (04/44) Accurately ripped
05 [78967b17] (04/44) Accurately ripped
06 [e5158800] (04/44) Accurately ripped
07 [b8e15d4b] (04/44) Accurately ripped
08 [14f7a22e] (04/44) Accurately ripped
09 [a1d973d8] (04/43) Accurately ripped
10 [01edb47a] (04/43) Accurately ripped
11 [9c2b9f09] (04/43) Accurately ripped
12 [d6a4eae7] (04/44) Accurately ripped
13 [0d848089] (04/44) Accurately ripped
14 [f90267f8] (04/44) Accurately ripped

Track Peak [ CRC32 ] [W/O NULL] [ LOG ]
– 97,7 [8B423C11] [3FF4E2E6] CRC32
01 97,6 [1C3CE258] [E1031022]
02 97,7 [BFC3E50B] [6590D244]
03 97,3 [53482C00] [2D11F304]
04 97,7 [495A8E10] [08762845]
05 97,2 [DD5FAAE9] [52CDA110]
06 97,7 [5DFD4D27] [4C0AD71F]
07 97,7 [3D529420] [8E72FD2E]
08 97,6 [767ABC52] [DFF3A9A1]
09 97,7 [B7EA8DDE] [6A95E5FB]
10 97,7 [F8949E3A] [BDE17DDA]
11 97,1 [6C24EE32] [63C5DC85]
12 97,6 [3BFC6AF9] [DBE55921]
13 97,7 [3E1C04A0] [AEC52875]
14 97,3 [569CFA95] [BABC0253]

Rod Stewart - Still The Same... Great Rock Classics Of Our Time (2006)

All thanks go to London

>>> Rod Stewart in my Blog <<<

Download from icerbox.com: