Tags
Language
Tags

Rod Stewart - The Ballad Album (1998)

Posted By: popsakov
Rod Stewart - The Ballad Album (1998)

Rod Stewart - The Ballad Album (1998)
EAC Rip | FLAC (Img) + Cue + Log ~ 339 Mb | MP3 CBR320 ~ 157 Mb
Full Scans | 00:47:15 | RAR 5% Recovery
Pop Rock, Soft Rock | Rebound Records / PolyGram Records #314 520 497-2

Mercury/Polygram began recycling their Rod Stewart recordings almost immediately after he left the label for Warner. Rebound's The Ballad Album and its companion, The Rock Album, are simply '90s versions of such compilations as Sing It Again Rod. And, like that record, it's enjoyable despite its haphazard collection simply because Stewart's Mercury records were so good. There are a couple of odd choices here – his take of "(You Make Me Feel Like) A Natural Man)" is strangely misguided – but for the most part, the collection is quite enjoyable, thanks to such masterpieces as "Reason to Believe," "Mandolin Wind," "Angel," "Girl from the North Country," "Handbags and Gladrags," "Country Comforts," and "Tomorrow Is a Long Time." The original albums are still preferable to budget-line compilations, but casual fans will certainly enjoy this disc without reservations.

~ Stephen Thomas Erlewine, All Music

***************

Rod Stewart - The Ballad Album (1998)

Rod Stewart - The Ballad Album (1998)

Track List:

01. Reason To Believe [0:04:12.15]
02. Mandolin Wind [0:05:34.60]
03. I'd Rather Go Blind [0:03:56.45]
04. Angel [0:04:06.45]
05. (You Make Me Feel Like) A Natural Man [0:03:56.60]
06. Girl From The North Country [0:03:54.20]
07. Mine For Me [0:04:03.55]
08. Handbags And Gladrags [0:04:27.33]
09. Country Comforts [0:04:46.37]
10. Tomorrow Is A Long Time [0:03:46.68]
11. Mama, You Been On My Mind [0:04:29.35]

Exact Audio Copy V1.2 from 12. August 2016

EAC extraction logfile from 9. February 2017, 22:25

Rod Stewart / The Ballad Album

Used drive : PLEXTOR DVDR PX-716A Adapter: 1 ID: 0

Read mode : Secure
Utilize accurate stream : Yes
Defeat audio cache : Yes
Make use of C2 pointers : No

Read offset correction : 30
Overread into Lead-In and Lead-Out : No
Fill up missing offset samples with silence : Yes
Delete leading and trailing silent blocks : No
Null samples used in CRC calculations : Yes
Used interface : Native Win32 interface for Win NT & 2000

Used output format : User Defined Encoder
Selected bitrate : 1024 kBit/s
Quality : High
Add ID3 tag : No
Command line compressor : C:\Program Files (x86)\Exact Audio Copy\FLAC\FLAC.EXE
Additional command line options : -6 -V -T "ARTIST=%artist%" -T "TITLE=%title%" -T "ALBUM=%albumtitle%" -T "DATE=%year%" -T "TRACKNUMBER=%tracknr%" -T "GENRE=%genre%" -T "COMMENT=%comment%" -T "BAND=%albuminterpret%" -T "ALBUMARTIST=%albuminterpret%" -T "COMPOSER=%composer%" %haslyrics%–tag-from-file=LYRICS="%lyricsfile%"%haslyrics% -T "DISCNUMBER=%cdnumber%" -T "TOTALDISCS=%totalcds%" -T "TOTALTRACKS=%numtracks%" %hascover%–picture="%coverfile%"%hascover% %source% -o %dest%


TOC of the extracted CD

Track | Start | Length | Start sector | End sector
––––––––––––––––––––––––––––-
1 | 0:00.32 | 4:12.15 | 32 | 18946
2 | 4:12.47 | 5:34.60 | 18947 | 44056
3 | 9:47.32 | 3:56.45 | 44057 | 61801
4 | 13:44.02 | 4:06.45 | 61802 | 80296
5 | 17:50.47 | 3:56.60 | 80297 | 98056
6 | 21:47.32 | 3:54.20 | 98057 | 115626
7 | 25:41.52 | 4:03.55 | 115627 | 133906
8 | 29:45.32 | 4:27.33 | 133907 | 153964
9 | 34:12.65 | 4:46.37 | 153965 | 175451
10 | 38:59.27 | 3:46.68 | 175452 | 192469
11 | 42:46.20 | 4:29.35 | 192470 | 212679


Range status and errors

Selected range

Filename C:\mm\Rod Stewart\1998 - The Ballad Album [314 520 497-2]\Rod Stewart - The Ballad Album.wav

Peak level 99.9 %
Extraction speed 12.5 X
Range quality 100.0 %
Test CRC 6B92B79A
Copy CRC 6B92B79A
Copy OK

No errors occurred


AccurateRip summary

Track 1 cannot be verified as accurate (confidence 5) [74F91053], AccurateRip returned [C3CCBFFE] (AR v2)
Track 2 cannot be verified as accurate (confidence 5) [13DAB04F], AccurateRip returned [9F1A46B1] (AR v2)
Track 3 cannot be verified as accurate (confidence 5) [D3A6D338], AccurateRip returned [2CA96E0F] (AR v2)
Track 4 cannot be verified as accurate (confidence 5) [D83CC286], AccurateRip returned [C284731A] (AR v2)
Track 5 cannot be verified as accurate (confidence 5) [272ECFA8], AccurateRip returned [86B79CF3] (AR v2)
Track 6 cannot be verified as accurate (confidence 5) [6EA47494], AccurateRip returned [0C7BF14F] (AR v2)
Track 7 cannot be verified as accurate (confidence 5) [76E1F785], AccurateRip returned [8F1B1A93] (AR v2)
Track 8 cannot be verified as accurate (confidence 5) [F5DBA44B], AccurateRip returned [5B134D6F] (AR v2)
Track 9 cannot be verified as accurate (confidence 5) [1BFADF2F], AccurateRip returned [F2EFE880] (AR v2)
Track 10 cannot be verified as accurate (confidence 5) [AB770E03], AccurateRip returned [15562B0A] (AR v2)
Track 11 cannot be verified as accurate (confidence 5) [D0123AA7], AccurateRip returned [C6D408EC] (AR v2)

No tracks could be verified as accurate
You may have a different pressing from the one(s) in the database

End of status report

–– CUETools DB Plugin V2.1.6

[CTDB TOCID: PBO0yGzNe2ePoxIi.anV5RVEdA8-] found
Submit result: PBO0yGzNe2ePoxIi.anV5RVEdA8- has been confirmed
Track | CTDB Status
1 | (7/7) Accurately ripped
2 | (7/7) Accurately ripped
3 | (7/7) Accurately ripped
4 | (7/7) Accurately ripped
5 | (7/7) Accurately ripped
6 | (7/7) Accurately ripped
7 | (7/7) Accurately ripped
8 | (7/7) Accurately ripped
9 | (7/7) Accurately ripped
10 | (7/7) Accurately ripped
11 | (7/7) Accurately ripped

[CUETools log; Date: 10.02.2017 23:39:39; Version: 2.1.5]
Pregap length 00:00:32.
[CTDB TOCID: PBO0yGzNe2ePoxIi.anV5RVEdA8-] found.
Track | CTDB Status
1 | (8/8) Accurately ripped
2 | (8/8) Accurately ripped
3 | (8/8) Accurately ripped
4 | (8/8) Accurately ripped
5 | (8/8) Accurately ripped
6 | (8/8) Accurately ripped
7 | (8/8) Accurately ripped
8 | (8/8) Accurately ripped
9 | (8/8) Accurately ripped
10 | (8/8) Accurately ripped
11 | (8/8) Accurately ripped
[AccurateRip ID: 0013a47d-00a954e0-980b130b] found.
Track [ CRC | V2 ] Status
01 [c561f755|74f91053] (00+00/12) No match
02 [1b803e9f|13dab04f] (00+00/12) No match
03 [8131867c|d3a6d338] (00+00/12) No match
04 [8a2a84b2|d83cc286] (00+00/12) No match
05 [8150677f|272ecfa8] (00+00/12) No match
06 [b67b6681|6ea47494] (00+00/12) No match
07 [53e53587|76e1f785] (00+00/12) No match
08 [df00bbfd|f5dba44b] (00+00/12) No match
09 [72881095|1bfadf2f] (00+00/12) No match
10 [8d23d7af|ab770e03] (00+00/12) No match
11 [09de010a|d0123aa7] (00+00/12) No match
Offsetted by -85:
01 [f83850e5] (02/12) Accurately ripped
02 [8208110e] (02/12) Accurately ripped
03 [bf73a483] (02/12) Accurately ripped
04 [5928f9bb] (02/12) Accurately ripped
05 [c66fcdb0] (02/12) Accurately ripped
06 [3a1d6b9c] (02/12) Accurately ripped
07 [519d11f8] (02/12) Accurately ripped
08 [270317de] (02/12) Accurately ripped
09 [29b6b4d4] (02/12) Accurately ripped
10 [de5735b5] (02/12) Accurately ripped
11 [e2626a44] (02/12) Accurately ripped
Offsetted by -1554:
01 [127a92f5] (00/12) No match (V2 was not tested)
02 [e072a335] (00/12) No match (V2 was not tested)
03 [5cd53902] (00/12) No match (V2 was not tested)
04 [dd0b4ccc] (00/12) No match (V2 was not tested)
05 [922b1129] (00/12) No match (V2 was not tested)
06 [5946bacf] (00/12) No match (V2 was not tested)
07 [5154edb1] (00/12) No match (V2 was not tested)
08 [e5621287] (00/12) No match (V2 was not tested)
09 [c6c7b34b] (00/12) No match (V2 was not tested)
10 [d82c526b] (00/12) No match (V2 was not tested)
11 [9ca65416] (00/12) No match (V2 was not tested)

Track Peak [ CRC32 ] [W/O NULL] [ LOG ]
– 99,9 [6B92B79A] [5D9020D7] CRC32
01 99,9 [6BF020B5] [6397AD86]
02 89,5 [959701C7] [ADF46849]
03 84,1 [CF721A5B] [B1A3D809]
04 84,5 [51A279D2] [EE50F0D6]
05 99,9 [6179ACDF] [397AADEE]
06 99,9 [76C34449] [605C5C4F]
07 87,5 [A55FB4E8] [6F2F843D]
08 92,2 [C6CE7B3E] [3C90E153]
09 99,9 [19356AAA] [4CD43D08]
10 89,0 [12ED9D43] [DC72B774]
11 83,4 [883468D4] [4F9229BA]

Rod Stewart - The Ballad Album (1998)


All thanks go to sergych

>>> Rod Stewart in my Blog <<<

DOWNLOAD: