Tags
Language
Tags

Rod Stewart - The Seventies Collection (2007)

Posted By: popsakov
Rod Stewart - The Seventies Collection (2007)

Rod Stewart - The Seventies Collection (2007)
EAC Rip | FLAC (Img) + Cue + Log ~ 518 Mb | MP3 CBR320 ~ 213 Mb
Full Scans | 01:19:56 | RAR 5% Recovery
Rock | Mercury / Universal Music TV #9848077

There is a Rod Stewart collection for every type of fan. Despite its lazy title, the 19-track Seventies Collection contains some of Stewart's finest country-tinged, pre-overproduced moments, including "Man of Constant Sorrow," "Mandolin Wind," "You Wear It Well," "Maggie Mae," and "Handbags & Gladrags." There are better, more comprehensive anthologies of the era out there like Reason to Believe: The Complete Mercury Studio Recordings, but for someone just looking for a little road trip fix, you would be hard-pressed to beat this little morsel. Listeners who came into the Stewart fold in reverse through his Great American Songbook albums won't know what hit them.

~ James Christopher Monger, All Music

***************

Track List:

01. Maggie May [5:12]
02. Reason To Believe [4:03]
03. You Wear It Well [4:15]
04. Twistin’ The Night [3:13]
05. Mandolin Wind [5:32]
06. Handbags And Gladrags [3:56]
07. Country Comforts [4:43]
08. What’s Made Milwaukee Famous (Has Made A Loser Out Of Me) [2:51]
09. Sweet Little Rock ’n’ Roller [3:44]
10. Angel [4:05]
11. I’D Rather Go Blind [3:53]
12. Oh No Not My Baby [3:38]
13. Bring It On Home To Me / You Send Me [4:00]
14. Man Of Constant Sorrow [2:32]
15. In A Broken Dream [3:40]
16. Street Fighting Man [5:06]
17. It’s All Over Now [6:18]
18. Farewell [4:34]
19. Stay With Me [4:41]

Exact Audio Copy V1.5 from 20. February 2020

EAC extraction logfile from 26. August 2020, 19:23

Rod Stewart / The Seventies Collection

Used drive : ASUS DRW-24D5MT Adapter: 1 ID: 0

Read mode : Secure
Utilize accurate stream : Yes
Defeat audio cache : Yes
Make use of C2 pointers : No

Read offset correction : 6
Overread into Lead-In and Lead-Out : No
Fill up missing offset samples with silence : Yes
Delete leading and trailing silent blocks : No
Null samples used in CRC calculations : Yes
Used interface : Native Win32 interface for Win NT & 2000

Used output format : User Defined Encoder
Selected bitrate : 128 kBit/s
Quality : High
Add ID3 tag : No
Command line compressor : C:\Program Files (x86)\Exact Audio Copy\FLAC\FLAC.EXE
Additional command line options : -V -8 -T "Date=%year%" -T "Genre=%genre%" %source%


TOC of the extracted CD

Track | Start | Length | Start sector | End sector
––––––––––––––––––––––––––––-
1 | 0:00.00 | 5:11.71 | 0 | 23395
2 | 5:11.71 | 4:03.22 | 23396 | 41642
3 | 9:15.18 | 4:14.68 | 41643 | 60760
4 | 13:30.11 | 3:13.30 | 60761 | 75265
5 | 16:43.41 | 5:31.50 | 75266 | 100140
6 | 22:15.16 | 3:56.16 | 100141 | 117856
7 | 26:11.32 | 4:42.68 | 117857 | 139074
8 | 30:54.25 | 2:51.26 | 139075 | 151925
9 | 33:45.51 | 3:43.49 | 151926 | 168699
10 | 37:29.25 | 4:04.67 | 168700 | 187066
11 | 41:34.17 | 3:52.43 | 187067 | 204509
12 | 45:26.60 | 3:38.14 | 204510 | 220873
13 | 49:04.74 | 3:59.54 | 220874 | 238852
14 | 53:04.53 | 2:32.23 | 238853 | 250275
15 | 55:37.01 | 3:40.27 | 250276 | 266802
16 | 59:17.28 | 5:05.69 | 266803 | 289746
17 | 64:23.22 | 6:17.46 | 289747 | 318067
18 | 70:40.68 | 4:34.23 | 318068 | 338640
19 | 75:15.16 | 4:40.60 | 338641 | 359700


Range status and errors

Selected range

Filename F:\ЕАС\rwa12\Rod Stewart - The Seventies Collection.wav

Peak level 99.0 %
Extraction speed 8.2 X
Range quality 100.0 %
Test CRC C712E3C4
Copy CRC C712E3C4
Copy OK

No errors occurred


AccurateRip summary

Track 1 accurately ripped (confidence 6) [F84B3084] (AR v2)
Track 2 accurately ripped (confidence 6) [E581398E] (AR v2)
Track 3 accurately ripped (confidence 6) [2867F29A] (AR v2)
Track 4 accurately ripped (confidence 6) [B87C2674] (AR v2)
Track 5 accurately ripped (confidence 6) [4AE2BE4B] (AR v2)
Track 6 accurately ripped (confidence 6) [4A8B6EC1] (AR v2)
Track 7 accurately ripped (confidence 6) [ED423B1B] (AR v2)
Track 8 accurately ripped (confidence 6) [1A566B86] (AR v2)
Track 9 accurately ripped (confidence 6) [C5B041A8] (AR v2)
Track 10 accurately ripped (confidence 6) [C96912B0] (AR v2)
Track 11 accurately ripped (confidence 6) [933D70B6] (AR v2)
Track 12 accurately ripped (confidence 6) [E97AD6F3] (AR v2)
Track 13 accurately ripped (confidence 6) [7D82EC83] (AR v2)
Track 14 accurately ripped (confidence 6) [0FA4035B] (AR v2)
Track 15 accurately ripped (confidence 6) [61F14D89] (AR v2)
Track 16 accurately ripped (confidence 5) [74B944F6] (AR v2)
Track 17 accurately ripped (confidence 6) [48AAAC32] (AR v2)
Track 18 accurately ripped (confidence 6) [E9A50EBD] (AR v2)
Track 19 accurately ripped (confidence 6) [3BEC995B] (AR v2)

All tracks accurately ripped

End of status report

–– CUETools DB Plugin V2.1.6

[CTDB TOCID: MxhmLfBS3i9j0jtxKxjqG6XEvyc-] found
Submit result: MxhmLfBS3i9j0jtxKxjqG6XEvyc- has been confirmed
Track | CTDB Status
1 | (8/8) Accurately ripped
2 | (8/8) Accurately ripped
3 | (8/8) Accurately ripped
4 | (8/8) Accurately ripped
5 | (8/8) Accurately ripped
6 | (8/8) Accurately ripped
7 | (8/8) Accurately ripped
8 | (8/8) Accurately ripped
9 | (8/8) Accurately ripped
10 | (8/8) Accurately ripped
11 | (8/8) Accurately ripped
12 | (8/8) Accurately ripped
13 | (8/8) Accurately ripped
14 | (8/8) Accurately ripped
15 | (8/8) Accurately ripped
16 | (8/8) Accurately ripped
17 | (8/8) Accurately ripped
18 | (8/8) Accurately ripped
19 | (7/8) Accurately ripped


==== Log checksum FF3FF7FE8C4B5ABAF9BF2D55D30F366B46D2403D6E4E2FD4FE6C1C62BDEDA6E9 ====

[CUETools log; Date: 01.09.2020 14:23:03; Version: 2.1.6]
[CTDB TOCID: MxhmLfBS3i9j0jtxKxjqG6XEvyc-] found.
Track | CTDB Status
1 | (9/9) Accurately ripped
2 | (9/9) Accurately ripped
3 | (9/9) Accurately ripped
4 | (9/9) Accurately ripped
5 | (9/9) Accurately ripped
6 | (9/9) Accurately ripped
7 | (9/9) Accurately ripped
8 | (9/9) Accurately ripped
9 | (9/9) Accurately ripped
10 | (9/9) Accurately ripped
11 | (9/9) Accurately ripped
12 | (9/9) Accurately ripped
13 | (9/9) Accurately ripped
14 | (9/9) Accurately ripped
15 | (9/9) Accurately ripped
16 | (9/9) Accurately ripped
17 | (9/9) Accurately ripped
18 | (9/9) Accurately ripped
19 | (8/9) Accurately ripped
[AccurateRip ID: 00363819-02f1fc1a-1d12bc13] found.
Track [ CRC | V2 ] Status
01 [2901e608|f84b3084] (0+6/6) Accurately ripped
02 [b0568c2d|e581398e] (0+6/6) Accurately ripped
03 [c6feb5e6|2867f29a] (0+6/6) Accurately ripped
04 [e632da21|b87c2674] (0+6/6) Accurately ripped
05 [1c14b8e1|4ae2be4b] (0+6/6) Accurately ripped
06 [9cb5dc82|4a8b6ec1] (0+6/6) Accurately ripped
07 [18a3006a|ed423b1b] (0+6/6) Accurately ripped
08 [b42ef9e4|1a566b86] (0+6/6) Accurately ripped
09 [3de5799d|c5b041a8] (0+6/6) Accurately ripped
10 [8c31b101|c96912b0] (0+6/6) Accurately ripped
11 [57cb7d9f|933d70b6] (0+6/6) Accurately ripped
12 [2e43336f|e97ad6f3] (0+6/6) Accurately ripped
13 [938cc382|7d82ec83] (0+6/6) Accurately ripped
14 [7d680cb9|0fa4035b] (0+6/6) Accurately ripped
15 [e6023a32|61f14d89] (0+6/6) Accurately ripped
16 [b44c43ce|74b944f6] (0+5/5) Accurately ripped
17 [8f4fcb7a|48aaac32] (0+6/6) Accurately ripped
18 [081eca55|e9a50ebd] (0+6/6) Accurately ripped
19 [6c81c4d3|3bec995b] (0+6/6) Accurately ripped

Track Peak [ CRC32 ] [W/O NULL] [ LOG ]
– 99,0 [C712E3C4] [9D0DC6AA] CRC32
01 92,5 [AFA19672] [791252F1]
02 76,3 [AEAC5C43] [32B2BFCC]
03 97,6 [BBE86223] [EC65036A]
04 59,5 [C162572A] [61D62071]
05 72,4 [F67905B5] [935074EC]
06 99,0 [40527B1A] [9EA50AA6]
07 86,3 [690F052E] [BE19ABED]
08 76,5 [31EB9355] [B493E8E1]
09 48,9 [A941F6FF] [7A9C3FF0]
10 63,0 [719651A7] [E057780F]
11 96,7 [F1AE9570] [BCF43BA0]
12 95,2 [1A1E31AB] [261F5DA2]
13 56,2 [AE4F405D] [9892F8DB]
14 86,1 [7BB5D1F5] [495E9B71]
15 76,7 [A3D725E3] [07E43A3A]
16 82,2 [EB399D01] [01D2BFAF]
17 71,6 [A11F0EEA] [6908F75C]
18 67,2 [BA11FCA5] [AA2C4901]
19 55,5 [B52234EC] [1605F953]

Rod Stewart - The Seventies Collection (2007)


All thanks go to rwa12

>>> Rod Stewart in my Blog <<<

DOWNLOAD: