Subcategories

Rod Stewart - You're In My Heart: Rod Stewart With The Royal Philharmonic Orchestra (2019) {Deluxe Edition}

Posted By: popsakov
Rod Stewart - You're In My Heart: Rod Stewart With The Royal Philharmonic Orchestra (2019) {Deluxe Edition}

Rod Stewart - You're In My Heart: Rod Stewart With The Royal Philharmonic Orchestra (2019) {Deluxe Edition}
2CD | EAC Rip | FLAC (Tracks) + Cue + m3u8 + Log ~ 775 Mb
Full Scans ~ 36 Mb | 00:51:17 + 00:58:11 | RAR 5% Recovery
Pop Rock, Symphonic Rock | Warner Records 603497849659

Sir Rod Stewart (knighted in 2016) celebrates 50 years as a solo artist with a brand new album 'You're In My Heart: Rod Stewart with the Royal Philharmonic Orchestra'. The leg-endary singer-songwriter is one of the best-selling music artists of all time, with more than 250 million records sold worldwide during a stellar career. The 2CD Deluxe Edition includes 7 additional tracks. Recorded at Abbey Road Studio One and Produced by Trevor Horn, the album combines classic vocals with newly recorded arrangements by the Royal Philharmonic Orchestra. Includes new orchestral versions of Sir Rod Stewart’s classic hits: “Sailing,” “I Don’t Want To Talk About It,” “The First Cut Is The Deepest,” “You’re In My Heart,” “Maggie May,” “Tonight’s The Night (Gonna Be Alright)” and “Handbags and Gladrags”. Features “It Takes Two” a new duet with Robbie Williams, previously recorded by Rod Stewart with Tina Turner in 1991, this brand new version features newly recorded vocals from both Robbie and Rod. Plus a brand new previously unreleased song “Stop Loving Her Today”.


***************

Track List CD1:

01. Maggie May [5:47]
02. Reason To Believe [3:55]
03. Handbags & Gladrags [4:10]
04. Sailing [5:27]
05. Tonight’s The Night (Gonna Be Alright) [4:13]
06. The Killing Of Georgie (Part I and II) [6:17]
07. I Don’t Want To Talk About It [5:43]
08. The First Cut Is The Deepest [4:41]
09. You’re In My Heart (The Final Acclaim) [4:38]
10. I Was Only Joking [6:26]

Exact Audio Copy V1.3 from 2. September 2016

EAC extraction logfile from 26. November 2019, 12:22

Rod Stewart / You’re In My Heart

Used drive : PLEXTOR PX-891SAF PLUS Adapter: 1 ID: 0

Read mode : Secure
Utilize accurate stream : Yes
Defeat audio cache : Yes
Make use of C2 pointers : No

Read offset correction : 6
Overread into Lead-In and Lead-Out : No
Fill up missing offset samples with silence : Yes
Delete leading and trailing silent blocks : No
Null samples used in CRC calculations : Yes
Used interface : Native Win32 interface for Win NT & 2000
Gap handling : Appended to previous track

Used output format : User Defined Encoder
Selected bitrate : 1024 kBit/s
Quality : High
Add ID3 tag : No
Command line compressor : C:\Program Files (x86)\Exact Audio Copy\Flac\flac.exe
Additional command line options : -0 -V -T "ARTIST=%artist%" -T "TITLE=%title%" -T "ALBUM=%albumtitle%" -T "DATE=%year%" -T "TRACKNUMBER=%tracknr%" -T "TOTALTRACKS=%numtracks%" -T "GENRE=%genre%" -T "COMMENT=Naftamusic Release!" %source%


TOC of the extracted CD

Track | Start | Length | Start sector | End sector
––––––––––––––––––––––––––––-
1 | 0:00.00 | 5:47.00 | 0 | 26024
2 | 5:47.00 | 3:54.38 | 26025 | 43612
3 | 9:41.38 | 4:09.62 | 43613 | 62349
4 | 13:51.25 | 5:27.33 | 62350 | 86907
5 | 19:18.58 | 4:12.40 | 86908 | 105847
6 | 23:31.23 | 6:17.16 | 105848 | 134138
7 | 29:48.39 | 5:42.50 | 134139 | 159838
8 | 35:31.14 | 4:41.22 | 159839 | 180935
9 | 40:12.36 | 4:38.34 | 180936 | 201819
10 | 44:50.70 | 6:26.27 | 201820 | 230796


Track 1

Filename E:\Nafta Releases\Rod Stewart - You're In My Heart (WithThe Royal Philharmonic Orchestra 2 CD 2019)[FLAC] - Naftamusic\CD 1\01 - Maggie May.wav

Pre-gap length 0:00:02.00

Peak level 100.0 %
Extraction speed 2.8 X
Track quality 100.0 %
Test CRC BFF51861
Copy CRC BFF51861
Track not present in AccurateRip database
Copy OK

Track 2

Filename E:\Nafta Releases\Rod Stewart - You're In My Heart (WithThe Royal Philharmonic Orchestra 2 CD 2019)[FLAC] - Naftamusic\CD 1\02 - Reason To Believe.wav

Peak level 100.0 %
Extraction speed 3.1 X
Track quality 100.0 %
Test CRC AA5284E6
Copy CRC AA5284E6
Track not present in AccurateRip database
Copy OK

Track 3

Filename E:\Nafta Releases\Rod Stewart - You're In My Heart (WithThe Royal Philharmonic Orchestra 2 CD 2019)[FLAC] - Naftamusic\CD 1\03 - Handbags & Gladrags.wav

Peak level 100.0 %
Extraction speed 3.3 X
Track quality 100.0 %
Test CRC 1439B3EC
Copy CRC 1439B3EC
Track not present in AccurateRip database
Copy OK

Track 4

Filename E:\Nafta Releases\Rod Stewart - You're In My Heart (WithThe Royal Philharmonic Orchestra 2 CD 2019)[FLAC] - Naftamusic\CD 1\04 - Sailing.wav

Peak level 100.0 %
Extraction speed 3.7 X
Track quality 100.0 %
Test CRC 7A68D7CF
Copy CRC 7A68D7CF
Track not present in AccurateRip database
Copy OK

Track 5

Filename E:\Nafta Releases\Rod Stewart - You're In My Heart (WithThe Royal Philharmonic Orchestra 2 CD 2019)[FLAC] - Naftamusic\CD 1\05 - Tonight’s The Night (Gonna Be Alright).wav

Peak level 100.0 %
Extraction speed 3.9 X
Track quality 100.0 %
Test CRC 6B641CBB
Copy CRC 6B641CBB
Track not present in AccurateRip database
Copy OK

Track 6

Filename E:\Nafta Releases\Rod Stewart - You're In My Heart (WithThe Royal Philharmonic Orchestra 2 CD 2019)[FLAC] - Naftamusic\CD 1\06 - The Killing Of Georgie (Part I and II).wav

Peak level 100.0 %
Extraction speed 4.3 X
Track quality 100.0 %
Test CRC F311A299
Copy CRC F311A299
Track not present in AccurateRip database
Copy OK

Track 7

Filename E:\Nafta Releases\Rod Stewart - You're In My Heart (WithThe Royal Philharmonic Orchestra 2 CD 2019)[FLAC] - Naftamusic\CD 1\07 - I Don’t Want To Talk About It.wav

Peak level 99.4 %
Extraction speed 4.6 X
Track quality 100.0 %
Test CRC 0E120BB1
Copy CRC 0E120BB1
Track not present in AccurateRip database
Copy OK

Track 8

Filename E:\Nafta Releases\Rod Stewart - You're In My Heart (WithThe Royal Philharmonic Orchestra 2 CD 2019)[FLAC] - Naftamusic\CD 1\08 - The First Cut Is The Deepest.wav

Peak level 100.0 %
Extraction speed 4.7 X
Track quality 100.0 %
Test CRC 46C2CA4D
Copy CRC 46C2CA4D
Track not present in AccurateRip database
Copy OK

Track 9

Filename E:\Nafta Releases\Rod Stewart - You're In My Heart (WithThe Royal Philharmonic Orchestra 2 CD 2019)[FLAC] - Naftamusic\CD 1\09 - You’re In My Heart (The Final Acclaim).wav

Peak level 99.9 %
Extraction speed 4.9 X
Track quality 100.0 %
Test CRC 766E6BB1
Copy CRC 766E6BB1
Track not present in AccurateRip database
Copy OK

Track 10

Filename E:\Nafta Releases\Rod Stewart - You're In My Heart (WithThe Royal Philharmonic Orchestra 2 CD 2019)[FLAC] - Naftamusic\CD 1\10 - I Was Only Joking.wav

Peak level 100.0 %
Extraction speed 5.3 X
Track quality 100.0 %
Test CRC 6993AFEF
Copy CRC 6993AFEF
Track not present in AccurateRip database
Copy OK


None of the tracks are present in the AccurateRip database

No errors occurred

End of status report

==== Log checksum F34A7368ACDDBAD5F8F7B9DB909CF7F30C2A646DB34CEEAAF653CB29963C5EB6 ====

Track List CD2:

01. It Takes Two (with Robbie Williams) [4:22]
02. Stay With Me (with Faces) [4:42]
03. Young Turks [4:57]
04. What Am I Gonna Do (I’m So In Love With You) [4:39]
05. Every Beat Of My Heart [5:23]
06. Forever Young [4:54]
07. Downtown Train [5:04]
08. Rhythm Of My Heart [4:17]
09. Have I Told You Lately [4:05]
10. Tom Traubert’s Blues (Waltzing Matilda) [6:32]
11. If We Fall In Love Tonight [5:04]
12. Stop Loving Her Today [4:11]

Exact Audio Copy V1.3 from 2. September 2016

EAC extraction logfile from 26. November 2019, 13:14

Rod Stewart / You’re In My Heart

Used drive : PLEXTOR PX-891SAF PLUS Adapter: 1 ID: 0

Read mode : Secure
Utilize accurate stream : Yes
Defeat audio cache : Yes
Make use of C2 pointers : No

Read offset correction : 6
Overread into Lead-In and Lead-Out : No
Fill up missing offset samples with silence : Yes
Delete leading and trailing silent blocks : No
Null samples used in CRC calculations : Yes
Used interface : Native Win32 interface for Win NT & 2000
Gap handling : Appended to previous track

Used output format : User Defined Encoder
Selected bitrate : 1024 kBit/s
Quality : High
Add ID3 tag : No
Command line compressor : C:\Program Files (x86)\Exact Audio Copy\Flac\flac.exe
Additional command line options : -0 -V -T "ARTIST=%artist%" -T "TITLE=%title%" -T "ALBUM=%albumtitle%" -T "DATE=%year%" -T "TRACKNUMBER=%tracknr%" -T "TOTALTRACKS=%numtracks%" -T "GENRE=%genre%" -T "COMMENT=Naftamusic Release!" %source%


TOC of the extracted CD

Track | Start | Length | Start sector | End sector
––––––––––––––––––––––––––––-
1 | 0:00.00 | 4:21.69 | 0 | 19643
2 | 4:21.69 | 4:41.67 | 19644 | 40785
3 | 9:03.61 | 4:57.24 | 40786 | 63084
4 | 14:01.10 | 4:38.48 | 63085 | 83982
5 | 18:39.58 | 5:23.08 | 83983 | 108215
6 | 24:02.66 | 4:54.35 | 108216 | 130300
7 | 28:57.26 | 5:03.57 | 130301 | 153082
8 | 34:01.08 | 4:17.31 | 153083 | 172388
9 | 38:18.39 | 4:05.26 | 172389 | 190789
10 | 42:23.65 | 6:31.59 | 190790 | 220173
11 | 48:55.49 | 5:04.32 | 220174 | 243005
12 | 54:00.06 | 4:10.54 | 243006 | 261809


Track 1

Filename E:\Nafta Releases\Rod Stewart - You're In My Heart (WithThe Royal Philharmonic Orchestra 2 CD 2019)[FLAC] - Naftamusic\CD 2\01 - It Takes Two (with Robbie Williams).wav

Pre-gap length 0:00:02.00

Peak level 100.0 %
Extraction speed 2.2 X
Track quality 99.9 %
Test CRC 24EA60C3
Copy CRC 24EA60C3
Track not present in AccurateRip database
Copy OK

Track 2

Filename E:\Nafta Releases\Rod Stewart - You're In My Heart (WithThe Royal Philharmonic Orchestra 2 CD 2019)[FLAC] - Naftamusic\CD 2\02 - Stay With Me (with Faces).wav

Peak level 100.0 %
Extraction speed 3.0 X
Track quality 100.0 %
Test CRC B0D489F0
Copy CRC B0D489F0
Track not present in AccurateRip database
Copy OK

Track 3

Filename E:\Nafta Releases\Rod Stewart - You're In My Heart (WithThe Royal Philharmonic Orchestra 2 CD 2019)[FLAC] - Naftamusic\CD 2\03 - Young Turks.wav

Peak level 100.0 %
Extraction speed 3.4 X
Track quality 100.0 %
Test CRC 2948078D
Copy CRC 2948078D
Track not present in AccurateRip database
Copy OK

Track 4

Filename E:\Nafta Releases\Rod Stewart - You're In My Heart (WithThe Royal Philharmonic Orchestra 2 CD 2019)[FLAC] - Naftamusic\CD 2\04 - What Am I Gonna Do (I’m So In Love With You).wav

Peak level 100.0 %
Extraction speed 3.7 X
Track quality 100.0 %
Test CRC 86E2C234
Copy CRC 86E2C234
Track not present in AccurateRip database
Copy OK

Track 5

Filename E:\Nafta Releases\Rod Stewart - You're In My Heart (WithThe Royal Philharmonic Orchestra 2 CD 2019)[FLAC] - Naftamusic\CD 2\05 - Every Beat Of My Heart.wav

Peak level 100.0 %
Extraction speed 4.0 X
Track quality 100.0 %
Test CRC 7B29BBED
Copy CRC 7B29BBED
Track not present in AccurateRip database
Copy OK

Track 6

Filename E:\Nafta Releases\Rod Stewart - You're In My Heart (WithThe Royal Philharmonic Orchestra 2 CD 2019)[FLAC] - Naftamusic\CD 2\06 - Forever Young.wav

Peak level 100.0 %
Extraction speed 3.5 X
Track quality 99.9 %
Test CRC 0B1A1370
Copy CRC 0B1A1370
Track not present in AccurateRip database
Copy OK

Track 7

Filename E:\Nafta Releases\Rod Stewart - You're In My Heart (WithThe Royal Philharmonic Orchestra 2 CD 2019)[FLAC] - Naftamusic\CD 2\07 - Downtown Train.wav

Peak level 100.0 %
Extraction speed 3.7 X
Track quality 99.9 %
Test CRC 24585216
Copy CRC 24585216
Track not present in AccurateRip database
Copy OK

Track 8

Filename E:\Nafta Releases\Rod Stewart - You're In My Heart (WithThe Royal Philharmonic Orchestra 2 CD 2019)[FLAC] - Naftamusic\CD 2\08 - Rhythm Of My Heart.wav

Peak level 100.0 %
Extraction speed 4.6 X
Track quality 100.0 %
Test CRC 20EEDE1E
Copy CRC 20EEDE1E
Track not present in AccurateRip database
Copy OK

Track 9

Filename E:\Nafta Releases\Rod Stewart - You're In My Heart (WithThe Royal Philharmonic Orchestra 2 CD 2019)[FLAC] - Naftamusic\CD 2\09 - Have I Told You Lately.wav

Peak level 100.0 %
Extraction speed 3.8 X
Track quality 99.9 %
Test CRC F668401F
Copy CRC F668401F
Track not present in AccurateRip database
Copy OK

Track 10

Filename E:\Nafta Releases\Rod Stewart - You're In My Heart (WithThe Royal Philharmonic Orchestra 2 CD 2019)[FLAC] - Naftamusic\CD 2\10 - Tom Traubert’s Blues (Waltzing Matilda).wav

Peak level 99.8 %
Extraction speed 5.2 X
Track quality 100.0 %
Test CRC A4F41BB1
Copy CRC A4F41BB1
Track not present in AccurateRip database
Copy OK

Track 11

Filename E:\Nafta Releases\Rod Stewart - You're In My Heart (WithThe Royal Philharmonic Orchestra 2 CD 2019)[FLAC] - Naftamusic\CD 2\11 - If We Fall In Love Tonight.wav

Peak level 100.0 %
Extraction speed 4.4 X
Track quality 99.9 %
Test CRC 4ACD82D5
Copy CRC 4ACD82D5
Track not present in AccurateRip database
Copy OK

Track 12

Filename E:\Nafta Releases\Rod Stewart - You're In My Heart (WithThe Royal Philharmonic Orchestra 2 CD 2019)[FLAC] - Naftamusic\CD 2\12 - Stop Loving Her Today.wav

Peak level 100.0 %
Extraction speed 5.4 X
Track quality 100.0 %
Test CRC 32BB5807
Copy CRC 32BB5807
Track not present in AccurateRip database
Copy OK


None of the tracks are present in the AccurateRip database

No errors occurred

End of status report

==== Log checksum FD360323279C8F37300096A9A4E394DFEB2CCDD36D83E019085039B645EF48CE ====

Rod Stewart - You're In My Heart: Rod Stewart With The Royal Philharmonic Orchestra (2019) {Deluxe Edition}


All thanks go to the original ripper(s) …

>>> Rod Stewart in my Blog <<<

DOWNLOAD: