Subcategories

Rod Stewart: Collection (1969 - 1988) [Vinyl Rip 16/44 & mp3-320]

Posted By: v3122
Rod Stewart: Collection (1969 - 1988) [Vinyl Rip 16/44 & mp3-320]

Rod Stewart: Collection (1969 - 1988)
10 x Vinyl Rip 16/44 | Flac(Image + Cue) > 2838 Mb
MP3 CBR 320Kbps > 974 Mb | Artwork(jpg) > 723 Mb
Nippon Phonogram, Warner-Pioneer | Japan
Pop, Rock, Classic Rock, Pop Rock

Roderick David Stewart. British singer, born January 10, 1945 in London, England. In addition to his successful solo career, he has also been a member of successful high-profile rock groups the Jeff Beck Group and the Faces. Inducted into Rock And Roll Hall of Fame in 1994 (Performer).

~ discogs
Rod Stewart: Collection (1969 - 1988) [Vinyl Rip 16/44 & mp3-320]


Rod Stewart: Collection (1969 - 1988):

Rod Stewart: Collection (1969 - 1988) [Vinyl Rip 16/44 & mp3-320]

Tracklist VNL01 - The Rod Stewart Album (1969):
JP LP 1978 Nippon Phonogram Co., Ltd. • BT-5151

A1. Street Fighting Man [5:16]
A2. Man Of Constant Sorrow [2:39]
A3. Blind Prayer [4:45]
A4. Handbags & Gladrags [4:32]
B1. An Old Raincoat Won't Ever Let You Down [3:12]
B2. I Wouldn't Ever Change A Thing [4:54]
B3. Cindy's Lament [4:39]
B4. Dirty Old Town [3:49]

foobar2000 1.1.18 / Dynamic Range Meter 1.1.1
log date: 2016-06-03 10:57:19

––––––––––––––––––––––––––––––––––––––––
Analyzed: ROD STEWART / The Rod Stewart Album (Japan, Mercury, BT-5151)
––––––––––––––––––––––––––––––––––––––––

DR Peak RMS Duration Track
––––––––––––––––––––––––––––––––––––––––
DR11 -0.87 dB -14.73 dB 5:16 01-Street Fighting Man
DR12 -2.09 dB -19.38 dB 2:39 02-Man Of Constant Sorrow
DR11 -2.61 dB -16.44 dB 4:45 03-Blind Prayer
DR12 -1.65 dB -17.65 dB 4:32 04-Handbags & Gladrags
DR12 -0.66 dB -14.90 dB 3:12 05-An Old Raincoat Won't Ever Let You Down
DR11 -1.91 dB -15.09 dB 4:54 06-I Wouldn't Ever Change A Thing
DR11 -1.15 dB -15.74 dB 4:39 07-Cindy's Lament
DR11 -2.55 dB -16.83 dB 3:49 08-Dirty Old Town
––––––––––––––––––––––––––––––––––––––––

Number of tracks: 8
Official DR value: DR12

Samplerate: 44100 Hz
Channels: 2
Bits per sample: 16
Bitrate: 869 kbps
Codec: FLAC
================================================================================



Rod Stewart: Collection (1969 - 1988) [Vinyl Rip 16/44 & mp3-320]

Tracklist VNL02 - Every Picture Tells A Story (1971):
JP LP 1974 Nippon Phonogram Co., Ltd. • RJ-5154

A1. Every Picture Tells A Story [06:00]
A2. Seems Like A Long Time [04:04]
A3. That's All Right [06:00]
A4. Tomorrow Is Such A Long Time [03:46]
B1. Maggie May [05:50]
B2. Mandolin Wind [05:37]
B3. (I Know) I'm Losing You [05:25]
B4. Reason To Believe [04:10]

foobar2000 1.1.18 / Dynamic Range Meter 1.1.1
log date: 2016-02-29 22:24:59

––––––––––––––––––––––––––––––––––––––––
Analyzed: ROD STEWART / Every Picture Tells A Story (Japan, RJ-5154)
––––––––––––––––––––––––––––––––––––––––

DR Peak RMS Duration Track
––––––––––––––––––––––––––––––––––––––––
DR13 -0.34 dB -15.32 dB 6:00 01-Every Picture Tells A Story
DR12 -1.30 dB -16.75 dB 4:03 02-Seems Like A Long Time
DR12 -0.37 dB -15.69 dB 6:00 03-That's All Right
DR11 -1.14 dB -16.55 dB 3:46 04-Tomorrow Is Such A Long Time
DR12 -1.75 dB -16.45 dB 5:50 05-Maggie May
DR12 -1.31 dB -17.23 dB 5:36 06-Mandolin Wind
DR13 -0.33 dB -16.38 dB 5:24 07-(I Know) I'm Losing You
DR12 -1.05 dB -15.84 dB 4:10 08-Reason To Believe
––––––––––––––––––––––––––––––––––––––––

Number of tracks: 8
Official DR value: DR12

Samplerate: 44100 Hz
Channels: 2
Bits per sample: 16
Bitrate: 891 kbps
Codec: FLAC
================================================================================



Rod Stewart: Collection (1969 - 1988) [Vinyl Rip 16/44 & mp3-320]

Tracklist VNL03 - Atlantic Crossing (1975):
JP LP 1981 Warner-Pioneer Corporation • P-6547W

A1. Three Time Loser [04:07]
A2. Alright For An Hour [04:17]
A3. All In The Name Of Rock 'N' Roll [05:00]
A4. Drift Away [03:43]
A5. Stone Cold Sober [04:11]
B1. I Don't Want To Talk About It [04:48]
B2. It's Not The Spotlight [04:21]
B3. This Old Heart Of Mine [04:05]
B4. Still Love You [05:12]
B5. Sailing [04:39]

foobar2000 1.1.18 / Dynamic Range Meter 1.1.1
log date: 2016-02-29 22:25:32

––––––––––––––––––––––––––––––––––––––––
Analyzed: ROD STEWART / Atlantic Crossing (Japan, P-6547W)
––––––––––––––––––––––––––––––––––––––––

DR Peak RMS Duration Track
––––––––––––––––––––––––––––––––––––––––
DR15 -1.81 dB -19.01 dB 4:08 01-Three Time Loser
DR16 -0.31 dB -18.62 dB 4:17 02-Alright For An Hour
DR13 -1.89 dB -18.02 dB 5:01 03-All In The Name Of Rock 'N' Roll
DR13 -2.57 dB -19.89 dB 3:43 04-Drift Away
DR14 -1.12 dB -16.97 dB 4:12 05-Stone Cold Sober
DR15 -3.71 dB -22.32 dB 4:48 06-I Don't Want To Talk About It
DR15 -2.58 dB -21.14 dB 4:21 07-It's Not The Spotlight
DR14 -0.92 dB -18.09 dB 4:06 08-This Old Heart Of Mine
DR14 -1.22 dB -19.21 dB 5:12 09-Still Love You
DR13 -0.28 dB -17.85 dB 4:39 10-Sailing
––––––––––––––––––––––––––––––––––––––––

Number of tracks: 10
Official DR value: DR14

Samplerate: 44100 Hz
Channels: 2
Bits per sample: 16
Bitrate: 930 kbps
Codec: FLAC
================================================================================



Rod Stewart: Collection (1969 - 1988) [Vinyl Rip 16/44 & mp3-320]

Tracklist VNL04 - A Night On The Town:
JP LP 1976 Warner-Pioneer Corporation • P-10188W

A1. Tonight's The Night [03:53]
A2. The First Cut Is The Deepest [04:27]
A3. Fool For You [03:46]
A4. The Killing Of Georgie (Part I And II) [06:25]
B1. The Balltrap [04:34]
B2. Pretty Flamingo [03:24]
B3. Big Bayou [03:50]
B4. The Wild Side Of Life [05:04]
B5. Trade Winds [05:14]

foobar2000 1.1.18 / Dynamic Range Meter 1.1.1
log date: 2016-02-29 22:25:44

––––––––––––––––––––––––––––––––––––––––
Analyzed: ROD STEWART / A Night On The Town (Japan, P-10188W)
––––––––––––––––––––––––––––––––––––––––

DR Peak RMS Duration Track
––––––––––––––––––––––––––––––––––––––––
DR13 -0.86 dB -16.98 dB 3:54 01-Tonight's The Night
DR14 -0.85 dB -18.23 dB 4:28 02-The First Cut Is The Deepest
DR15 -0.15 dB -18.17 dB 3:46 03-Fool For You
DR13 -0.89 dB -17.24 dB 6:25 04-The Killing Of Georgie (Part I And II)
DR14 -0.16 dB -15.95 dB 4:34 05-The Balltrap
DR14 -1.03 dB -17.43 dB 3:25 06-Pretty Flamingo
DR13 -0.73 dB -15.57 dB 3:51 07-Big Bayou
DR13 -0.86 dB -16.64 dB 5:05 08-The Wild Side Of Life
DR13 -1.01 dB -19.35 dB 5:15 09-Trade Winds
––––––––––––––––––––––––––––––––––––––––

Number of tracks: 9
Official DR value: DR13

Samplerate: 44100 Hz
Channels: 2
Bits per sample: 16
Bitrate: 925 kbps
Codec: FLAC
================================================================================



Rod Stewart: Collection (1969 - 1988) [Vinyl Rip 16/44 & mp3-320]

Tracklist VNL05 - Blondes Have More Fun:
JP LP 1978 Warner-Pioneer Corporation • P-10602W

A1. Da Ya Think I'm Sexy? [05:28]
A2. Dirty Weekend [02:35]
A3. Ain't Love A Bitch [04:36]
A4. The Best Days Of My Life [04:19]
A5. Is That The Thanks I Get? [04:28]
B1. Attractive Female Wanted [04:14]
B2. Blondes (Have More Fun) [03:42]
B3. Last Summer [04:01]
B4. Standin' In The Shadows Of Love [04:24]
B5. Scarred And Scared [04:49]

foobar2000 1.1.18 / Dynamic Range Meter 1.1.1
log date: 2016-02-29 22:26:10

––––––––––––––––––––––––––––––––––––––––
Analyzed: ROD STEWART / Blondes Have More Fun (Japan, P-10602W)
––––––––––––––––––––––––––––––––––––––––

DR Peak RMS Duration Track
––––––––––––––––––––––––––––––––––––––––
DR14 -0.26 dB -16.78 dB 5:29 01-Da Ya Think I'm Sexy?
DR13 -0.62 dB -15.53 dB 2:35 02-Dirty Weekend
DR15 -2.31 dB -19.01 dB 4:36 03-Ain't Love A Bitch
DR12 -6.30 dB -21.19 dB 4:20 04-The Best Days Of My Life
DR13 -2.99 dB -19.36 dB 4:29 05-Is That The Thanks I Get?
DR14 -1.48 dB -18.47 dB 4:14 06-Attractive Female Wanted
DR14 -0.90 dB -16.87 dB 3:43 07-Blondes (Have More Fun)
DR14 -2.37 dB -19.33 dB 4:02 08-Last Summer
DR14 -0.52 dB -16.58 dB 4:25 09-Standin' In The Shadows Of Love
DR15 -2.37 dB -21.09 dB 4:50 10-Scarred And Scared
––––––––––––––––––––––––––––––––––––––––

Number of tracks: 10
Official DR value: DR14

Samplerate: 44100 Hz
Channels: 2
Bits per sample: 16
Bitrate: 865 kbps
Codec: FLAC
================================================================================



Rod Stewart: Collection (1969 - 1988) [Vinyl Rip 16/44 & mp3-320]

Tracklist VNL06 - Foolish Behaviour:
JP LP 1980 Warner-Pioneer Corporation • P-10930W

A1. Better Off Dead [03:08]
A2. Passion [05:32]
A3. Foolish Behaviour [04:24]
A4. So Soon We Change [03:45]
A5. Oh God, I Wish I Was Home Tonight [05:02]
B1. Gi'me Wings [03:47]
B2. My Girl [04:27]
B3. She Won't Dance With Me [02:30]
B4. Somebody Special [04:29]
B5. Say It Ain't True [04:05]

foobar2000 1.1.18 / Dynamic Range Meter 1.1.1
log date: 2016-02-29 22:26:22

––––––––––––––––––––––––––––––––––––––––
Analyzed: ROD STEWART / Foolish Behaviour (Japan, P-10930W)
––––––––––––––––––––––––––––––––––––––––

DR Peak RMS Duration Track
––––––––––––––––––––––––––––––––––––––––
DR14 -0.39 dB -16.34 dB 3:09 01-Better Off Dead
DR15 -0.53 dB -18.66 dB 5:33 02-Passion
DR13 -1.40 dB -17.02 dB 4:24 03-Foolish Behaviour
DR17 -1.53 dB -21.26 dB 3:45 04-So Soon We Change
DR13 -3.38 dB -18.52 dB 5:02 05-Oh God, I Wish I Was Home Tonight
DR14 -0.59 dB -16.86 dB 3:48 06-Gi'me Wings
DR13 -1.05 dB -16.90 dB 4:27 07-My Girl
DR14 -0.16 dB -15.62 dB 2:30 08-She Won't Dance With Me
DR15 -1.02 dB -18.70 dB 4:30 09-Somebody Special
DR14 -1.06 dB -18.97 dB 4:05 10-Say It Ain't True
––––––––––––––––––––––––––––––––––––––––

Number of tracks: 10
Official DR value: DR14

Samplerate: 44100 Hz
Channels: 2
Bits per sample: 16
Bitrate: 900 kbps
Codec: FLAC
================================================================================



Rod Stewart: Collection (1969 - 1988) [Vinyl Rip 16/44 & mp3-320]

Tracklist VNL07 - Body Wishes:
JP LP 1983 Warner-Pioneer Corporation • P-11374

A1. Dancin' Alone [04:01]
A2. Baby Jane [04:42]
A3. Move Me [03:35]
A4. Body Wishes [04:39]
A5. Sweet Surrender [04:01]
B1. What Am I Gonna Do (I'm So In Love With You) [04:18]
B2. Ghetto Blaster [04:06]
B3. Ready Now [03:34]
B4. Strangers Again [04:08]
B5. Satisfied [04:08]

foobar2000 1.1.18 / Dynamic Range Meter 1.1.1
log date: 2016-02-29 22:26:53

––––––––––––––––––––––––––––––––––––––––
Analyzed: ROD STEWART / Body Wishes (Japan, P-11374W)
––––––––––––––––––––––––––––––––––––––––

DR Peak RMS Duration Track
––––––––––––––––––––––––––––––––––––––––
DR13 -0.29 dB -14.82 dB 4:02 01-Dancin' Alone
DR14 -0.75 dB -16.31 dB 4:42 02-Baby Jane
DR13 -2.24 dB -16.45 dB 3:35 03-Move Me
DR14 -1.22 dB -17.40 dB 4:40 04-Body Wishes
DR14 -1.01 dB -18.93 dB 4:01 05-Sweet Surrender
DR13 -0.99 dB -15.92 dB 4:18 06-What Am I Gonna Do (I'm So In Love With You)
DR15 -0.21 dB -16.62 dB 4:07 07-Ghetto Blaster
DR13 -1.73 dB -17.27 dB 3:35 08-Ready Now
DR13 -1.24 dB -17.68 dB 4:09 09-Strangers Again
DR13 -3.37 dB -18.99 dB 4:08 10-Satisfied
––––––––––––––––––––––––––––––––––––––––

Number of tracks: 10
Official DR value: DR14

Samplerate: 44100 Hz
Channels: 2
Bits per sample: 16
Bitrate: 1013 kbps
Codec: FLAC
================================================================================



Rod Stewart: Collection (1969 - 1988) [Vinyl Rip 16/44 & mp3-320]

Tracklist VNL08 - Camouflage:
JP LP 1984 Warner-Pioneer Corporation • P-11478

A1. Infatuation [05:14]
A2. All Right Now [04:41]
A3. Some Guys Have All The Luck [04:33]
A4. Can We Still Be Friends [03:47]
B1. Bad For You [05:17]
B2. Heart Is On The Line [04:03]
B3. Camouflage [05:18]
B4. Trouble [04:43]

foobar2000 1.1.18 / Dynamic Range Meter 1.1.1
log date: 2016-02-29 22:27:04

––––––––––––––––––––––––––––––––––––––––
Analyzed: ROD STEWART / Camouflage (Japan, P-11478W)
––––––––––––––––––––––––––––––––––––––––

DR Peak RMS Duration Track
––––––––––––––––––––––––––––––––––––––––
DR15 -0.13 dB -17.16 dB 5:15 01-Infatuation
DR15 -0.48 dB -17.38 dB 4:41 02-All Right Now
DR14 -1.76 dB -18.06 dB 4:33 03-Some Guys Have All The Luck
DR13 -3.29 dB -19.80 dB 3:48 04-Can We Still Be Friends
DR15 -0.23 dB -17.12 dB 5:18 05-Bad For You
DR14 -0.17 dB -16.87 dB 4:04 06-Heart Is On The Line
DR14 -0.90 dB -17.35 dB 5:19 07-Camouflage
DR14 -3.47 dB -20.17 dB 4:43 08-Trouble
––––––––––––––––––––––––––––––––––––––––

Number of tracks: 8
Official DR value: DR14

Samplerate: 44100 Hz
Channels: 2
Bits per sample: 16
Bitrate: 924 kbps
Codec: FLAC
================================================================================



Rod Stewart: Collection (1969 - 1988) [Vinyl Rip 16/44 & mp3-320]

Tracklist VNL09 - Rod Stewart:
JP LP 1986 Warner-Pioneer Corporation • P-13313

A1. Here To Eternity [6:02]
A2. Another Heartache [4:29]
A3. A Night Like This [4:07]
A4. Who's Gonna Take Me Home [4:39]
A5. Red Hot In Black [3:19]
B1. Love Touch* [4:04]
B2. In My Own Crazy Way [3:14]
B3. Every Beat Of My Heart [5:21]
B4. Ten Days Of Rain [5:24]
B5. In My Life [1:57]

foobar2000 1.1.18 / Dynamic Range Meter 1.1.1
log date: 2016-06-03 10:57:32

––––––––––––––––––––––––––––––––––––––––
Analyzed: ROD STEWART / Rod Stewart (Japan, WB, P-13313)
––––––––––––––––––––––––––––––––––––––––

DR Peak RMS Duration Track
––––––––––––––––––––––––––––––––––––––––
DR12 -2.95 dB -16.23 dB 6:02 01-Here To Eternity
DR11 -3.10 dB -16.38 dB 4:29 02-Another Heartache
DR10 -1.92 dB -15.47 dB 4:07 03-A Night Like This
DR11 -2.52 dB -15.78 dB 4:39 04-Who's Gonna Take Me Home
DR11 -2.16 dB -16.08 dB 3:19 05-Red Hot In Black
DR12 -2.02 dB -15.17 dB 4:04 06-Love Touch*
DR11 -3.58 dB -18.48 dB 3:14 07-In My Own Crazy Way
DR11 -1.88 dB -15.47 dB 5:21 08-Every Beat Of My Heart
DR10 -3.82 dB -17.12 dB 5:24 09-Ten Days Of Rain
DR9 -3.18 dB -17.22 dB 1:57 10-In My Life
––––––––––––––––––––––––––––––––––––––––

Number of tracks: 10
Official DR value: DR11

Samplerate: 44100 Hz
Channels: 2
Bits per sample: 16
Bitrate: 945 kbps
Codec: FLAC
================================================================================



Rod Stewart: Collection (1969 - 1988) [Vinyl Rip 16/44 & mp3-320]

Tracklist VNL10 - Out Of Order:
JP LP 1988 Warner-Pioneer Corporation • P-13640

A1. Lost In You [5:01]
A2. The Wild Horse [5:00]
A3. Lethal Dose Of Love [4:40]
A4. Forever Young [4:07]
A5. My Heart Can't Tell Me No [5:12]
B1. Dynamite [4:20]
B2. Nobody Knows You When You're Down And Out [3:53]
B3. Crazy About Her [4:57]
B4. Try A Little Tenderness [4:31]
B5. When I Was Your Man [5:18]

foobar2000 1.1.18 / Dynamic Range Meter 1.1.1
log date: 2016-06-03 10:57:46

––––––––––––––––––––––––––––––––––––––––
Analyzed: ROD STEWART / Out Of Order (Japan, WB, P-13640)
––––––––––––––––––––––––––––––––––––––––

DR Peak RMS Duration Track
––––––––––––––––––––––––––––––––––––––––
DR14 -1.56 dB -17.47 dB 5:01 01-Lost In You
DR13 -2.39 dB -16.85 dB 5:00 02-The Wild Horse
DR13 -2.68 dB -17.91 dB 4:40 03-Lethal Dose Of Love
DR13 -3.67 dB -18.33 dB 4:07 04-Forever Young
DR12 -4.43 dB -19.37 dB 5:12 05-My Heart Can't Tell Me No
DR13 -1.57 dB -15.86 dB 4:20 06-Dynamite
DR13 -2.41 dB -17.09 dB 3:53 07-Nobody Knows You When You're Down And Out
DR14 -1.49 dB -18.60 dB 4:57 08-Crazy About Her
DR13 -2.70 dB -18.96 dB 4:31 09-Try A Little Tenderness
DR12 -2.86 dB -18.07 dB 5:18 10-When I Was Your Man
––––––––––––––––––––––––––––––––––––––––

Number of tracks: 10
Official DR value: DR13

Samplerate: 44100 Hz
Channels: 2
Bits per sample: 16
Bitrate: 942 kbps
Codec: FLAC
================================================================================



All thanks go to alvaedis & KoGGaN


Rod Stewart in my Blog

Download Rod Stewart: Collection (1969 - 1988):