Tags
Language
Tags

Roderick Julian Modell - The Autonomous Music Project (1999)

Posted By:
Roderick Julian Modell - The Autonomous Music Project (1999)

Roderick Julian Modell - The Autonomous Music Project (1999)
EAC Rip | FLAC (image+.cue+log) - 278 MB | MP3 CBR 320 kbps (LAME 3.93) - 148 MB | Covers - 61 MB
Genre: Ambient | RAR 3% Rec. | Label: Lunar ‎(L 199803)

Rod Modell is a sound designer / electronic music producer from the Detroit area. He began producing music in the mid-80's using analog synthesizers and drum machines. Rod's work was focused on electro-acoustic experimentation in the early years, making musique concrète compositions with a 4-track cassette machine and field recordings, then branching into industrial soundscape work. More recent recordings utilize more structure and beats, but still retain the atmospherics that Modell is known for. Mood is of paramount importance in a Rod Modell recording (often created with field recordings). Sadly, this element seems to be lost in much of the "clicks & cuts" DSP music of today. One of Modell's favorite pastimes is making middle-of-the-night recordings with his portable DAT machine and dummy-head microphone. In the mid-90's, Modell started DeepChord Records (with Mike Schommer) in Detroit, as an outlet for his music. DeepChord has experienced tremendous popularity (some say cult status) within the dub techno world.
Tracklist:
01. Inside The Rain Maker
02. The Solar World
03. Cool Watery Depths
04. Air Flow (Between High And Low Pressure Zones)
05. Tribal Air-Spirit Tracking
06. Equator
07. Conger Beach Late Night (Under The Blue Water Bridge)

Total time: 01:02:48

Exact Audio Copy V0.99 prebeta 5 from 4. May 2009

EAC extraction logfile from 22. May 2010, 19:05

Roderick Julian Modell / The Autonomous Music Project

Used drive : Optiarc DVD RW AD-7200A Adapter: 0 ID: 1

Read mode : Secure
Utilize accurate stream : Yes
Defeat audio cache : Yes
Make use of C2 pointers : No

Read offset correction : 48
Overread into Lead-In and Lead-Out : No
Fill up missing offset samples with silence : Yes
Delete leading and trailing silent blocks : No
Null samples used in CRC calculations : Yes
Used interface : Native Win32 interface for Win NT & 2000

Used output format : User Defined Encoder
Selected bitrate : 1024 kBit/s
Quality : High
Add ID3 tag : No
Command line compressor : C:\Program Files\FLAC\flac.exe
Additional command line options : -8 -V -T "ARTIST=%a" -T "ALBUM=%g" -T "DATE=%y" -T "GENRE=%m" %s -o %d


TOC of the extracted CD

Track | Start | Length | Start sector | End sector
––––––––––––––––––––––––––––-
1 | 0:00.00 | 6:08.69 | 0 | 27668
2 | 6:08.69 | 4:50.06 | 27669 | 49424
3 | 10:59.00 | 11:03.72 | 49425 | 99221
4 | 22:02.72 | 15:33.02 | 99222 | 169198
5 | 37:35.74 | 9:03.66 | 169199 | 209989
6 | 46:39.65 | 10:31.67 | 209990 | 257381
7 | 57:11.57 | 5:36.27 | 257382 | 282608


Range status and errors

Selected range

Filename E:\Temp\Roderick Julian Modell - The Autonomous Music Project (1999)\Roderick Julian Modell - The Autonomous Music Project.wav

Peak level 86.6 %
Range quality 100.0 %
Test CRC CC2DC7F1
Copy CRC CC2DC7F1
Copy OK

No errors occurred


AccurateRip summary

Track 1 accurately ripped (confidence 2) [5379DBF7]
Track 2 accurately ripped (confidence 2) [3A9F2692]
Track 3 accurately ripped (confidence 2) [CE69DA71]
Track 4 accurately ripped (confidence 2) [525CA930]
Track 5 accurately ripped (confidence 2) [F570F42F]
Track 6 accurately ripped (confidence 2) [67C77307]
Track 7 accurately ripped (confidence 2) [2C37444F]

All tracks accurately ripped

End of status report

[CUETools log; Date: 07.01.2021 16:22:54; Version: 2.1.4]
[CTDB TOCID: A95uM9TXq4zvtLI32AU8qTRX19g-] found.
Track | CTDB Status
1 | (9/9) Accurately ripped
2 | (9/9) Accurately ripped
3 | (9/9) Accurately ripped
4 | (9/9) Accurately ripped
5 | (9/9) Accurately ripped
6 | (9/9) Accurately ripped
7 | (9/9) Accurately ripped
[AccurateRip ID: 0010b748-00674957-4b0eb807] found.
Track [ CRC | V2 ] Status
01 [5379dbf7|d4c02313] (05+09/14) Accurately ripped
02 [3a9f2692|f745d679] (05+09/14) Accurately ripped
03 [ce69da71|2319a1bb] (05+09/14) Accurately ripped
04 [525ca930|c882426a] (05+09/14) Accurately ripped
05 [f570f42f|da01f7ca] (05+09/14) Accurately ripped
06 [67c77307|d934e690] (05+09/14) Accurately ripped
07 [2c37444f|28880a30] (05+09/14) Accurately ripped

Track Peak [ CRC32 ] [W/O NULL] [ LOG ]
– 86,6 [CC2DC7F1] [148122F0] CRC32
01 83,6 [A1CA8127] [5DBACFDB]
02 51,0 [E437FEDB] [C869B3DD]
03 86,6 [86A6F731] [AFB5570C]
04 66,7 [8E6A9789] [CD48FCAD]
05 78,2 [8E089746] [04358030]
06 53,9 [AA364EFE] [ED285320]
07 54,9 [E94B5026] [0B391A27]

Thanks to tdutym

See also:
Rod Modell & Michael Mantra - 2 Studio Albums (1998-2003)