"Rahsaan" Roland Kirk - The Complete Mercury Recordings Of [11CD] (1990)

Posted By: Oceandrop
"Rahsaan" Roland Kirk - The Complete Mercury Recordings Of [11CD] (1990)

"Rahsaan" Roland Kirk - The Complete Mercury Recordings Of [11CD] (1990)
Jazz | EAC Rip | FLAC (tracks)+CUE+LOG | mp3@320 | 3,37 GB. & 1,28 MB.
300dpi. Complete Scans (JPG) - 38 MB. | WinRar, 3% recovery
Audio CD (1990) | Label: PolyGram/Mercury | Catalog# 846-630-2 | 9h 19m 12s

Review by Lindsay Planer ~allmusic
Rahsaan Roland Kirk's nearly one-dozen long-players on the Mercury Records family of labels – including the Smash and Limelight subsidiaries – are gathered on this massive ten-disc compilation. Actually, it is 11 discs if you count the surprise bonus CD. Additionally, Rahsaan: The Complete Mercury Recordings of Roland Kirk lives up to its name by augmenting those albums with more than two-dozen previously unissued sides. Kirk's thoroughly innovative multi-instrumental reed work caught the attention of legendary producer Quincy Jones, then the vice-president of Mercury Records, who signed Kirk and would later arrange and conduct orchestrations for several of his memorable sessions. Perhaps the most recognizable among them is "Soul Bossa Nova" which is heavily featured in the Austin Powers franchise.

Kirk's ability to perform several reed instruments – including the tenor, flute, clarinet, manzello, and stritch – simultaneously allowed him a musical autonomy few instrumentalists are afforded. His youthful embrace of the R&B, soul, pop, and eventually rock genres produced swinging interpretations of "And I Love Her" and "Walk on By," among others. Regardless of the genre, however, Kirk's ability to Swing – with a capitol "S" – is imprinted upon every piece he performed. Although Kirk continued his prolific output on Atlantic records in the late '60s and '70s, arguably his most profound sides are included here. We Free Kings, Domino, Reeds and Deeds, Gifts and Messages, I Talk with the Spirits and Rip, Rig & Panic are offered in their entirety.

Undoubtedly the centerpiece of Kirk's work for the label is the live Kirk in Copenhagen, which features some wicked harp blowing from blues legend "Sonny Boy" Williamson, aka Big Skol. It is only fitting that this album benefits so greatly from inclusion on this set. The original six sides have been supplemented with an additional ten to present the entire October '63 performance, now complete at an hour and 45 minutes. Rahsaan: The Complete Mercury Recordings if Roland Kirk is complimented visually with a 56-page information packed booklet that includes: complete discographical and recording session logs, as well individual essays for each disc. Although not for the light of funds, this is truly the best way to become immersed in these early works of Rahsaan Roland Kirk.
Tracklist, Disc.01:
01. Blues for Alice (alternate) (5:14)
02. Blues for Alice (4:09)
03. My Delight (4:30)
04. The Haunted Melody (3:40)
05. A Sack Full of Soul (4:40)
06. We Free Kings (4:48)
07. Spring Will Be a Little Late This Year (4:08)
08. Moon Song (4:23)
09. Some Kind of Love (6:12)
10. Three for The Festival (3:10)
11. You Did it, You Did It (2:27)

Tracklist, Disc.02:
01. Get Out of Town (4:53)
02. Rolando (3:49)
03. I Believe in You (4:29)
04. Where Monk and Mingus Live, Let's Call This (alternate) (4:10)
05. Domino (alternate) (4:07)
06. E.D. (2:25)
07. I Didn't Know What Time it Was (alternate) (2:19)
08. Someone to Watch Over Me (alternate) (3:45)
09. Termini's Corner (2:21)
10. When the Sun Comes Out (2:45)
11. Ad Lib (0:27)
12. Stitt's Tune (9:59)
13. I See with My Third "I" (9:33)
14. Medley: If I Had You/Alone Together/For Heaven's Sake (7:32)
15. Afternoon in Paris (5:52)
16. Lady "E" (3:20)

Tracklist, Disc.03:
01. Meeting on Termini's Corner (3:41)
02. Domino (3:14)
03. Time (3:13)
04. 3-in-1 Without the Oil (2:35)
05. A Stritch in Time (5:06)
06. Lament (3:40)
07. A Breath in the Wind (5:09)
08. Land of Peace (5:54)
09. Lonesome August Child (4:36)
10. Limbo Boat (3:02)
11. Hay Ro (3:04)
12. Waltz of the Friends (4:40)

Tracklist, Disc.04:
01. This is Always (4:20)
02. Reeds and Deeds (5:20)
03. Song of the Countrymen (6:56)
04. Ecclusiastics (4:30)
05. By Myself (4:23)
06. Roland Speaks (3:07)
07. A Nightingale Sang in Berkeley Square (5:16)
08. Variation on a Theme of Hindemith (3:30)
09. I've Got Your Number (5:58)
10. Between the Fourth and the Fifth Step (3:43)
11. April Morning (3:45)
12. Get in the Basement (4:06)
13. Abstract Improvisation (1:59)

Tracklist, Disc.05:
01. Narrow Bolero (unissued master) (8:25)
02. Narrow Bolero (6:43)
03. My Heart Stood Still (5:51)
04. No Title No. 1 (5:57)
05. Mood Indigo (7:15)
06. Cabin in the Sky (7:47)
07. On the Corner of King and Scott Streets (4:41)
08. Untitled Blues (6:18)

"Rahsaan" Roland Kirk - The Complete Mercury Recordings Of [11CD] (1990)

Tracklist, Disc.06:
01. The Monkey Thing (5:56)
02. Will You Still Be Mine (8:40)
03. One for My Baby (3:54)
04. We'll Be Together Again (5:22)
05. Mingus-Griff Song (8:39)
06. Mood Indigo (6:53)
07. Medley: Rock-a-Bye Baby/Nearness of You/No Title No. 3 (12:35)
08. Half a Triple (4:54)

Tracklist, Disc.07:
01. Japan (unissued master #1) (3:05)
02. Japan (unissued master #2) (3:10)
03. Japan (unissued master #3) (3:08)
04. Berkshire Blues (alternate) (2:48)
05. Dirty Money Blues (alternate) (3:44)
06. Dirty Money Blues (unissued master) (3:45)
07. Ad Lib (unissued master) (3:09)
08. The Things I Love (3:15)
09. Petite Fleur (3:13)
10. March On, Swan Lake (4:00)
11. Tears Sent By You (6:01)
12. My Heart at The Sweet Voice (3:24)
13. Gifts and Messages (4:08)
14. Hip Chops (3:35)
15. Blues for C & T (3:08)
16. Where Does the Blame Lie (2:52)
17. Vertigo Ro (4:08)
18. Jive Elephant (unissued master) (2:56)

Tracklist, Disc.08:
01. I Talk with the Spirits (3:57)
02. Serenade to a Cuckoo (4:35)
03. Medley: We'll Be Together Again/People from "Funny Girl" (4:42)
04. Ruined Castles (1:19)
05. Trees (6:23)
06. Fugue'n and Alludin' (0:44)
07. Django (4:51)
08. My Ship (5:06)
09. A Quote from Clifford Brown (4:26)
10. The Business Ain't Nothin' But the Blues (5:03)

Tracklist, Disc.09:
01. No Tonic Press (4:35)
02. From Bechet, Fats and Byas (6:32)
03. Slippery, Hippery, Flippery (4:58)
04. Black Diamond (5:24)
05. Rip, Rig and Panic (7:01)
06. Once in a While (4:02)
07. Mystical Dream (2:40)
08. Walk on By (2:35)
09. Juarez (5:28)
10. Shakey Money (2:40)
11. Ebrauqs (8:28)
12. Raouf (3:10)
13. Nothing But the Truth (3:39)
14. Safari (4:33)
15. It's All in the Game (5:24)
16. And I Love Her (3:04)

Tracklist, Disc.10:
01. A Taste of Honey (2:37)
02. Dyna-Soar (2:38)
03. Soul Bossa Nova (2:49)
04. Comin' Home Baby (2:47)
05. Days of Wine and Roses (2:48)
06. Moon River (2:37)
07. Dreamsville (3:53)
08. Don't You Forget It (2:56)
09. Charade (3:18)
10. Peter Gunn (3:01)
11. I Had a Ball (5:06)
12. Addie's at it Again (5:05)

Tracklist, Disc.11 (Bonus Disc):
01. A Stritch in Time (7:06)

"Rahsaan" Roland Kirk - The Complete Mercury Recordings Of [11CD] (1990)

Personnel:
"Rahsaan" Roland Kirk, Jaki Byard, Art Davis, Richard Davis,
Benny Golson, Roy Haynes, Andrew Hill, Elvin Jones, Hank Jones,
Wynton Kelly, Tete Montoliu, Horace Parlan, Niels Henning Orsted Pedersen,
Walter Perkins, Charlie Persip, Richard Wyands & many more.

(please see booklet scans for details)

~allAboutJazz

Born: August 7, 1936 | Died: December 5, 1977 | Instrument: Reeds

Kirk was born Ronald Theodore Kirk in Columbus, Ohio, but felt compelled by a dream to transpose two letters in his first name to make Roland. In 1970, Kirk added “Rahsaan” to his name.

Preferring to lead his own groups, Kirk rarely performed as a sideman, though he did record with arranger Quincy Jones, Roy Haynes and had especially notable stints with Charles Mingus. He played the lead flute and solo on Jones' Soul Bossa Nova, a song popularized in the Austin Powers films (Jones 1964; McLeod et al. 1997).

His playing was generally rooted in soul jazz or hard bop, but Kirk's knowledge of jazz history allowed him to draw on many elements of the music's history, from ragtime to swing and free jazz. Kirk also regularly explored classical and pop music.

Kirk played and collected a number of musical instruments, mainly various saxophones, clarinets and flutes. His main instruments were a tenor saxophone and two obscure saxophones: the manzello (similar to a soprano sax) and the stritch (a straight alto sax lacking the instrument's characteristic upturned bell). Kirk modified these instruments himself to accommodate his simultaneous playing technique. He typically appeared on stage with all three horns hanging around his neck, as well as a variety of other instruments, including flutes and whistles, and often kept a gong within reach. Kirk also played harmonica, english horn, recorders and was a competent trumpeter. He often had unique approaches, using a saxophone mouthpiece on a trumpet or playing nose flute. He additionally used many extramusical sounds in his art, such as alarm clocks, whistles, sirens, a section of common garden hose (”the black mystery pipes”) and even primitive electronic sounds (before such things became commonplace).

Kirk was also an influential flautist, employing several techniques that he developed himself. One technique was to sing or hum into the flute at the same time as playing. Another was to play the standard transverse flute at the same time as a nose flute.

Some observers thought that Kirk's bizarre onstage appearance and simultaneous multi-instrumentalism were just gimmicks, especially when coming from a blind man, but these opinions usually vanished when Kirk actually started playing. He used the multiple horns to play true chords, essentially functioning as a one-man saxophone section. Kirk insisted that he was only trying to emulate the sounds he heard in his mind.

Kirk was also a major exponent and practitioner of circular breathing. Using this technique, Kirk was not only able to sustain a single note for virtually any length of time; he could also play 16th-note runs of almost unlimited length, and at high speeds. His circular breathing ability enabled him to record Concerto For Saxophone on the Prepare Thyself To Deal With A Miracle LP in one continuous take of about 20 minutes' playing with no discernible “break” for inhaling. His long-time producer at Atlantic Jazz, Joel Dorn, believes he should have received credit in The Guinness Book of World Records for such feats (he was capable of playing continuously “without taking a breath” for far longer than exhibited on that LP), but this never happened.

The Case Of The 3-Sided Dream in Audio Color was a unique album in jazz and popular music recorded annals. It was a two-LP set, with Side 4 apparently “blank,” the label not indicating any content. However, once word of “the secret message” got around among Rahsaan's fans, one would find that about 12 minutes into Side 4 appeared the first of two telephone answering machine messages recorded by Kirk, the second following soon thereafter (but separated by more blank grooves). The surprise impact of these segments appearing on “blank” Side 4 was lost, of course, on the CD reissue of this album. These spoken-word segments reflected the tenor of the times, so to speak, with the rather pessimistic theme that humanity had “blown” its chance to live in a world of peace and harmony. But this was entirely in keeping with the fact that, despite his loss at an early age of his visual acuity, Rahsaan was very much on top of societal developments, racial and economic injustice and disparity. (Indeed, he had participated many years previously in protests against the failure of TV show hosts like Merv Griffin to hire any non- white musicians.) He gleaned information on what was happening in the world via audio media like radio and the sounds coming from TV sets. His later recordings often incorporated his spoken commentaries on current events, including Richard M. Nixon's involvement in Watergate. The 3-Sided Dream album was a “concept album,” somewhat akin to the Beatles' “psychedelic” phase in the incorporation of “found” or environmental sounds and tape loops, tapes being played backwards, etc. Snippets of Billie Holiday singing are also heard briefly. The album even confronts the rise of influence of computers in society, as Rahsaan threatens to pull the plug on the machine trying to tell him what to do.

In 1975, Kirk suffered a major stroke which led to partial paralysis of one side of his body. Despite this, he continued to perform, modifying his instruments himself to enable him to play with only one arm. At a live performance at Ronnie Scott's club in London he even managed to play two instruments, and carried on to tour internationally and even appear on TV.

He died from a second stroke in 1977 after performing at the Bluebird nightclub in Bloomington, Indiana.

Recorded between August 16, 1961 - November 17, 1965
Researched and compiled by Kiyoshi "Boxman" Koyama
Digital transfer, remastering and editing by Kiyoshi Tokiwa
Album cover and liner photos by Chuck Stewart
Art Direction & Design: Heyqlow Kobayashi
Liner notes by Dan Morgenstern (Director, Institute of Jazz Studies, Rutgers)


Exact Audio Copy V0.99 prebeta 3 from 28. July 2007

EAC extraction logfile from 4. January 2008, 18:04

Roland Kirk / Rahsaan–Complete Mercury Recordings

Used drive : TSSTcorpDVD+-RW TS-H553A Adapter: 0 ID: 2

Read mode : Secure
Utilize accurate stream : Yes
Defeat audio cache : Yes
Make use of C2 pointers : No

Read offset correction : 6
Overread into Lead-In and Lead-Out : No
Fill up missing offset samples with silence : Yes
Delete leading and trailing silent blocks : No
Null samples used in CRC calculations : Yes
Used interface : Native Win32 interface for Win NT & 2000
Gap handling : Appended to previous track

Used output format : User Defined Encoder
Selected bitrate : 768 kBit/s
Quality : High
Add ID3 tag : No
Command line compressor : C:\Program Files\Exact Audio Copy\FLAC\FLAC.EXE
Additional command line options : -6 -V -T "ARTIST=%a" -T "TITLE=%t" -T "ALBUM=%g" -T "DATE=%y" -T "TRACKNUMBER=%n" -T "GENRE=%m" -T "COMMENT=%e" %s -o %d


TOC of the extracted CD

Track | Start | Length | Start sector | End sector
––––––––––––––––––––––––––––-
1 | 0:00.33 | 5:14.00 | 33 | 23582
2 | 5:14.33 | 4:09.00 | 23583 | 42257
3 | 9:23.33 | 4:30.00 | 42258 | 62507
4 | 13:53.33 | 3:40.00 | 62508 | 79007
5 | 17:33.33 | 4:40.00 | 79008 | 100007
6 | 22:13.33 | 4:48.00 | 100008 | 121607
7 | 27:01.33 | 4:08.00 | 121608 | 140207
8 | 31:09.33 | 4:23.00 | 140208 | 159932
9 | 35:32.33 | 6:12.00 | 159933 | 187832
10 | 41:44.33 | 3:10.00 | 187833 | 202082
11 | 44:54.33 | 2:27.25 | 202083 | 213132


Track 1

Filename K:\New Rips\Roland Kirk - Rahsaan–Complete Mercury Recordings (1961) [FLAC]\disc 1\01 - Blues For Alice (alt tk).wav

Pre-gap length 0:00:02.44

Peak level 97.3 %
Track quality 100.0 %
Test CRC 99508458
Copy CRC 99508458
Track not present in AccurateRip database
Copy OK

Track 2

Filename K:\New Rips\Roland Kirk - Rahsaan–Complete Mercury Recordings (1961) [FLAC]\disc 1\02 - Blues For Alice.wav

Pre-gap length 0:00:02.33

Peak level 91.4 %
Track quality 100.0 %
Test CRC DC6D8553
Copy CRC DC6D8553
Track not present in AccurateRip database
Copy OK

Track 3

Filename K:\New Rips\Roland Kirk - Rahsaan–Complete Mercury Recordings (1961) [FLAC]\disc 1\03 - My Delight.wav

Pre-gap length 0:00:01.84

Peak level 63.9 %
Track quality 100.0 %
Test CRC A8DF6A92
Copy CRC A8DF6A92
Track not present in AccurateRip database
Copy OK

Track 4

Filename K:\New Rips\Roland Kirk - Rahsaan–Complete Mercury Recordings (1961) [FLAC]\disc 1\04 - The Haunted Melody.wav

Pre-gap length 0:00:01.17

Peak level 62.6 %
Track quality 100.0 %
Test CRC ECC6E4A7
Copy CRC ECC6E4A7
Track not present in AccurateRip database
Copy OK

Track 5

Filename K:\New Rips\Roland Kirk - Rahsaan–Complete Mercury Recordings (1961) [FLAC]\disc 1\05 - A Sack Full Of Soul.wav

Pre-gap length 0:00:02.66

Peak level 74.9 %
Track quality 100.0 %
Test CRC F8D3ACB2
Copy CRC F8D3ACB2
Track not present in AccurateRip database
Copy OK

Track 6

Filename K:\New Rips\Roland Kirk - Rahsaan–Complete Mercury Recordings (1961) [FLAC]\disc 1\06 - We Free Kings.wav

Pre-gap length 0:00:02.33

Peak level 76.8 %
Track quality 100.0 %
Test CRC 3E63DE02
Copy CRC 3E63DE02
Track not present in AccurateRip database
Copy OK

Track 7

Filename K:\New Rips\Roland Kirk - Rahsaan–Complete Mercury Recordings (1961) [FLAC]\disc 1\07 - Spring Will Be A Little Late This Year.wav

Pre-gap length 0:00:01.84

Peak level 75.9 %
Track quality 100.0 %
Test CRC 47F785A9
Copy CRC 47F785A9
Track not present in AccurateRip database
Copy OK

Track 8

Filename K:\New Rips\Roland Kirk - Rahsaan–Complete Mercury Recordings (1961) [FLAC]\disc 1\08 - Moon Song.wav

Pre-gap length 0:00:01.84

Peak level 80.3 %
Track quality 99.9 %
Test CRC CC8D7869
Copy CRC CC8D7869
Track not present in AccurateRip database
Copy OK

Track 9

Filename K:\New Rips\Roland Kirk - Rahsaan–Complete Mercury Recordings (1961) [FLAC]\disc 1\09 - Some Kind Of Love.wav

Pre-gap length 0:00:01.84

Peak level 91.4 %
Track quality 100.0 %
Test CRC C9BBD94F
Copy CRC C9BBD94F
Track not present in AccurateRip database
Copy OK

Track 10

Filename K:\New Rips\Roland Kirk - Rahsaan–Complete Mercury Recordings (1961) [FLAC]\disc 1\10 - Three For The Festival.wav

Pre-gap length 0:00:01.84

Peak level 77.1 %
Track quality 100.0 %
Test CRC 45A3CB84
Copy CRC 45A3CB84
Track not present in AccurateRip database
Copy OK

Track 11

Filename K:\New Rips\Roland Kirk - Rahsaan–Complete Mercury Recordings (1961) [FLAC]\disc 1\11 - You Did It, You Did It.wav

Pre-gap length 0:00:01.66

Peak level 69.6 %
Track quality 100.0 %
Test CRC 8504872A
Copy CRC 8504872A
Track not present in AccurateRip database
Copy OK


None of the tracks are present in the AccurateRip database

No errors occurred

End of status report

Exact Audio Copy V0.99 prebeta 3 from 28. July 2007

EAC extraction logfile from 4. January 2008, 20:33

Roland Kirk / Rahsaan–Complete Mercury Recordings

Used drive : TSSTcorpDVD+-RW TS-H553A Adapter: 0 ID: 2

Read mode : Secure
Utilize accurate stream : Yes
Defeat audio cache : Yes
Make use of C2 pointers : No

Read offset correction : 6
Overread into Lead-In and Lead-Out : No
Fill up missing offset samples with silence : Yes
Delete leading and trailing silent blocks : No
Null samples used in CRC calculations : Yes
Used interface : Native Win32 interface for Win NT & 2000
Gap handling : Appended to previous track

Used output format : User Defined Encoder
Selected bitrate : 768 kBit/s
Quality : High
Add ID3 tag : No
Command line compressor : C:\Program Files\Exact Audio Copy\FLAC\FLAC.EXE
Additional command line options : -6 -V -T "ARTIST=%a" -T "TITLE=%t" -T "ALBUM=%g" -T "DATE=%y" -T "TRACKNUMBER=%n" -T "GENRE=%m" -T "COMMENT=%e" %s -o %d


TOC of the extracted CD

Track | Start | Length | Start sector | End sector
––––––––––––––––––––––––––––-
1 | 0:00.33 | 4:53.00 | 33 | 22007
2 | 4:53.33 | 3:49.00 | 22008 | 39182
3 | 8:42.33 | 4:29.00 | 39183 | 59357
4 | 13:11.33 | 4:10.00 | 59358 | 78107
5 | 17:21.33 | 4:07.00 | 78108 | 96632
6 | 21:28.33 | 2:25.00 | 96633 | 107507
7 | 23:53.33 | 2:19.00 | 107508 | 117932
8 | 26:12.33 | 3:45.00 | 117933 | 134807
9 | 29:57.33 | 2:21.00 | 134808 | 145382
10 | 32:18.33 | 2:45.00 | 145383 | 157757
11 | 35:03.33 | 0:27.00 | 157758 | 159782
12 | 35:30.33 | 9:59.00 | 159783 | 204707
13 | 45:29.33 | 9:33.00 | 204708 | 247682
14 | 55:02.33 | 7:32.00 | 247683 | 281582
15 | 62:34.33 | 5:52.00 | 281583 | 307982
16 | 68:26.33 | 3:20.12 | 307983 | 322994


Track 1

Filename K:\New Rips\Roland Kirk - Rahsaan–Complete Mercury Recordings (1961) [FLAC]\disc 2\01 - Get Out Of Town.wav

Pre-gap length 0:00:02.44

Peak level 70.8 %
Track quality 100.0 %
Test CRC 09852093
Copy CRC 09852093
Track not present in AccurateRip database
Copy OK

Track 2

Filename K:\New Rips\Roland Kirk - Rahsaan–Complete Mercury Recordings (1961) [FLAC]\disc 2\02 - Rolando.wav

Pre-gap length 0:00:02.50

Peak level 80.8 %
Track quality 100.0 %
Test CRC 10084579
Copy CRC 10084579
Track not present in AccurateRip database
Copy OK

Track 3

Filename K:\New Rips\Roland Kirk - Rahsaan–Complete Mercury Recordings (1961) [FLAC]\disc 2\03 - I Believe In You.wav

Pre-gap length 0:00:02.33

Peak level 73.5 %
Track quality 100.0 %
Test CRC 2ADCB84F
Copy CRC 2ADCB84F
Track not present in AccurateRip database
Copy OK

Track 4

Filename K:\New Rips\Roland Kirk - Rahsaan–Complete Mercury Recordings (1961) [FLAC]\disc 2\04 - Where Monk And Mingus Live,Let's Call This.wav

Pre-gap length 0:00:01.84

Peak level 74.5 %
Track quality 100.0 %
Test CRC 5DE97D27
Copy CRC 5DE97D27
Track not present in AccurateRip database
Copy OK

Track 5

Filename K:\New Rips\Roland Kirk - Rahsaan–Complete Mercury Recordings (1961) [FLAC]\disc 2\05 - Domino.wav

Pre-gap length 0:00:02.33

Peak level 79.8 %
Track quality 100.0 %
Test CRC 70E4CEA8
Copy CRC 70E4CEA8
Track not present in AccurateRip database
Copy OK

Track 6

Filename K:\New Rips\Roland Kirk - Rahsaan–Complete Mercury Recordings (1961) [FLAC]\disc 2\06 - E.D..wav

Pre-gap length 0:00:01.84

Peak level 89.5 %
Track quality 100.0 %
Test CRC 1968179C
Copy CRC 1968179C
Track not present in AccurateRip database
Copy OK

Track 7

Filename K:\New Rips\Roland Kirk - Rahsaan–Complete Mercury Recordings (1961) [FLAC]\disc 2\07 - I Didn't Know What Time It Was.wav

Pre-gap length 0:00:01.84

Peak level 89.8 %
Track quality 100.0 %
Test CRC 4E821066
Copy CRC 4E821066
Track not present in AccurateRip database
Copy OK

Track 8

Filename K:\New Rips\Roland Kirk - Rahsaan–Complete Mercury Recordings (1961) [FLAC]\disc 2\08 - Someone To Watch Over Me.wav

Pre-gap length 0:00:02.00

Peak level 77.6 %
Track quality 100.0 %
Test CRC DE004E67
Copy CRC DE004E67
Track not present in AccurateRip database
Copy OK

Track 9

Filename K:\New Rips\Roland Kirk - Rahsaan–Complete Mercury Recordings (1961) [FLAC]\disc 2\09 - Termini's Corner.wav

Pre-gap length 0:00:02.17

Peak level 95.1 %
Track quality 100.0 %
Test CRC 2D492CCA
Copy CRC 2D492CCA
Track not present in AccurateRip database
Copy OK

Track 10

Filename K:\New Rips\Roland Kirk - Rahsaan–Complete Mercury Recordings (1961) [FLAC]\disc 2\10 - When The Sun Comes Out.wav

Pre-gap length 0:00:02.00

Peak level 100.0 %
Track quality 100.0 %
Test CRC 90628993
Copy CRC 90628993
Track not present in AccurateRip database
Copy OK

Track 11

Filename K:\New Rips\Roland Kirk - Rahsaan–Complete Mercury Recordings (1961) [FLAC]\disc 2\11 - Ad Lib.wav

Pre-gap length 0:00:02.17

Peak level 86.5 %
Track quality 100.0 %
Test CRC 04269515
Copy CRC 04269515
Track not present in AccurateRip database
Copy OK

Track 12

Filename K:\New Rips\Roland Kirk - Rahsaan–Complete Mercury Recordings (1961) [FLAC]\disc 2\12 - Stitt's Tune.wav

Pre-gap length 0:00:03.33

Peak level 85.8 %
Track quality 100.0 %
Test CRC 2BE7121C
Copy CRC 2BE7121C
Track not present in AccurateRip database
Copy OK

Track 13

Filename K:\New Rips\Roland Kirk - Rahsaan–Complete Mercury Recordings (1961) [FLAC]\disc 2\13 - I See With My Third 'I'.wav

Pre-gap length 0:00:02.33

Peak level 100.0 %
Track quality 100.0 %
Test CRC 8E8C71FE
Copy CRC 8E8C71FE
Track not present in AccurateRip database
Copy OK

Track 14

Filename K:\New Rips\Roland Kirk - Rahsaan–Complete Mercury Recordings (1961) [FLAC]\disc 2\14 - Medley- If I Had You,Alone Together,For Heaven's Sake.wav

Pre-gap length 0:00:01.84

Peak level 78.0 %
Track quality 100.0 %
Test CRC 3630BB89
Copy CRC 3630BB89
Track not present in AccurateRip database
Copy OK

Track 15

Filename K:\New Rips\Roland Kirk - Rahsaan–Complete Mercury Recordings (1961) [FLAC]\disc 2\15 - Afternoon in Paris.wav

Pre-gap length 0:00:02.50

Peak level 72.2 %
Track quality 99.9 %
Test CRC DA7C96EA
Copy CRC DA7C96EA
Track not present in AccurateRip database
Copy OK

Track 16

Filename K:\New Rips\Roland Kirk - Rahsaan–Complete Mercury Recordings (1961) [FLAC]\disc 2\16 - Lady 'E'.wav

Pre-gap length 0:00:02.50

Peak level 82.6 %
Track quality 100.0 %
Test CRC 8AFDD502
Copy CRC 8AFDD502
Track not present in AccurateRip database
Copy OK


None of the tracks are present in the AccurateRip database

No errors occurred

End of status report

Exact Audio Copy V0.99 prebeta 3 from 28. July 2007

EAC extraction logfile from 5. January 2008, 10:40

Roland Kirk / Rahsaan–Complete Mercury Recordings

Used drive : TSSTcorpDVD+-RW TS-H553A Adapter: 0 ID: 2

Read mode : Secure
Utilize accurate stream : Yes
Defeat audio cache : Yes
Make use of C2 pointers : No

Read offset correction : 6
Overread into Lead-In and Lead-Out : No
Fill up missing offset samples with silence : Yes
Delete leading and trailing silent blocks : No
Null samples used in CRC calculations : Yes
Used interface : Native Win32 interface for Win NT & 2000
Gap handling : Appended to previous track

Used output format : User Defined Encoder
Selected bitrate : 768 kBit/s
Quality : High
Add ID3 tag : No
Command line compressor : C:\Program Files\Exact Audio Copy\FLAC\FLAC.EXE
Additional command line options : -6 -V -T "ARTIST=%a" -T "TITLE=%t" -T "ALBUM=%g" -T "DATE=%y" -T "TRACKNUMBER=%n" -T "GENRE=%m" -T "COMMENT=%e" %s -o %d


TOC of the extracted CD

Track | Start | Length | Start sector | End sector
––––––––––––––––––––––––––––-
1 | 0:00.33 | 3:40.62 | 33 | 16594
2 | 3:41.20 | 3:14.00 | 16595 | 31144
3 | 6:55.20 | 3:13.13 | 31145 | 45632
4 | 10:08.33 | 2:35.00 | 45633 | 57257
5 | 12:43.33 | 5:06.00 | 57258 | 80207
6 | 17:49.33 | 3:39.62 | 80208 | 96694
7 | 21:29.20 | 5:09.13 | 96695 | 119882
8 | 26:38.33 | 5:54.00 | 119883 | 146432
9 | 32:32.33 | 4:36.00 | 146433 | 167132
10 | 37:08.33 | 3:02.00 | 167133 | 180782
11 | 40:10.33 | 3:04.00 | 180783 | 194582
12 | 43:14.33 | 4:40.00 | 194583 | 215582


Track 1

Filename K:\New Rips\Roland Kirk - Rahsaan–Complete Mercury Recordings (1961) [FLAC]\disc 3\01 - Meeting On Termini's Corner.wav

Pre-gap length 0:00:02.44

Peak level 80.6 %
Track quality 99.9 %
Test CRC F6D9CB5F
Copy CRC F6D9CB5F
Track not present in AccurateRip database
Copy OK

Track 2

Filename K:\New Rips\Roland Kirk - Rahsaan–Complete Mercury Recordings (1961) [FLAC]\disc 3\02 - Domino.wav

Pre-gap length 0:00:01.82

Peak level 64.1 %
Track quality 100.0 %
Test CRC 0A6E00AB
Copy CRC 0A6E00AB
Track not present in AccurateRip database
Copy OK

Track 3

Filename K:\New Rips\Roland Kirk - Rahsaan–Complete Mercury Recordings (1961) [FLAC]\disc 3\03 - Time.wav

Pre-gap length 0:00:01.82

Peak level 45.7 %
Track quality 100.0 %
Test CRC DA95EB28
Copy CRC DA95EB28
Track not present in AccurateRip database
Copy OK

Track 4

Filename K:\New Rips\Roland Kirk - Rahsaan–Complete Mercury Recordings (1961) [FLAC]\disc 3\04 - 3-In-1 Without The Oil.wav

Pre-gap length 0:00:01.84

Peak level 79.0 %
Track quality 100.0 %
Test CRC DA792169
Copy CRC DA792169
Track not present in AccurateRip database
Copy OK

Track 5

Filename K:\New Rips\Roland Kirk - Rahsaan–Complete Mercury Recordings (1961) [FLAC]\disc 3\05 - A Stritch In Time.wav

Pre-gap length 0:00:02.84

Peak level 62.6 %
Track quality 99.9 %
Test CRC 8D98C7F0
Copy CRC 8D98C7F0
Track not present in AccurateRip database
Copy OK

Track 6

Filename K:\New Rips\Roland Kirk - Rahsaan–Complete Mercury Recordings (1961) [FLAC]\disc 3\06 - Lament.wav

Pre-gap length 0:00:02.00

Peak level 90.8 %
Track quality 99.9 %
Test CRC B6BB28EA
Copy CRC B6BB28EA
Track not present in AccurateRip database
Copy OK

Track 7

Filename K:\New Rips\Roland Kirk - Rahsaan–Complete Mercury Recordings (1961) [FLAC]\disc 3\07 - A Breath In The Wind.wav

Pre-gap length 0:00:01.49

Peak level 78.1 %
Track quality 100.0 %
Test CRC F101F0C2
Copy CRC F101F0C2
Track not present in AccurateRip database
Copy OK

Track 8

Filename K:\New Rips\Roland Kirk - Rahsaan–Complete Mercury Recordings (1961) [FLAC]\disc 3\08 - Land Of Peace.wav

Pre-gap length 0:00:01.84

Peak level 93.3 %
Track quality 99.9 %
Test CRC 472B1F35
Copy CRC 472B1F35
Track not present in AccurateRip database
Copy OK

Track 9

Filename K:\New Rips\Roland Kirk - Rahsaan–Complete Mercury Recordings (1961) [FLAC]\disc 3\09 - Lonesome August Child.wav

Pre-gap length 0:00:01.84

Peak level 79.1 %
Track quality 99.9 %
Test CRC 53011D5D
Copy CRC 53011D5D
Track not present in AccurateRip database
Copy OK

Track 10

Filename K:\New Rips\Roland Kirk - Rahsaan–Complete Mercury Recordings (1961) [FLAC]\disc 3\10 - Limbo Boat.wav

Pre-gap length 0:00:02.50

Peak level 83.2 %
Track quality 100.0 %
Test CRC 6ACF618B
Copy CRC 6ACF618B
Track not present in AccurateRip database
Copy OK

Track 11

Filename K:\New Rips\Roland Kirk - Rahsaan–Complete Mercury Recordings (1961) [FLAC]\disc 3\11 - Hay Ro.wav

Pre-gap length 0:00:02.00

Peak level 96.7 %
Track quality 100.0 %
Test CRC 1C559AE3
Copy CRC 1C559AE3
Track not present in AccurateRip database
Copy OK

Track 12

Filename K:\New Rips\Roland Kirk - Rahsaan–Complete Mercury Recordings (1961) [FLAC]\disc 3\12 - Waltz Of The Friends.wav

Pre-gap length 0:00:01.66

Peak level 84.0 %
Track quality 100.0 %
Test CRC 24D53AF0
Copy CRC 24D53AF0
Track not present in AccurateRip database
Copy OK


None of the tracks are present in the AccurateRip database

No errors occurred

End of status report

Exact Audio Copy V0.99 prebeta 3 from 28. July 2007

EAC extraction logfile from 3. January 2008, 23:20

Roland Kirk / Rahsaan–Complete Mercury Recordings

Used drive : TSSTcorpDVD+-RW TS-H553A Adapter: 0 ID: 2

Read mode : Secure
Utilize accurate stream : Yes
Defeat audio cache : Yes
Make use of C2 pointers : No

Read offset correction : 6
Overread into Lead-In and Lead-Out : No
Fill up missing offset samples with silence : Yes
Delete leading and trailing silent blocks : No
Null samples used in CRC calculations : Yes
Used interface : Native Win32 interface for Win NT & 2000
Gap handling : Appended to previous track

Used output format : User Defined Encoder
Selected bitrate : 768 kBit/s
Quality : High
Add ID3 tag : No
Command line compressor : C:\Program Files\Exact Audio Copy\FLAC\FLAC.EXE
Additional command line options : -6 -V -T "ARTIST=%a" -T "TITLE=%t" -T "ALBUM=%g" -T "DATE=%y" -T "TRACKNUMBER=%n" -T "GENRE=%m" -T "COMMENT=%e" %s -o %d


TOC of the extracted CD

Track | Start | Length | Start sector | End sector
––––––––––––––––––––––––––––-
1 | 0:00.33 | 4:20.00 | 33 | 19532
2 | 4:20.33 | 5:20.00 | 19533 | 43532
3 | 9:40.33 | 6:56.00 | 43533 | 74732
4 | 16:36.33 | 4:30.00 | 74733 | 94982
5 | 21:06.33 | 4:23.00 | 94983 | 114707
6 | 25:29.33 | 3:07.00 | 114708 | 128732
7 | 28:36.33 | 5:16.00 | 128733 | 152432
8 | 33:52.33 | 3:30.00 | 152433 | 168182
9 | 37:22.33 | 5:58.00 | 168183 | 195032
10 | 43:20.33 | 3:43.00 | 195033 | 211757
11 | 47:03.33 | 3:45.00 | 211758 | 228632
12 | 50:48.33 | 4:06.00 | 228633 | 247082
13 | 54:54.33 | 1:58.50 | 247083 | 255982


Track 1

Filename K:\New Rips\Roland Kirk - Rahsaan–Complete Mercury Recordings (1961) [FLAC]\disc 4\01 - This Is Always.wav

Pre-gap length 0:00:02.44

Peak level 69.7 %
Track quality 99.9 %
Test CRC 4354FE85
Copy CRC 4354FE85
Track not present in AccurateRip database
Copy OK

Track 2

Filename K:\New Rips\Roland Kirk - Rahsaan–Complete Mercury Recordings (1961) [FLAC]\disc 4\02 - Reeds And Deeds.wav

Pre-gap length 0:00:02.50

Peak level 100.0 %
Track quality 100.0 %
Test CRC 0C14F1CF
Copy CRC 0C14F1CF
Track not present in AccurateRip database
Copy OK

Track 3

Filename K:\New Rips\Roland Kirk - Rahsaan–Complete Mercury Recordings (1961) [FLAC]\disc 4\03 - Song Of The Countrymen.wav

Pre-gap length 0:00:01.84

Peak level 88.5 %
Track quality 100.0 %
Test CRC 915F99AE
Copy CRC 915F99AE
Track not present in AccurateRip database
Copy OK

Track 4

Filename K:\New Rips\Roland Kirk - Rahsaan–Complete Mercury Recordings (1961) [FLAC]\disc 4\04 - Ecclusiastics.wav

Pre-gap length 0:00:01.84

Peak level 100.0 %
Track quality 100.0 %
Test CRC 690E08FF
Copy CRC 690E08FF
Track not present in AccurateRip database
Copy OK

Track 5

Filename K:\New Rips\Roland Kirk - Rahsaan–Complete Mercury Recordings (1961) [FLAC]\disc 4\05 - By Myself.wav

Pre-gap length 0:00:02.17

Peak level 85.7 %
Track quality 99.9 %
Test CRC EAC4A68E
Copy CRC EAC4A68E
Track not present in AccurateRip database
Copy OK

Track 6

Filename K:\New Rips\Roland Kirk - Rahsaan–Complete Mercury Recordings (1961) [FLAC]\disc 4\06 - Roland Speaks.wav

Pre-gap length 0:00:02.33

Peak level 100.0 %
Track quality 100.0 %
Test CRC 254D46E4
Copy CRC 254D46E4
Track not present in AccurateRip database
Copy OK

Track 7

Filename K:\New Rips\Roland Kirk - Rahsaan–Complete Mercury Recordings (1961) [FLAC]\disc 4\07 - A Nightingale Sang In Berkeley Square.wav

Pre-gap length 0:00:02.84

Peak level 96.6 %
Track quality 100.0 %
Test CRC 75098857
Copy CRC 75098857
Track not present in AccurateRip database
Copy OK

Track 8

Filename K:\New Rips\Roland Kirk - Rahsaan–Complete Mercury Recordings (1961) [FLAC]\disc 4\08 - Variations On A Theme Of Hindemith.wav

Pre-gap length 0:00:02.33

Peak level 96.4 %
Track quality 100.0 %
Test CRC FC5C32DE
Copy CRC FC5C32DE
Track not present in AccurateRip database
Copy OK

Track 9

Filename K:\New Rips\Roland Kirk - Rahsaan–Complete Mercury Recordings (1961) [FLAC]\disc 4\09 - I've Got Your Number.wav

Pre-gap length 0:00:01.84

Peak level 92.6 %
Track quality 100.0 %
Test CRC 4C20C571
Copy CRC 4C20C571
Track not present in AccurateRip database
Copy OK

Track 10

Filename K:\New Rips\Roland Kirk - Rahsaan–Complete Mercury Recordings (1961) [FLAC]\disc 4\10 - Between The Fourth And The Fifth Step.wav

Pre-gap length 0:00:02.66

Peak level 100.0 %
Track quality 100.0 %
Test CRC 76860E01
Copy CRC 76860E01
Track not present in AccurateRip database
Copy OK

Track 11

Filename K:\New Rips\Roland Kirk - Rahsaan–Complete Mercury Recordings (1961) [FLAC]\disc 4\11 - April Morning.wav

Pre-gap length 0:00:01.33

Peak level 78.6 %
Track quality 99.9 %
Test CRC B216AA3F
Copy CRC B216AA3F
Track not present in AccurateRip database
Copy OK

Track 12

Filename K:\New Rips\Roland Kirk - Rahsaan–Complete Mercury Recordings (1961) [FLAC]\disc 4\12 - Get In The Basement.wav

Pre-gap length 0:00:02.00

Peak level 92.5 %
Track quality 100.0 %
Test CRC E4E8F159
Copy CRC E4E8F159
Track not present in AccurateRip database
Copy OK

Track 13

Filename K:\New Rips\Roland Kirk - Rahsaan–Complete Mercury Recordings (1961) [FLAC]\disc 4\13 - Abstract Improvisation.wav

Pre-gap length 0:00:02.50

Peak level 68.0 %
Track quality 100.0 %
Test CRC AA2F1439
Copy CRC AA2F1439
Track not present in AccurateRip database
Copy OK


None of the tracks are present in the AccurateRip database

No errors occurred

End of status report

Exact Audio Copy V0.99 prebeta 3 from 28. July 2007

EAC extraction logfile from 5. January 2008, 13:05

Roland Kirk / Rahsaan–Complete Mercury Recordings

Used drive : TSSTcorpDVD+-RW TS-H553A Adapter: 0 ID: 2

Read mode : Secure
Utilize accurate stream : Yes
Defeat audio cache : Yes
Make use of C2 pointers : No

Read offset correction : 6
Overread into Lead-In and Lead-Out : No
Fill up missing offset samples with silence : Yes
Delete leading and trailing silent blocks : No
Null samples used in CRC calculations : Yes
Used interface : Native Win32 interface for Win NT & 2000
Gap handling : Appended to previous track

Used output format : User Defined Encoder
Selected bitrate : 768 kBit/s
Quality : High
Add ID3 tag : No
Command line compressor : C:\Program Files\Exact Audio Copy\FLAC\FLAC.EXE
Additional command line options : -6 -V -T "ARTIST=%a" -T "TITLE=%t" -T "ALBUM=%g" -T "DATE=%y" -T "TRACKNUMBER=%n" -T "GENRE=%m" -T "COMMENT=%e" %s -o %d


TOC of the extracted CD

Track | Start | Length | Start sector | End sector
––––––––––––––––––––––––––––-
1 | 0:00.33 | 8:25.00 | 33 | 37907
2 | 8:25.33 | 6:43.37 | 37908 | 68169
3 | 15:08.70 | 5:50.38 | 68170 | 94457
4 | 20:59.33 | 5:56.62 | 94458 | 121219
5 | 26:56.20 | 7:14.63 | 121220 | 153832
6 | 34:11.08 | 7:47.00 | 153833 | 188857
7 | 41:58.08 | 4:41.12 | 188858 | 209944
8 | 46:39.20 | 6:17.50 | 209945 | 238269


Track 1

Filename K:\New Rips\Roland Kirk - Rahsaan–Complete Mercury Recordings (1961) [FLAC]\disc 5\01 - Narrow Bolero.wav

Pre-gap length 0:00:02.44

Peak level 64.0 %
Track quality 100.0 %
Test CRC 74A3C41F
Copy CRC 74A3C41F
Track not present in AccurateRip database
Copy OK

Track 2

Filename K:\New Rips\Roland Kirk - Rahsaan–Complete Mercury Recordings (1961) [FLAC]\disc 5\02 - Narrow Bolero.wav

Peak level 68.8 %
Track quality 100.0 %
Test CRC 17884A15
Copy CRC 17884A15
Track not present in AccurateRip database
Copy OK

Track 3

Filename K:\New Rips\Roland Kirk - Rahsaan–Complete Mercury Recordings (1961) [FLAC]\disc 5\03 - My Heart Stood Still.wav

Peak level 62.0 %
Track quality 100.0 %
Test CRC A432DF1B
Copy CRC A432DF1B
Track not present in AccurateRip database
Copy OK

Track 4

Filename K:\New Rips\Roland Kirk - Rahsaan–Complete Mercury Recordings (1961) [FLAC]\disc 5\04 - No Title No. 1.wav

Peak level 61.6 %
Track quality 100.0 %
Test CRC 58C1F25C
Copy CRC 58C1F25C
Track not present in AccurateRip database
Copy OK

Track 5

Filename K:\New Rips\Roland Kirk - Rahsaan–Complete Mercury Recordings (1961) [FLAC]\disc 5\05 - Mood Indigo.wav

Peak level 54.9 %
Track quality 100.0 %
Test CRC 3F468536
Copy CRC 3F468536
Track not present in AccurateRip database
Copy OK

Track 6

Filename K:\New Rips\Roland Kirk - Rahsaan–Complete Mercury Recordings (1961) [FLAC]\disc 5\06 - Cabin In The Sky.wav

Peak level 67.6 %
Track quality 100.0 %
Test CRC FDA22103
Copy CRC FDA22103
Track not present in AccurateRip database
Copy OK

Track 7

Filename K:\New Rips\Roland Kirk - Rahsaan–Complete Mercury Recordings (1961) [FLAC]\disc 5\07 - On The Corner Of King And Scott Streets.wav

Peak level 66.0 %
Track quality 100.0 %
Test CRC F1575AA7
Copy CRC F1575AA7
Track not present in AccurateRip database
Copy OK

Track 8

Filename K:\New Rips\Roland Kirk - Rahsaan–Complete Mercury Recordings (1961) [FLAC]\disc 5\08 - Untitled Blues.wav

Peak level 78.0 %
Track quality 100.0 %
Test CRC D193AB32
Copy CRC D193AB32
Track not present in AccurateRip database
Copy OK


None of the tracks are present in the AccurateRip database

No errors occurred

End of status report

Exact Audio Copy V0.99 prebeta 3 from 28. July 2007

EAC extraction logfile from 5. January 2008, 18:06

Roland Kirk / Rahsaan–Complete Mercury Recordings

Used drive : TSSTcorpDVD+-RW TS-H553A Adapter: 0 ID: 2

Read mode : Secure
Utilize accurate stream : Yes
Defeat audio cache : Yes
Make use of C2 pointers : No

Read offset correction : 6
Overread into Lead-In and Lead-Out : No
Fill up missing offset samples with silence : Yes
Delete leading and trailing silent blocks : No
Null samples used in CRC calculations : Yes
Used interface : Native Win32 interface for Win NT & 2000
Gap handling : Appended to previous track

Used output format : User Defined Encoder
Selected bitrate : 768 kBit/s
Quality : High
Add ID3 tag : No
Command line compressor : C:\Program Files\Exact Audio Copy\FLAC\FLAC.EXE
Additional command line options : -6 -V -T "ARTIST=%a" -T "TITLE=%t" -T "ALBUM=%g" -T "DATE=%y" -T "TRACKNUMBER=%n" -T "GENRE=%m" -T "COMMENT=%e" %s -o %d


TOC of the extracted CD

Track | Start | Length | Start sector | End sector
––––––––––––––––––––––––––––-
1 | 0:00.33 | 5:56.12 | 33 | 26744
2 | 5:56.45 | 8:40.25 | 26745 | 65769
3 | 14:36.70 | 3:54.13 | 65770 | 83332
4 | 18:31.08 | 5:21.62 | 83333 | 107469
5 | 23:52.70 | 8:38.50 | 107470 | 146369
6 | 32:31.45 | 6:52.63 | 146370 | 177332
7 | 39:24.33 | 12:35.00 | 177333 | 233957
8 | 51:59.33 | 4:54.00 | 233958 | 256007


Track 1

Filename K:\New Rips\Roland Kirk - Rahsaan–Complete Mercury Recordings (1961) [FLAC]\disc 6\01 - The Monkey Thing.wav

Pre-gap length 0:00:02.44

Peak level 75.7 %
Track quality 100.0 %
Test CRC BCC645BF
Copy CRC BCC645BF
Track not present in AccurateRip database
Copy OK

Track 2

Filename K:\New Rips\Roland Kirk - Rahsaan–Complete Mercury Recordings (1961) [FLAC]\disc 6\02 - Will You Still Be Mine.wav

Peak level 71.2 %
Track quality 99.9 %
Test CRC 4C115125
Copy CRC 4C115125
Track not present in AccurateRip database
Copy OK

Track 3

Filename K:\New Rips\Roland Kirk - Rahsaan–Complete Mercury Recordings (1961) [FLAC]\disc 6\03 - One For My Baby.wav

Peak level 58.5 %
Track quality 100.0 %
Test CRC E5E55248
Copy CRC E5E55248
Track not present in AccurateRip database
Copy OK

Track 4

Filename K:\New Rips\Roland Kirk - Rahsaan–Complete Mercury Recordings (1961) [FLAC]\disc 6\04 - We'll Be Together Again.wav

Peak level 50.8 %
Track quality 100.0 %
Test CRC CEDDDE06
Copy CRC CEDDDE06
Track not present in AccurateRip database
Copy OK

Track 5

Filename K:\New Rips\Roland Kirk - Rahsaan–Complete Mercury Recordings (1961) [FLAC]\disc 6\05 - Mingus-Griff Song.wav

Peak level 76.1 %
Track quality 99.9 %
Test CRC D6EF245B
Copy CRC D6EF245B
Track not present in AccurateRip database
Copy OK

Track 6

Filename K:\New Rips\Roland Kirk - Rahsaan–Complete Mercury Recordings (1961) [FLAC]\disc 6\06 - Mood Indigo.wav

Peak level 62.7 %
Track quality 100.0 %
Test CRC 702211C6
Copy CRC 702211C6
Track not present in AccurateRip database
Copy OK

Track 7

Filename K:\New Rips\Roland Kirk - Rahsaan–Complete Mercury Recordings (1961) [FLAC]\disc 6\07 - Medley- Rock-a-bye Baby,Nearness Of You,No Title No. 3.wav

Peak level 68.4 %
Track quality 100.0 %
Test CRC 29AED683
Copy CRC 29AED683
Track not present in AccurateRip database
Copy OK

Track 8

Filename K:\New Rips\Roland Kirk - Rahsaan–Complete Mercury Recordings (1961) [FLAC]\disc 6\08 - Half A Triple.wav

Peak level 67.6 %
Track quality 100.0 %
Test CRC 827C7612
Copy CRC 827C7612
Track not present in AccurateRip database
Copy OK


None of the tracks are present in the AccurateRip database

No errors occurred

End of status report

Exact Audio Copy V0.99 prebeta 3 from 28. July 2007

EAC extraction logfile from 6. January 2008, 12:40

Roland Kirk / Rahsaan–Complete Mercury Recordings

Used drive : TSSTcorpDVD+-RW TS-H553A Adapter: 0 ID: 2

Read mode : Secure
Utilize accurate stream : Yes
Defeat audio cache : Yes
Make use of C2 pointers : No

Read offset correction : 6
Overread into Lead-In and Lead-Out : No
Fill up missing offset samples with silence : Yes
Delete leading and trailing silent blocks : No
Null samples used in CRC calculations : Yes
Used interface : Native Win32 interface for Win NT & 2000
Gap handling : Appended to previous track

Used output format : User Defined Encoder
Selected bitrate : 768 kBit/s
Quality : High
Add ID3 tag : No
Command line compressor : C:\Program Files\Exact Audio Copy\FLAC\FLAC.EXE
Additional command line options : -6 -V -T "ARTIST=%a" -T "TITLE=%t" -T "ALBUM=%g" -T "DATE=%y" -T "TRACKNUMBER=%n" -T "GENRE=%m" -T "COMMENT=%e" %s -o %d


TOC of the extracted CD

Track | Start | Length | Start sector | End sector
––––––––––––––––––––––––––––-
1 | 0:00.33 | 3:05.00 | 33 | 13907
2 | 3:05.33 | 3:10.00 | 13908 | 28157
3 | 6:15.33 | 3:08.00 | 28158 | 42257
4 | 9:23.33 | 2:48.00 | 42258 | 54857
5 | 12:11.33 | 3:44.00 | 54858 | 71657
6 | 15:55.33 | 3:45.00 | 71658 | 88532
7 | 19:40.33 | 3:09.00 | 88533 | 102707
8 | 22:49.33 | 3:15.00 | 102708 | 117332
9 | 26:04.33 | 3:13.00 | 117333 | 131807
10 | 29:17.33 | 4:00.00 | 131808 | 149807
11 | 33:17.33 | 6:01.00 | 149808 | 176882
12 | 39:18.33 | 3:24.00 | 176883 | 192182
13 | 42:42.33 | 4:08.00 | 192183 | 210782
14 | 46:50.33 | 3:35.00 | 210783 | 226907
15 | 50:25.33 | 3:08.00 | 226908 | 241007
16 | 53:33.33 | 2:52.00 | 241008 | 253907
17 | 56:25.33 | 4:08.00 | 253908 | 272507
18 | 60:33.33 | 2:56.00 | 272508 | 285707


Track 1

Filename K:\New Rips\Roland Kirk - Rahsaan–Complete Mercury Recordings (1961) [FLAC]\disc 7\01 - Japan.wav

Pre-gap length 0:00:02.44

Peak level 96.4 %
Track quality 100.0 %
Test CRC C4F2131A
Copy CRC C4F2131A
Track not present in AccurateRip database
Copy OK

Track 2

Filename K:\New Rips\Roland Kirk - Rahsaan–Complete Mercury Recordings (1961) [FLAC]\disc 7\02 - Japan.wav

Pre-gap length 0:00:02.17

Peak level 96.4 %
Track quality 100.0 %
Test CRC 20B2E00E
Copy CRC 20B2E00E
Track not present in AccurateRip database
Copy OK

Track 3

Filename K:\New Rips\Roland Kirk - Rahsaan–Complete Mercury Recordings (1961) [FLAC]\disc 7\03 - Japan.wav

Pre-gap length 0:00:01.50

Peak level 94.2 %
Track quality 100.0 %
Test CRC 6F5F65B9
Copy CRC 6F5F65B9
Track not present in AccurateRip database
Copy OK

Track 4

Filename K:\New Rips\Roland Kirk - Rahsaan–Complete Mercury Recordings (1961) [FLAC]\disc 7\04 - Berkshire Blue.wav

Pre-gap length 0:00:02.50

Peak level 94.2 %
Track quality 99.9 %
Test CRC D0E79A8B
Copy CRC D0E79A8B
Track not present in AccurateRip database
Copy OK

Track 5

Filename K:\New Rips\Roland Kirk - Rahsaan–Complete Mercury Recordings (1961) [FLAC]\disc 7\05 - Dirty Money Blues.wav

Pre-gap length 0:00:02.17

Peak level 94.2 %
Track quality 100.0 %
Test CRC 12B93D96
Copy CRC 12B93D96
Track not present in AccurateRip database
Copy OK

Track 6

Filename K:\New Rips\Roland Kirk - Rahsaan–Complete Mercury Recordings (1961) [FLAC]\disc 7\06 - Dirty Money Blues.wav

Pre-gap length 0:00:01.84

Peak level 94.2 %
Track quality 100.0 %
Test CRC 60F97A86
Copy CRC 60F97A86
Track not present in AccurateRip database
Copy OK

Track 7

Filename K:\New Rips\Roland Kirk - Rahsaan–Complete Mercury Recordings (1961) [FLAC]\disc 7\07 - Ad Lib (Hip Chops).wav

Pre-gap length 0:00:01.17

Peak level 94.2 %
Track quality 100.0 %
Test CRC 8543E95A
Copy CRC 8543E95A
Track not present in AccurateRip database
Copy OK

Track 8

Filename K:\New Rips\Roland Kirk - Rahsaan–Complete Mercury Recordings (1961) [FLAC]\disc 7\08 - The Things I Love.wav

Pre-gap length 0:00:01.66

Peak level 84.7 %
Track quality 100.0 %
Test CRC C84E1CA3
Copy CRC C84E1CA3
Track not present in AccurateRip database
Copy OK

Track 9

Filename K:\New Rips\Roland Kirk - Rahsaan–Complete Mercury Recordings (1961) [FLAC]\disc 7\09 - Petite Fleur.wav

Pre-gap length 0:00:02.17

Peak level 82.9 %
Track quality 100.0 %
Test CRC E2225D28
Copy CRC E2225D28
Track not present in AccurateRip database
Copy OK

Track 10

Filename K:\New Rips\Roland Kirk - Rahsaan–Complete Mercury Recordings (1961) [FLAC]\disc 7\10 - March On, Swan Lake.wav

Pre-gap length 0:00:02.50

Peak level 81.7 %
Track quality 100.0 %
Test CRC A8323484
Copy CRC A8323484
Track not present in AccurateRip database
Copy OK

Track 11

Filename K:\New Rips\Roland Kirk - Rahsaan–Complete Mercury Recordings (1961) [FLAC]\disc 7\11 - Tears Sent By You.wav

Pre-gap length 0:00:02.50

Peak level 90.6 %
Track quality 100.0 %
Test CRC CC395B4F
Copy CRC CC395B4F
Track not present in AccurateRip database
Copy OK

Track 12

Filename K:\New Rips\Roland Kirk - Rahsaan–Complete Mercury Recordings (1961) [FLAC]\disc 7\12 - My Heart At Thy Sweet Voice.wav

Pre-gap length 0:00:02.00

Peak level 72.7 %
Track quality 100.0 %
Test CRC 8FD7A1ED
Copy CRC 8FD7A1ED
Track not present in AccurateRip database
Copy OK

Track 13

Filename K:\New Rips\Roland Kirk - Rahsaan–Complete Mercury Recordings (1961) [FLAC]\disc 7\13 - Gifts And Messages.wav

Pre-gap length 0:00:02.66

Peak level 91.7 %
Track quality 100.0 %
Test CRC E63C1F65
Copy CRC E63C1F65
Track not present in AccurateRip database
Copy OK

Track 14

Filename K:\New Rips\Roland Kirk - Rahsaan–Complete Mercury Recordings (1961) [FLAC]\disc 7\14 - Hip Chops.wav

Pre-gap length 0:00:02.00

Peak level 82.3 %
Track quality 100.0 %
Test CRC 59C0DD2E
Copy CRC 59C0DD2E
Track not present in AccurateRip database
Copy OK

Track 15

Filename K:\New Rips\Roland Kirk - Rahsaan–Complete Mercury Recordings (1961) [FLAC]\disc 7\15 - Blues For C & T.wav

Pre-gap length 0:00:01.50

Peak level 86.0 %
Track quality 100.0 %
Test CRC EBD256FD
Copy CRC EBD256FD
Track not present in AccurateRip database
Copy OK

Track 16

Filename K:\New Rips\Roland Kirk - Rahsaan–Complete Mercury Recordings (1961) [FLAC]\disc 7\16 - Where Does The Blame Lie.wav

Pre-gap length 0:00:01.33

Peak level 88.5 %
Track quality 99.9 %
Test CRC 628CC13F
Copy CRC 628CC13F
Track not present in AccurateRip database
Copy OK

Track 17

Filename K:\New Rips\Roland Kirk - Rahsaan–Complete Mercury Recordings (1961) [FLAC]\disc 7\17 - Vertigo Ro.wav

Pre-gap length 0:00:02.17

Peak level 81.8 %
Track quality 100.0 %
Test CRC 547C3904
Copy CRC 547C3904
Track not present in AccurateRip database
Copy OK

Track 18

Filename K:\New Rips\Roland Kirk - Rahsaan–Complete Mercury Recordings (1961) [FLAC]\disc 7\18 - Jive Elephant.wav

Pre-gap length 0:00:01.00

Peak level 86.7 %
Track quality 99.9 %
Test CRC 40A36141
Copy CRC 40A36141
Track not present in AccurateRip database
Copy OK


None of the tracks are present in the AccurateRip database

No errors occurred

End of status report

Exact Audio Copy V0.99 prebeta 3 from 28. July 2007

EAC extraction logfile from 6. January 2008, 19:19

Roland Kirk / Rahsaan–Complete Mercury Recordings

Used drive : TSSTcorpDVD+-RW TS-H553A Adapter: 0 ID: 2

Read mode : Secure
Utilize accurate stream : Yes
Defeat audio cache : Yes
Make use of C2 pointers : No

Read offset correction : 6
Overread into Lead-In and Lead-Out : No
Fill up missing offset samples with silence : Yes
Delete leading and trailing silent blocks : No
Null samples used in CRC calculations : Yes
Used interface : Native Win32 interface for Win NT & 2000
Gap handling : Appended to previous track

Used output format : User Defined Encoder
Selected bitrate : 768 kBit/s
Quality : High
Add ID3 tag : No
Command line compressor : C:\Program Files\Exact Audio Copy\FLAC\FLAC.EXE
Additional command line options : -6 -V -T "ARTIST=%a" -T "TITLE=%t" -T "ALBUM=%g" -T "DATE=%y" -T "TRACKNUMBER=%n" -T "GENRE=%m" -T "COMMENT=%e" %s -o %d


TOC of the extracted CD

Track | Start | Length | Start sector | End sector
––––––––––––––––––––––––––––-
1 | 0:00.33 | 3:57.00 | 33 | 17807
2 | 3:57.33 | 4:35.00 | 17808 | 38432
3 | 8:32.33 | 4:42.00 | 38433 | 59582
4 | 13:14.33 | 1:19.00 | 59583 | 65507
5 | 14:33.33 | 6:23.00 | 65508 | 94232
6 | 20:56.33 | 0:44.00 | 94233 | 97532
7 | 21:40.33 | 4:51.00 | 97533 | 119357
8 | 26:31.33 | 5:06.00 | 119358 | 142307
9 | 31:37.33 | 4:26.00 | 142308 | 162257
10 | 36:03.33 | 5:02.62 | 162258 | 184969


Track 1

Filename K:\New Rips\Roland Kirk - Rahsaan–Complete Mercury Recordings (1961) [FLAC]\disc 8\01 - I Talk With The Spirits.wav

Pre-gap length 0:00:02.44

Peak level 64.9 %
Track quality 100.0 %
Test CRC 06752656
Copy CRC 06752656
Track not present in AccurateRip database
Copy OK

Track 2

Filename K:\New Rips\Roland Kirk - Rahsaan–Complete Mercury Recordings (1961) [FLAC]\disc 8\02 - Serenade To A Cuckoo.wav

Pre-gap length 0:00:01.66

Peak level 81.2 %
Track quality 100.0 %
Test CRC F727A030
Copy CRC F727A030
Track not present in AccurateRip database
Copy OK

Track 3

Filename K:\New Rips\Roland Kirk - Rahsaan–Complete Mercury Recordings (1961) [FLAC]\disc 8\03 - Medley- We'll Be Together Again,People From Funny Girl.wav

Pre-gap length 0:00:01.84

Peak level 84.5 %
Track quality 100.0 %
Test CRC 78D785BF
Copy CRC 78D785BF
Track not present in AccurateRip database
Copy OK

Track 4

Filename K:\New Rips\Roland Kirk - Rahsaan–Complete Mercury Recordings (1961) [FLAC]\disc 8\04 - Ruined Castles.wav

Pre-gap length 0:00:01.33

Peak level 88.7 %
Track quality 99.8 %
Test CRC D89A5B90
Copy CRC D89A5B90
Track not present in AccurateRip database
Copy OK

Track 5

Filename K:\New Rips\Roland Kirk - Rahsaan–Complete Mercury Recordings (1961) [FLAC]\disc 8\05 - Trees.wav

Pre-gap length 0:00:01.50

Peak level 85.5 %
Track quality 100.0 %
Test CRC 388B5FBA
Copy CRC 388B5FBA
Track not present in AccurateRip database
Copy OK

Track 6

Filename K:\New Rips\Roland Kirk - Rahsaan–Complete Mercury Recordings (1961) [FLAC]\disc 8\06 - Fugue'n And Alludin'.wav

Pre-gap length 0:00:01.66

Peak level 75.8 %
Track quality 100.0 %
Test CRC 541B524B
Copy CRC 541B524B
Track not present in AccurateRip database
Copy OK

Track 7

Filename K:\New Rips\Roland Kirk - Rahsaan–Complete Mercury Recordings (1961) [FLAC]\disc 8\07 - Django.wav

Pre-gap length 0:00:01.84

Peak level 64.3 %
Track quality 100.0 %
Test CRC F0B1A712
Copy CRC F0B1A712
Track not present in AccurateRip database
Copy OK

Track 8

Filename K:\New Rips\Roland Kirk - Rahsaan–Complete Mercury Recordings (1961) [FLAC]\disc 8\08 - My Ship.wav

Pre-gap length 0:00:00.84

Peak level 81.7 %
Track quality 100.0 %
Test CRC 8D3F749C
Copy CRC 8D3F749C
Track not present in AccurateRip database
Copy OK

Track 9

Filename K:\New Rips\Roland Kirk - Rahsaan–Complete Mercury Recordings (1961) [FLAC]\disc 8\09 - A Quote From Clifford Brown.wav

Pre-gap length 0:00:01.33

Peak level 91.8 %
Track quality 100.0 %
Test CRC 247BB69A
Copy CRC 247BB69A
Track not present in AccurateRip database
Copy OK

Track 10

Filename K:\New Rips\Roland Kirk - Rahsaan–Complete Mercury Recordings (1961) [FLAC]\disc 8\10 - The Business Ain't Nothin' But The Blues.wav

Pre-gap length 0:00:02.17

Peak level 94.6 %
Track quality 99.9 %
Test CRC 43E03052
Copy CRC 43E03052
Track not present in AccurateRip database
Copy OK


None of the tracks are present in the AccurateRip database

No errors occurred

End of status report

Exact Audio Copy V0.99 prebeta 3 from 28. July 2007

EAC extraction logfile from 7. January 2008, 7:23

Roland Kirk / Rahsaan–Complete Mercury Recordings

Used drive : TSSTcorpDVD+-RW TS-H553A Adapter: 0 ID: 2

Read mode : Secure
Utilize accurate stream : Yes
Defeat audio cache : Yes
Make use of C2 pointers : No

Read offset correction : 6
Overread into Lead-In and Lead-Out : No
Fill up missing offset samples with silence : Yes
Delete leading and trailing silent blocks : No
Null samples used in CRC calculations : Yes
Used interface : Native Win32 interface for Win NT & 2000
Gap handling : Appended to previous track

Used output format : User Defined Encoder
Selected bitrate : 768 kBit/s
Quality : High
Add ID3 tag : No
Command line compressor : C:\Program Files\Exact Audio Copy\FLAC\FLAC.EXE
Additional command line options : -6 -V -T "ARTIST=%a" -T "TITLE=%t" -T "ALBUM=%g" -T "DATE=%y" -T "TRACKNUMBER=%n" -T "GENRE=%m" -T "COMMENT=%e" %s -o %d


TOC of the extracted CD

Track | Start | Length | Start sector | End sector
––––––––––––––––––––––––––––-
1 | 0:00.33 | 4:35.00 | 33 | 20657
2 | 4:35.33 | 6:32.00 | 20658 | 50057
3 | 11:07.33 | 4:58.00 | 50058 | 72407
4 | 16:05.33 | 5:24.00 | 72408 | 96707
5 | 21:29.33 | 7:01.00 | 96708 | 128282
6 | 28:30.33 | 4:02.00 | 128283 | 146432
7 | 32:32.33 | 2:40.00 | 146433 | 158432
8 | 35:12.33 | 2:35.00 | 158433 | 170057
9 | 37:47.33 | 5:28.00 | 170058 | 194657
10 | 43:15.33 | 2:40.00 | 194658 | 206657
11 | 45:55.33 | 8:27.62 | 206658 | 244744
12 | 54:23.20 | 3:10.00 | 244745 | 258994
13 | 57:33.20 | 3:39.13 | 258995 | 275432
14 | 61:12.33 | 4:33.00 | 275433 | 295907
15 | 65:45.33 | 5:24.00 | 295908 | 320207
16 | 71:09.33 | 3:03.62 | 320208 | 333994


Track 1

Filename K:\New Rips\Roland Kirk - Rahsaan–Complete Mercury Recordings (1961) [FLAC]\disc 9\01 - No Tonic Press.wav

Pre-gap length 0:00:02.44

Peak level 96.5 %
Track quality 99.9 %
Test CRC CC148FEA
Copy CRC CC148FEA
Track not present in AccurateRip database
Copy OK

Track 2

Filename K:\New Rips\Roland Kirk - Rahsaan–Complete Mercury Recordings (1961) [FLAC]\disc 9\02 - From Bechet, Fats and Byas.wav

Pre-gap length 0:00:02.50

Peak level 89.2 %
Track quality 99.9 %
Test CRC 9ADAA630
Copy CRC 9ADAA630
Track not present in AccurateRip database
Copy OK

Track 3

Filename K:\New Rips\Roland Kirk - Rahsaan–Complete Mercury Recordings (1961) [FLAC]\disc 9\03 - Slippery, Hippery, Flippery.wav

Pre-gap length 0:00:02.33

Peak level 81.9 %
Track quality 100.0 %
Test CRC D29BE4BD
Copy CRC D29BE4BD
Track not present in AccurateRip database
Copy OK

Track 4

Filename K:\New Rips\Roland Kirk - Rahsaan–Complete Mercury Recordings (1961) [FLAC]\disc 9\04 - Black Diamond.wav

Pre-gap length 0:00:02.00

Peak level 79.8 %
Track quality 100.0 %
Test CRC D4BC31F5
Copy CRC D4BC31F5
Track not present in AccurateRip database
Copy OK

Track 5

Filename K:\New Rips\Roland Kirk - Rahsaan–Complete Mercury Recordings (1961) [FLAC]\disc 9\05 - Rip, Rig And Panic.wav

Pre-gap length 0:00:02.00

Peak level 89.9 %
Track quality 99.9 %
Test CRC 0AE9AC44
Copy CRC 0AE9AC44
Track not present in AccurateRip database
Copy OK

Track 6

Filename K:\New Rips\Roland Kirk - Rahsaan–Complete Mercury Recordings (1961) [FLAC]\disc 9\06 - Once In A While.wav

Pre-gap length 0:00:02.00

Peak level 89.0 %
Track quality 100.0 %
Test CRC 9F27B529
Copy CRC 9F27B529
Track not present in AccurateRip database
Copy OK

Track 7

Filename K:\New Rips\Roland Kirk - Rahsaan–Complete Mercury Recordings (1961) [FLAC]\disc 9\07 - Mystical Dream.wav

Pre-gap length 0:00:01.50

Peak level 75.9 %
Track quality 100.0 %
Test CRC 2B2E6E24
Copy CRC 2B2E6E24
Track not present in AccurateRip database
Copy OK

Track 8

Filename K:\New Rips\Roland Kirk - Rahsaan–Complete Mercury Recordings (1961) [FLAC]\disc 9\08 - Walk On By.wav

Pre-gap length 0:00:02.50

Peak level 86.0 %
Track quality 100.0 %
Test CRC 99C0E407
Copy CRC 99C0E407
Track not present in AccurateRip database
Copy OK

Track 9

Filename K:\New Rips\Roland Kirk - Rahsaan–Complete Mercury Recordings (1961) [FLAC]\disc 9\09 - Juarez.wav

Pre-gap length 0:00:02.33

Peak level 86.1 %
Track quality 100.0 %
Test CRC E69C0C2C
Copy CRC E69C0C2C
Track not present in AccurateRip database
Copy OK

Track 10

Filename K:\New Rips\Roland Kirk - Rahsaan–Complete Mercury Recordings (1961) [FLAC]\disc 9\10 - Shakey Money.wav

Pre-gap length 0:00:01.50

Peak level 86.2 %
Track quality 100.0 %
Test CRC 24773B89
Copy CRC 24773B89
Track not present in AccurateRip database
Copy OK

Track 11

Filename K:\New Rips\Roland Kirk - Rahsaan–Complete Mercury Recordings (1961) [FLAC]\disc 9\11 - Ebrauqs.wav

Pre-gap length 0:00:02.17

Peak level 88.5 %
Track quality 100.0 %
Test CRC E5677442
Copy CRC E5677442
Track not present in AccurateRip database
Copy OK

Track 12

Filename K:\New Rips\Roland Kirk - Rahsaan–Complete Mercury Recordings (1961) [FLAC]\disc 9\12 - Raouf.wav

Pre-gap length 0:00:01.33

Peak level 84.0 %
Track quality 100.0 %
Test CRC 657F8945
Copy CRC 657F8945
Track not present in AccurateRip database
Copy OK

Track 13

Filename K:\New Rips\Roland Kirk - Rahsaan–Complete Mercury Recordings (1961) [FLAC]\disc 9\13 - Nothing But The Truth.wav

Pre-gap length 0:00:02.16

Peak level 83.0 %
Track quality 99.9 %
Test CRC 9A6FC6C6
Copy CRC 9A6FC6C6
Track not present in AccurateRip database
Copy OK

Track 14

Filename K:\New Rips\Roland Kirk - Rahsaan–Complete Mercury Recordings (1961) [FLAC]\disc 9\14 - Safari.wav

Pre-gap length 0:00:02.00

Peak level 74.4 %
Track quality 100.0 %
Test CRC DC3FACF6
Copy CRC DC3FACF6
Track not present in AccurateRip database
Copy OK

Track 15

Filename K:\New Rips\Roland Kirk - Rahsaan–Complete Mercury Recordings (1961) [FLAC]\disc 9\15 - It's All In The Game.wav

Pre-gap length 0:00:01.17

Peak level 97.2 %
Track quality 100.0 %
Test CRC 64D3E972
Copy CRC 64D3E972
Track not present in AccurateRip database
Copy OK

Track 16

Filename K:\New Rips\Roland Kirk - Rahsaan–Complete Mercury Recordings (1961) [FLAC]\disc 9\16 - And I Love Her.wav

Pre-gap length 0:00:02.17

Peak level 98.7 %
Track quality 100.0 %
Test CRC 324C28C3
Copy CRC 324C28C3
Track not present in AccurateRip database
Copy OK


None of the tracks are present in the AccurateRip database

No errors occurred

End of status report

Exact Audio Copy V0.99 prebeta 3 from 28. July 2007

EAC extraction logfile from 7. January 2008, 18:37

Roland Kirk / Rahsaan–Complete Mercury Recordings

Used drive : TSSTcorpDVD+-RW TS-H553A Adapter: 0 ID: 2

Read mode : Secure
Utilize accurate stream : Yes
Defeat audio cache : Yes
Make use of C2 pointers : No

Read offset correction : 6
Overread into Lead-In and Lead-Out : No
Fill up missing offset samples with silence : Yes
Delete leading and trailing silent blocks : No
Null samples used in CRC calculations : Yes
Used interface : Native Win32 interface for Win NT & 2000
Gap handling : Appended to previous track

Used output format : User Defined Encoder
Selected bitrate : 768 kBit/s
Quality : High
Add ID3 tag : No
Command line compressor : C:\Program Files\Exact Audio Copy\FLAC\FLAC.EXE
Additional command line options : -6 -V -T "ARTIST=%a" -T "TITLE=%t" -T "ALBUM=%g" -T "DATE=%y" -T "TRACKNUMBER=%n" -T "GENRE=%m" -T "COMMENT=%e" %s -o %d


TOC of the extracted CD

Track | Start | Length | Start sector | End sector
––––––––––––––––––––––––––––-
1 | 0:00.33 | 2:37.00 | 33 | 11807
2 | 2:37.33 | 2:38.00 | 11808 | 23657
3 | 5:15.33 | 2:49.00 | 23658 | 36332
4 | 8:04.33 | 2:47.00 | 36333 | 48857
5 | 10:51.33 | 2:48.00 | 48858 | 61457
6 | 13:39.33 | 2:37.00 | 61458 | 73232
7 | 16:16.33 | 3:53.00 | 73233 | 90707
8 | 20:09.33 | 2:56.00 | 90708 | 103907
9 | 23:05.33 | 3:18.00 | 103908 | 118757
10 | 26:23.33 | 3:01.00 | 118758 | 132332
11 | 29:24.33 | 5:06.00 | 132333 | 155282
12 | 34:30.33 | 5:05.12 | 155283 | 178169


Track 1

Filename K:\New Rips\Roland Kirk - Rahsaan–Complete Mercury Recordings (1961) [FLAC]\disc 10\01 - A Taste Of Honey.wav

Pre-gap length 0:00:02.44

Peak level 99.7 %
Track quality 100.0 %
Test CRC 1A02A10B
Copy CRC 1A02A10B
Track not present in AccurateRip database
Copy OK

Track 2

Filename K:\New Rips\Roland Kirk - Rahsaan–Complete Mercury Recordings (1961) [FLAC]\disc 10\02 - Dyna-Soar.wav

Pre-gap length 0:00:01.84

Peak level 95.4 %
Track quality 100.0 %
Test CRC FD3F55E3
Copy CRC FD3F55E3
Track not present in AccurateRip database
Copy OK

Track 3

Filename K:\New Rips\Roland Kirk - Rahsaan–Complete Mercury Recordings (1961) [FLAC]\disc 10\03 - Soul Bossa Nova.wav

Pre-gap length 0:00:01.50

Peak level 89.8 %
Track quality 99.9 %
Test CRC 00EBD186
Copy CRC 00EBD186
Track not present in AccurateRip database
Copy OK

Track 4

Filename K:\New Rips\Roland Kirk - Rahsaan–Complete Mercury Recordings (1961) [FLAC]\disc 10\04 - Comin' Home Baby.wav

Pre-gap length 0:00:02.00

Peak level 96.9 %
Track quality 100.0 %
Test CRC 5D73A51C
Copy CRC 5D73A51C
Track not present in AccurateRip database
Copy OK

Track 5

Filename K:\New Rips\Roland Kirk - Rahsaan–Complete Mercury Recordings (1961) [FLAC]\disc 10\05 - Days Of Wine And Roses.wav

Pre-gap length 0:00:01.33

Peak level 81.7 %
Track quality 99.9 %
Test CRC FE929697
Copy CRC FE929697
Track not present in AccurateRip database
Copy OK

Track 6

Filename K:\New Rips\Roland Kirk - Rahsaan–Complete Mercury Recordings (1961) [FLAC]\disc 10\06 - Moon River.wav

Pre-gap length 0:00:02.33

Peak level 86.9 %
Track quality 100.0 %
Test CRC 96431B42
Copy CRC 96431B42
Track not present in AccurateRip database
Copy OK

Track 7

Filename K:\New Rips\Roland Kirk - Rahsaan–Complete Mercury Recordings (1961) [FLAC]\disc 10\07 - Dreamsville.wav

Pre-gap length 0:00:02.50

Peak level 81.1 %
Track quality 100.0 %
Test CRC 41AAE596
Copy CRC 41AAE596
Track not present in AccurateRip database
Copy OK

Track 8

Filename K:\New Rips\Roland Kirk - Rahsaan–Complete Mercury Recordings (1961) [FLAC]\disc 10\08 - (I Love You) And Don't You Forget It.wav

Pre-gap length 0:00:02.17

Peak level 87.7 %
Track quality 99.9 %
Test CRC 35FE23D5
Copy CRC 35FE23D5
Track not present in AccurateRip database
Copy OK

Track 9

Filename K:\New Rips\Roland Kirk - Rahsaan–Complete Mercury Recordings (1961) [FLAC]\disc 10\09 - Charade.wav

Pre-gap length 0:00:02.00

Peak level 82.4 %
Track quality 100.0 %
Test CRC 20C381EA
Copy CRC 20C381EA
Track not present in AccurateRip database
Copy OK

Track 10

Filename K:\New Rips\Roland Kirk - Rahsaan–Complete Mercury Recordings (1961) [FLAC]\disc 10\10 - Peter Gunn.wav

Pre-gap length 0:00:00.33

Peak level 78.8 %
Track quality 99.9 %
Test CRC 8D380433
Copy CRC 8D380433
Track not present in AccurateRip database
Copy OK

Track 11

Filename K:\New Rips\Roland Kirk - Rahsaan–Complete Mercury Recordings (1961) [FLAC]\disc 10\11 - I Had A Ball.wav

Pre-gap length 0:00:02.33

Peak level 84.8 %
Track quality 100.0 %
Test CRC 97C9E80C
Copy CRC 97C9E80C
Track not present in AccurateRip database
Copy OK

Track 12

Filename K:\New Rips\Roland Kirk - Rahsaan–Complete Mercury Recordings (1961) [FLAC]\disc 10\12 - Addie's At It Again.wav

Pre-gap length 0:00:01.50

Peak level 76.6 %
Track quality 99.9 %
Test CRC A4A9C568
Copy CRC A4A9C568
Track not present in AccurateRip database
Copy OK


None of the tracks are present in the AccurateRip database

No errors occurred

End of status report

Exact Audio Copy V0.99 prebeta 3 from 28. July 2007

EAC extraction logfile from 7. January 2008, 18:54

Roland Kirk / Rahsaan–Complete Mercury Recordings

Used drive : TSSTcorpDVD+-RW TS-H553A Adapter: 0 ID: 2

Read mode : Secure
Utilize accurate stream : Yes
Defeat audio cache : Yes
Make use of C2 pointers : No

Read offset correction : 6
Overread into Lead-In and Lead-Out : No
Fill up missing offset samples with silence : Yes
Delete leading and trailing silent blocks : No
Null samples used in CRC calculations : Yes
Used interface : Native Win32 interface for Win NT & 2000
Gap handling : Appended to previous track

Used output format : User Defined Encoder
Selected bitrate : 768 kBit/s
Quality : High
Add ID3 tag : No
Command line compressor : C:\Program Files\Exact Audio Copy\FLAC\FLAC.EXE
Additional command line options : -6 -V -T "ARTIST=%a" -T "TITLE=%t" -T "ALBUM=%g" -T "DATE=%y" -T "TRACKNUMBER=%n" -T "GENRE=%m" -T "COMMENT=%e" %s -o %d


TOC of the extracted CD

Track | Start | Length | Start sector | End sector
––––––––––––––––––––––––––––-
1 | 0:00.33 | 7:05.62 | 33 | 31969


Track 1

Filename K:\New Rips\Roland Kirk - Rahsaan–Complete Mercury Recordings (1961) [FLAC]\disc 11\01 - A Stritch In Time.wav

Pre-gap length 0:00:02.44

Peak level 86.4 %
Track quality 100.0 %
Test CRC A3BE0DEF
Copy CRC A3BE0DEF
Track not present in AccurateRip database
Copy OK


None of the tracks are present in the AccurateRip database

No errors occurred

End of status report

"Rahsaan" Roland Kirk - The Complete Mercury Recordings Of [11CD] (1990)

[CUETools log; Date: 11.01.2012 17:21:28; Version: 2.0.9]
Pregap length 00:00:33.
[CTDB TOCID: aLRNuXJcF4zRIJt.Aihki9ct418-] found.
[ CTDBID ] Status
[8d011b98] (6/6) Accurately ripped
[AccurateRip ID: 001453e4-00af53c9-8e0b190b] found.
Track [ CRC ] Status
01 [53d53eea] (7/7) Accurately ripped
02 [14fe59e7] (7/7) Accurately ripped
03 [27f78678] (6/6) Accurately ripped
04 [bca3f9c1] (7/7) Accurately ripped
05 [85c0f2f7] (6/6) Accurately ripped
06 [56caa63f] (7/7) Accurately ripped
07 [e63788d2] (7/7) Accurately ripped
08 [eaa8939c] (7/7) Accurately ripped
09 [485f142c] (7/7) Accurately ripped
10 [784df492] (7/7) Accurately ripped
11 [d2dd4ec5] (7/7) Accurately ripped

Track Peak [ CRC32 ] [W/O NULL] [ LOG ]
– 97,3 [E9EA1329] [7E60ABA0]
01 97,3 [99508458] [338B6566] CRC32
02 91,4 [DC6D8553] [E8348748] CRC32
03 63,9 [A8DF6A92] [DE492EE3] CRC32
04 62,6 [ECC6E4A7] [23C8C107] CRC32
05 74,9 [F8D3ACB2] [5BC12239] CRC32
06 76,8 [3E63DE02] [E53833EE] CRC32
07 75,9 [47F785A9] [1994D6EB] CRC32
08 80,3 [CC8D7869] [783E0B8C] CRC32
09 91,4 [C9BBD94F] [49F28D17] CRC32
10 77,1 [45A3CB84] [0D1ABDCB] CRC32
11 69,6 [8504872A] [F109E93E] CRC32

[CUETools log; Date: 11.01.2012 17:22:52; Version: 2.0.9]
Pregap length 00:00:33.
[CTDB TOCID: OyLOdXFBFYRs5BsGBjHsQnkw_So-] found.
[ CTDBID ] Status
[914667e1] (6/6) Accurately ripped
[AccurateRip ID: 0025e4f8-01cc265a-d310d210] found.
Track [ CRC ] Status
01 [2076111b] (7/7) Accurately ripped
02 [8793fc54] (7/7) Accurately ripped
03 [e01b67c3] (6/6) Accurately ripped
04 [8d34123b] (6/6) Accurately ripped
05 [7cdacd5a] (7/7) Accurately ripped
06 [13e93714] (7/7) Accurately ripped
07 [a43dfac4] (7/7) Accurately ripped
08 [655fddfa] (7/7) Accurately ripped
09 [c31058b3] (7/7) Accurately ripped
10 [a7a9a912] (7/7) Accurately ripped
11 [3caddb2c] (7/7) Accurately ripped
12 [2759118d] (7/7) Accurately ripped
13 [6e77d836] (7/7) Accurately ripped
14 [ea21a320] (7/7) Accurately ripped
15 [6966bad9] (7/7) Accurately ripped
16 [c5dc4a82] (7/7) Accurately ripped

Track Peak [ CRC32 ] [W/O NULL] [ LOG ]
– 100,0 [2D496C19] [D22CC3ED]
01 70,8 [09852093] [0339415C] CRC32
02 80,8 [10084579] [AC7F16C8] CRC32
03 73,5 [2ADCB84F] [E9955524] CRC32
04 74,5 [5DE97D27] [CBA354CE] CRC32
05 79,8 [70E4CEA8] [CA08A342] CRC32
06 89,5 [1968179C] [2D232415] CRC32
07 89,8 [4E821066] [4E9FA054] CRC32
08 77,6 [DE004E67] [7CD7D6C0] CRC32
09 95,1 [2D492CCA] [35878601] CRC32
10 100,0 [90628993] [702F36C1] CRC32
11 86,5 [04269515] [EFE071DE] CRC32
12 85,8 [2BE7121C] [9B4F49D2] CRC32
13 100,0 [8E8C71FE] [E9E52738] CRC32
14 78,0 [3630BB89] [9C22A7B0] CRC32
15 72,2 [DA7C96EA] [5AAAC714] CRC32
16 82,6 [8AFDD502] [6C8CB5E7] CRC32

[CUETools log; Date: 11.01.2012 17:23:47; Version: 2.0.9]
Pregap length 00:00:33.
[CTDB TOCID: 8xsk8ygGUVbpv2I9duyJevMc5K8-] found.
[ CTDBID ] Status
[54f7fe40] (6/6) Accurately ripped
[AccurateRip ID: 0014a11d-00c3bda8-840b3a0c] found.
Track [ CRC ] Status
01 [9b699b34] (6/6) Accurately ripped
02 [5548781a] (7/7) Accurately ripped
03 [a2d48c21] (7/7) Accurately ripped
04 [18610a56] (7/7) Accurately ripped
05 [ef97405a] (7/7) Accurately ripped
06 [05430dad] (6/6) Accurately ripped
07 [c408faf3] (7/7) Accurately ripped
08 [6c575294] (7/7) Accurately ripped
09 [0e079650] (7/7) Accurately ripped
10 [51d5a30a] (7/7) Accurately ripped
11 [5bda7fcd] (7/7) Accurately ripped
12 [71e79f22] (7/7) Accurately ripped

Track Peak [ CRC32 ] [W/O NULL] [ LOG ]
– 96,7 [342A2EEF] [9DC90AD1]
01 80,6 [F6D9CB5F] [0E07349C] CRC32
02 64,1 [0A6E00AB] [FC8C1587] CRC32
03 45,7 [DA95EB28] [A5472155] CRC32
04 79,0 [DA792169] [16D8FCC5] CRC32
05 62,6 [8D98C7F0] [E935BD76] CRC32
06 90,8 [B6BB28EA] [5A24A41E] CRC32
07 78,1 [F101F0C2] [281ED5ED] CRC32
08 93,3 [472B1F35] [55ECFC39] CRC32
09 79,1 [53011D5D] [7277056C] CRC32
10 83,2 [6ACF618B] [DE44FC3C] CRC32
11 96,7 [1C559AE3] [4CE32961] CRC32
12 84,0 [24D53AF0] [D640EE6E] CRC32

[CUETools log; Date: 11.01.2012 17:24:45; Version: 2.0.9]
Pregap length 00:00:33.
[CTDB TOCID: KrHZv0YhZs_bVVYhPD7W5rZcoR4-] found.
[ CTDBID ] Status
[a3779730] (6/6) Accurately ripped
[AccurateRip ID: 001d8802-01233754-ad0d550d] found.
Track [ CRC ] Status
01 [1aca1bc6] (7/7) Accurately ripped
02 [310e1d8c] (7/7) Accurately ripped
03 [67048240] (7/7) Accurately ripped
04 [e981598a] (6/6) Accurately ripped
05 [5df20672] (7/7) Accurately ripped
06 [e67ea09f] (7/7) Accurately ripped
07 [167116f7] (7/7) Accurately ripped
08 [e085cb70] (7/7) Accurately ripped
09 [b63b117f] (7/7) Accurately ripped
10 [f157be31] (7/7) Accurately ripped
11 [f3cac775] (7/7) Accurately ripped
12 [64adf46c] (7/7) Accurately ripped
13 [ca6a1172] (7/7) Accurately ripped

Track Peak [ CRC32 ] [W/O NULL] [ LOG ]
– 100,0 [64452F5B] [E149988F]
01 69,6 [4354FE85] [94F3CF95] CRC32
02 100,0 [0C14F1CF] [A824A504] CRC32
03 88,5 [915F99AE] [92A4B273] CRC32
04 100,0 [690E08FF] [5CECBDA3] CRC32
05 85,7 [EAC4A68E] [D674528B] CRC32
06 100,0 [254D46E4] [A97C209F] CRC32
07 96,6 [75098857] [5267F6B6] CRC32
08 96,4 [FC5C32DE] [C499A3B3] CRC32
09 92,6 [4C20C571] [B2A2E10F] CRC32
10 100,0 [76860E01] [C504D9E0] CRC32
11 78,6 [B216AA3F] [65FCB07F] CRC32
12 92,5 [E4E8F159] [3A0C9491] CRC32
13 68,0 [AA2F1439] [E0843DCC] CRC32

[CUETools log; Date: 11.01.2012 17:25:44; Version: 2.0.9]
Pregap length 00:00:33.
[CTDB TOCID: WsuxTfYfzKk9pT2ldgwOckEzfGQ-] found.
[ CTDBID ] Status
[cd2976a2] (7/7) Accurately ripped
[AccurateRip ID: 0010fa77-006fe5a5-500c6808] found.
Track [ CRC ] Status
01 [622cfcc0] (7/7) Accurately ripped
02 [dad266aa] (7/7) Accurately ripped
03 [37d0edbb] (7/7) Accurately ripped
04 [72d78e76] (7/7) Accurately ripped
05 [f7a1f41b] (7/7) Accurately ripped
06 [208d2f18] (7/7) Accurately ripped
07 [9946f1b8] (7/7) Accurately ripped
08 [63577e4e] (7/7) Accurately ripped

Track Peak [ CRC32 ] [W/O NULL] [ LOG ]
– 78,0 [E20ED070] [E69FF03B]
01 63,9 [74A3C41F] [3052B048] CRC32
02 68,8 [17884A15] [48471685] CRC32
03 62,0 [A432DF1B] [271FDA50] CRC32
04 61,6 [58C1F25C] [6F05C2E9] CRC32
05 54,9 [3F468536] [42171F03] CRC32
06 67,6 [FDA22103] [D26C67C1] CRC32
07 66,0 [F1575AA7] [A3447ED9] CRC32
08 78,0 [D193AB32] [B56E147A] CRC32

[CUETools log; Date: 11.01.2012 17:26:52; Version: 2.0.9]
Pregap length 00:00:33.
[CTDB TOCID: TeWncPojf1pyDxzWuke4t8Efaio-] found.
[ CTDBID ] Status
[a8c8241d] (7/7) Accurately ripped
[AccurateRip ID: 0010bd3c-00712be2-650d5508] found.
Track [ CRC ] Status
01 [4672372e] (7/7) Accurately ripped
02 [ce4fa8a8] (7/7) Accurately ripped
03 [bd3acec7] (7/7) Accurately ripped
04 [8f5db0f6] (7/7) Accurately ripped
05 [887109e2] (7/7) Accurately ripped
06 [dfb35b85] (7/7) Accurately ripped
07 [00742c75] (7/7) Accurately ripped
08 [5ac01e35] (7/7) Accurately ripped

Track Peak [ CRC32 ] [W/O NULL] [ LOG ]
– 76,1 [A2714143] [DF281D16]
01 75,7 [BCC645BF] [72EFE10B] CRC32
02 71,2 [4C115125] [7B4439BE] CRC32
03 58,5 [E5E55248] [734EE4DC] CRC32
04 50,8 [CEDDDE06] [D93E3182] CRC32
05 76,1 [D6EF245B] [2BCDE433] CRC32
06 62,7 [702211C6] [31531E8C] CRC32
07 68,4 [29AED683] [E604CB12] CRC32
08 67,6 [827C7612] [8D734894] CRC32

[CUETools log; Date: 11.01.2012 17:27:51; Version: 2.0.9]
Pregap length 00:00:33.
[CTDB TOCID: bQqOuGVPQ2WAnL1Wv4y1VcS7SEw-] found.
[ CTDBID ] Status
[6a89a1f1] (7/7) Accurately ripped
[AccurateRip ID: 00289a58-0224422e-180ee112] found.
Track [ CRC ] Status
01 [0e34810b] (7/7) Accurately ripped
02 [60b832d5] (7/7) Accurately ripped
03 [336eef43] (7/7) Accurately ripped
04 [ec41f9ee] (7/7) Accurately ripped
05 [11e56afe] (7/7) Accurately ripped
06 [74b345d3] (7/7) Accurately ripped
07 [2f44dbeb] (7/7) Accurately ripped
08 [812f146b] (7/7) Accurately ripped
09 [0665f215] (7/7) Accurately ripped
10 [860c2d5b] (7/7) Accurately ripped
11 [0d576824] (7/7) Accurately ripped
12 [dfda20d4] (7/7) Accurately ripped
13 [3446b84a] (7/7) Accurately ripped
14 [56d61dc3] (7/7) Accurately ripped
15 [2e4a6279] (7/7) Accurately ripped
16 [c3bd357e] (7/7) Accurately ripped
17 [c3f57f35] (7/7) Accurately ripped
18 [fc7ceb38] (7/7) Accurately ripped

Track Peak [ CRC32 ] [W/O NULL] [ LOG ]
– 96,4 [85C27A52] [9ECAAD06]
01 96,4 [C4F2131A] [AECF1B32] CRC32
02 96,4 [20B2E00E] [9E1C41BA] CRC32
03 94,2 [6F5F65B9] [970FEB92] CRC32
04 94,2 [D0E79A8B] [D492877C] CRC32
05 94,2 [12B93D96] [3F782843] CRC32
06 94,2 [60F97A86] [7813E204] CRC32
07 94,2 [8543E95A] [D904DDD5] CRC32
08 84,7 [C84E1CA3] [CB1A44F8] CRC32
09 82,9 [E2225D28] [3F2E4AA7] CRC32
10 81,7 [A8323484] [2146148C] CRC32
11 90,6 [CC395B4F] [49F994A1] CRC32
12 72,7 [8FD7A1ED] [A6A6A7D0] CRC32
13 91,7 [E63C1F65] [35A68ABB] CRC32
14 82,3 [59C0DD2E] [78FF5B13] CRC32
15 86,0 [EBD256FD] [876CF8B8] CRC32
16 88,5 [628CC13F] [21413AD3] CRC32
17 81,8 [547C3904] [97A54D7E] CRC32
18 86,6 [40A36141] [B71ED77E] CRC32

[CUETools log; Date: 11.01.2012 17:28:42; Version: 2.0.9]
Pregap length 00:00:33.
[CTDB TOCID: qZ37nbMx59uRUQ6e1hYJCTT5mh4-] found.
[ CTDBID ] Status
[a0c0e0ba] (7/7) Accurately ripped
[AccurateRip ID: 000efc09-0077e6ab-9509a20a] found.
Track [ CRC ] Status
01 [91174b6c] (7/7) Accurately ripped
02 [9d2aa4d5] (7/7) Accurately ripped
03 [46fe771c] (7/7) Accurately ripped
04 [904fe095] (7/7) Accurately ripped
05 [db48fd2c] (7/7) Accurately ripped
06 [7ae4fedc] (7/7) Accurately ripped
07 [4e94f98e] (7/7) Accurately ripped
08 [b14b5512] (7/7) Accurately ripped
09 [e3e742a3] (7/7) Accurately ripped
10 [a9ff33cf] (7/7) Accurately ripped

Track Peak [ CRC32 ] [W/O NULL] [ LOG ]
– 94,6 [6B249991] [2E893BB1]
01 64,9 [06752656] [72A5B9AB] CRC32
02 81,2 [F727A030] [D5487232] CRC32
03 84,5 [78D785BF] [F5412652] CRC32
04 88,7 [D89A5B90] [A6942DCB] CRC32
05 85,5 [388B5FBA] [95767AFE] CRC32
06 75,8 [541B524B] [EB812703] CRC32
07 64,3 [F0B1A712] [43589E1E] CRC32
08 81,7 [8D3F749C] [C5CD62BC] CRC32
09 91,8 [247BB69A] [C7892F05] CRC32
10 94,6 [43E03052] [9D4AE61F] CRC32

[CUETools log; Date: 11.01.2012 17:30:04; Version: 2.0.9]
Pregap length 00:00:33.
[CTDB TOCID: yGoJA6z0yfIU_qeg3n5fsqeOCZU-] found.
[ CTDBID ] Status
[4ee5f2c3] (6/6) Accurately ripped
[AccurateRip ID: 002d5fe8-0218c244-0a116510] found.
Track [ CRC ] Status
01 [5123f9d1] (7/7) Accurately ripped
02 [d395748c] (7/7) Accurately ripped
03 [549ba077] (7/7) Accurately ripped
04 [d4345069] (7/7) Accurately ripped
05 [83e0e803] (6/6) Accurately ripped
06 [33e31bc8] (7/7) Accurately ripped
07 [5d4697a6] (7/7) Accurately ripped
08 [4c0e3d3f] (7/7) Accurately ripped
09 [5cf0e31d] (7/7) Accurately ripped
10 [8b6f2da7] (7/7) Accurately ripped
11 [6bb62e1e] (7/7) Accurately ripped
12 [4df4d6ab] (7/7) Accurately ripped
13 [31b88a0f] (7/7) Accurately ripped
14 [34ed80cc] (7/7) Accurately ripped
15 [ad074b6d] (7/7) Accurately ripped
16 [048e5317] (7/7) Accurately ripped

Track Peak [ CRC32 ] [W/O NULL] [ LOG ]
– 98,7 [A50C495E] [1E6A03C4]
01 96,5 [CC148FEA] [BB32EE57] CRC32
02 89,2 [9ADAA630] [E3515B27] CRC32
03 81,9 [D29BE4BD] [E6655304] CRC32
04 79,8 [D4BC31F5] [D6BAB251] CRC32
05 89,9 [0AE9AC44] [A26B9276] CRC32
06 89,0 [9F27B529] [BCF682DE] CRC32
07 75,9 [2B2E6E24] [6C190B13] CRC32
08 86,0 [99C0E407] [8DF05546] CRC32
09 86,1 [E69C0C2C] [5B0E956A] CRC32
10 86,2 [24773B89] [9FC206C6] CRC32
11 88,5 [E5677442] [4311858B] CRC32
12 84,0 [657F8945] [F1BDAA6F] CRC32
13 83,0 [9A6FC6C6] [06F03501] CRC32
14 74,4 [DC3FACF6] [E54D7E0D] CRC32
15 97,2 [64D3E972] [22A3E30E] CRC32
16 98,7 [324C28C3] [7298C0CD] CRC32

[CUETools log; Date: 11.01.2012 17:31:01; Version: 2.0.9]
Pregap length 00:00:33.
[CTDB TOCID: Y21znPJlQlCN4xwYCKWgHWgY3ds-] found.
[ CTDBID ] Status
[e0502f29] (7/7) Accurately ripped
[AccurateRip ID: 000fc92d-009649dd-a909470c] found.
Track [ CRC ] Status
01 [6ece3e68] (7/7) Accurately ripped
02 [364be9de] (7/7) Accurately ripped
03 [4f0739ff] (7/7) Accurately ripped
04 [8432e769] (7/7) Accurately ripped
05 [c88d41cf] (7/7) Accurately ripped
06 [031a72c0] (7/7) Accurately ripped
07 [13698603] (7/7) Accurately ripped
08 [0bc533d8] (7/7) Accurately ripped
09 [685a9ccb] (7/7) Accurately ripped
10 [a5ef1382] (7/7) Accurately ripped
11 [a6fe2c6b] (7/7) Accurately ripped
12 [1058a8ff] (7/7) Accurately ripped

Track Peak [ CRC32 ] [W/O NULL] [ LOG ]
– 99,7 [BF22F7F3] [3E8B4836]
01 99,7 [1A02A10B] [C0C95FB9] CRC32
02 95,4 [FD3F55E3] [D7CFA0CD] CRC32
03 89,8 [00EBD186] [C7ED47E3] CRC32
04 96,9 [5D73A51C] [9F54FDD2] CRC32
05 81,7 [FE929697] [DDBA5923] CRC32
06 86,9 [96431B42] [EC5E8DA6] CRC32
07 81,1 [41AAE596] [547BDB36] CRC32
08 87,7 [35FE23D5] [4A722E31] CRC32
09 82,4 [20C381EA] [39098EA1] CRC32
10 78,8 [8D380433] [07CC89C4] CRC32
11 84,8 [97C9E80C] [E9AD00EB] CRC32
12 76,6 [A4A9C568] [427D93E5] CRC32

[CUETools log; Date: 11.01.2012 17:31:30; Version: 2.0.9]
Pregap length 00:00:33.
[CTDB TOCID: l5lWdWUomnr3z4jeF6X_652K.wI-] found.
[ CTDBID ] Status
[eb3602f6] (5/5) Accurately ripped
[AccurateRip ID: 00007d03-0000f9e5-0201aa01] found.
Track [ CRC ] Status
01 [0a8745b5] (5/5) Accurately ripped

Track Peak [ CRC32 ] [W/O NULL] [ LOG ]
– 86,4 [26589551] [78D73022] [A3BE0DEF]: CRC32 for track 1
01 86,4 [A3BE0DEF] [78D73022] CRC32

Thanks to the original releaser.

"Rahsaan" Roland Kirk - The Complete Mercury Recordings Of [11CD] (1990)

(all links are interchangeable)