Subcategories

Rolf Lislevand - La Belle Homicide (2003)

Posted By: tirexiss
Rolf Lislevand - La Belle Homicide (2003)

Rolf Lislevand - La Belle Homicide (2003)
EAC | FLAC (tracks+.cue, log) | Covers Included | 01:02:25 | 269 MB
Genre: Classical | Label: Naive | Catalog: E 8880

This is a recording which truly challenges the accepted norms of musical recording and it does so triumphantly. The sound is full and rich, being recorded in a great church. Lislevand's control of sonority is at times stunning, his tone always sweet and strong. The pieces are tastefully arranged into suites, balanced and whole. And the disc even includes snippets of bird and animal sounds which invaded the recording sessions from the cool night air and nearby lake. Added to this, the liner notes are exemplary, full of insight into the composers' of the disc as well as the opinions and ideas on historical performance. Highlights of this recording are the Canaries by Gaultier and Tombeau du Mezangeau, by the same.

Rolf Lislevand - La Belle Homicide (2003)

Track List:

01. Ennemond Gaultier - Prelude en re mineur (1:16)
02. Ennemond Gaultier - Canarie en re mineur (2:15)
03. Ennemond Gaultier - LImmortelle en re mineur (1:27)
04. Ennemond Gaultier - Carillon en re mineur (1:32)
05. Rene Mezangeau - Sarabande en re mineur (2:12)
06. Francois Dufaut - La Superbe en re mineur (1:48)
07. Ennemond Gaultier - La Poste en re mineur (2:03)
08. Jacques Gallot - La Montespan en la mineur (2:14)
09. Ennemond Gaultier - Prelude en la mineur (1:14)
10. Denis Gaultier - La belle homicide en la mineur (3:31)
11. Jacques Gallot - La Psyche en la mineur (4:00)
12. Jacques Gallot - Les castagnettes en la mineur (3:13)
13. Charles Mouton - La Princesse en la majeur (2:05)
14. Charles Bouquet - Chaconne en do mineur/Jacques Gallot - Dialogue en do mineur/Nicolas Dubut - Sarabande en do (6:54)
15. Charles Mouton - La Malassise en fa diese mineur (3:08)
16. Jacques Gallot - La Lucrece en fa diese mineur (3:11)
17. Charles Mouton - Gavotte en fa diese mineur (0:57)
18. Charles Mouton - Le Mouton en fa diese mineur (1:46)
19. Ennemond Gaultier - Tombeau de Mezangeau en re mineur (4:09)
20. Charles Mouton - Chaconne en sol majeur/Charles Mouton - Le Perier en sol mineur/Denis Gaultier - La douce en mi mineur (9:05)
21. Charles Mouton - Depart/double en fa diese mineur (4:25)

Performers:
Rolf Lislevand - 11-course baroque lute

Exact Audio Copy V0.99 prebeta 5 from 4. May 2009

EAC extraction logfile from 3. June 2010, 21:50

Rolf Lislevand / AA.VV. - La Belle Homicide

Used drive : HL-DT-STDVDRAM GE20LU10 Adapter: 2 ID: 0

Read mode : Secure
Utilize accurate stream : Yes
Defeat audio cache : No
Make use of C2 pointers : No

Read offset correction : 667
Overread into Lead-In and Lead-Out : No
Fill up missing offset samples with silence : Yes
Delete leading and trailing silent blocks : No
Null samples used in CRC calculations : No
Used interface : Native Win32 interface for Win NT & 2000
Gap handling : Appended to previous track

Used output format : User Defined Encoder
Selected bitrate : 768 kBit/s
Quality : High
Add ID3 tag : No
Command line compressor : C:\Program Files\Exact Audio Copy\FLAC\FLAC.EXE
Additional command line options : -6 -V -T "ARTIST=%a" -T "TITLE=%t" -T "ALBUM=%g" -T "DATE=%y" -T "TRACKNUMBER=%n" -T "GENRE=%m" -T "COMMENT=%e" %s -o %d


TOC of the extracted CD

Track | Start | Length | Start sector | End sector
––––––––––––––––––––––––––––-
1 | 0:00.00 | 1:15.73 | 0 | 5697
2 | 1:15.73 | 2:15.31 | 5698 | 15853
3 | 3:31.29 | 1:26.68 | 15854 | 22371
4 | 4:58.22 | 1:32.03 | 22372 | 29274
5 | 6:30.25 | 2:11.52 | 29275 | 39151
6 | 8:42.02 | 1:48.34 | 39152 | 47285
7 | 10:30.36 | 2:02.71 | 47286 | 56506
8 | 12:33.32 | 2:13.49 | 56507 | 66530
9 | 14:47.06 | 1:13.57 | 66531 | 72062
10 | 16:00.63 | 3:31.30 | 72063 | 87917
11 | 19:32.18 | 4:00.06 | 87918 | 105923
12 | 23:32.24 | 3:12.41 | 105924 | 120364
13 | 26:44.65 | 2:05.25 | 120365 | 129764
14 | 28:50.15 | 6:54.09 | 129765 | 160823
15 | 35:44.24 | 3:08.28 | 160824 | 174951
16 | 38:52.52 | 3:11.05 | 174952 | 189281
17 | 42:03.57 | 0:57.24 | 189282 | 193580
18 | 43:01.06 | 1:46.31 | 193581 | 201561
19 | 44:47.37 | 4:08.47 | 201562 | 220208
20 | 48:56.09 | 9:04.41 | 220209 | 261049
21 | 58:00.50 | 4:24.59 | 261050 | 280908


Track 1

Filename D:\EAC Ripps\Rolf Lislevand - La Belle Homicide\Preude en re mineur Ennemond Gaultier.wav

Pre-gap length 0:00:02.00

Peak level 37.1 %
Track quality 100.0 %
Test CRC 9CB4F503
Copy CRC 9CB4F503
Accurately ripped (confidence 2) [E3FDB379]
Copy OK

Track 2

Filename D:\EAC Ripps\Rolf Lislevand - La Belle Homicide\Canarie Ennemond Gaultier.wav

Peak level 56.9 %
Track quality 100.0 %
Test CRC 85295268
Copy CRC 85295268
Accurately ripped (confidence 2) [817C9E90]
Copy OK

Track 3

Filename D:\EAC Ripps\Rolf Lislevand - La Belle Homicide\L'immortelle Ennemond Gaultier.wav

Peak level 44.5 %
Track quality 100.0 %
Test CRC 474ACBEC
Copy CRC 474ACBEC
Accurately ripped (confidence 2) [C81E6B37]
Copy OK

Track 4

Filename D:\EAC Ripps\Rolf Lislevand - La Belle Homicide\Carillon Ennemond Gaultier.wav

Peak level 59.5 %
Track quality 100.0 %
Test CRC D2AD710F
Copy CRC D2AD710F
Accurately ripped (confidence 2) [06497C33]
Copy OK

Track 5

Filename D:\EAC Ripps\Rolf Lislevand - La Belle Homicide\Sarabande Renй Mezangeau.wav

Peak level 45.3 %
Track quality 100.0 %
Test CRC F9B6B894
Copy CRC F9B6B894
Accurately ripped (confidence 2) [AC34FBED]
Copy OK

Track 6

Filename D:\EAC Ripps\Rolf Lislevand - La Belle Homicide\La superbe Franзois Dufaut.wav

Peak level 48.6 %
Track quality 100.0 %
Test CRC 8ADBB74E
Copy CRC 8ADBB74E
Accurately ripped (confidence 2) [A80C4FC1]
Copy OK

Track 7

Filename D:\EAC Ripps\Rolf Lislevand - La Belle Homicide\La poste Ennemond Gaultier.wav

Peak level 73.9 %
Track quality 100.0 %
Test CRC AC32EE3A
Copy CRC AC32EE3A
Accurately ripped (confidence 2) [15EE61BD]
Copy OK

Track 8

Filename D:\EAC Ripps\Rolf Lislevand - La Belle Homicide\La Montespan Jacques Gallot.wav

Pre-gap length 0:00:23.71

Peak level 81.3 %
Track quality 100.0 %
Test CRC 6EC0C9FE
Copy CRC 6EC0C9FE
Accurately ripped (confidence 2) [C85CA5F2]
Copy OK

Track 9

Filename D:\EAC Ripps\Rolf Lislevand - La Belle Homicide\Preude en la mineur Ennemond Gaultier.wav

Peak level 52.1 %
Track quality 100.0 %
Test CRC D8AEFC04
Copy CRC D8AEFC04
Accurately ripped (confidence 2) [28D525C7]
Copy OK

Track 10

Filename D:\EAC Ripps\Rolf Lislevand - La Belle Homicide\La belle homicide Denis Gaultier.wav

Peak level 65.2 %
Track quality 100.0 %
Test CRC 400A3619
Copy CRC 400A3619
Accurately ripped (confidence 2) [F4982E1C]
Copy OK

Track 11

Filename D:\EAC Ripps\Rolf Lislevand - La Belle Homicide\La psyche Jacques Gallot.wav

Peak level 54.5 %
Track quality 99.9 %
Test CRC 0F5AEFF9
Copy CRC 0F5AEFF9
Accurately ripped (confidence 2) [135E83C8]
Copy OK

Track 12

Filename D:\EAC Ripps\Rolf Lislevand - La Belle Homicide\Les castagnettes Jacques Gallot.wav

Peak level 70.0 %
Track quality 100.0 %
Test CRC FDCFDC5A
Copy CRC FDCFDC5A
Accurately ripped (confidence 2) [34EC015A]
Copy OK

Track 13

Filename D:\EAC Ripps\Rolf Lislevand - La Belle Homicide\La princesse Charles Mouton.wav

Peak level 40.0 %
Track quality 100.0 %
Test CRC 9B418E65
Copy CRC 9B418E65
Accurately ripped (confidence 2) [7227BF4B]
Copy OK

Track 14

Filename D:\EAC Ripps\Rolf Lislevand - La Belle Homicide\Chaconne,Dialogue,Sarabande C.Boquet,J.Gallot,N.Dubut.wav

Pre-gap length 0:00:08.32

Peak level 63.2 %
Track quality 100.0 %
Test CRC 0918A3B8
Copy CRC 0918A3B8
Accurately ripped (confidence 2) [B7C1D449]
Copy OK

Track 15

Filename D:\EAC Ripps\Rolf Lislevand - La Belle Homicide\La malassise Charles Mouton.wav

Pre-gap length 0:00:26.12

Peak level 86.7 %
Track quality 99.8 %
Test CRC 8DC2FC18
Copy CRC 8DC2FC18
Accurately ripped (confidence 2) [6DF67649]
Copy OK

Track 16

Filename D:\EAC Ripps\Rolf Lislevand - La Belle Homicide\La Lucrece Jacques Gallot.wav

Peak level 47.0 %
Track quality 100.0 %
Test CRC 6A67EC40
Copy CRC 6A67EC40
Accurately ripped (confidence 2) [B094FFB0]
Copy OK

Track 17

Filename D:\EAC Ripps\Rolf Lislevand - La Belle Homicide\Gavotte Charles Mouton.wav

Peak level 43.9 %
Track quality 100.0 %
Test CRC 36F6F930
Copy CRC 36F6F930
Accurately ripped (confidence 2) [236F47FF]
Copy OK

Track 18

Filename D:\EAC Ripps\Rolf Lislevand - La Belle Homicide\Le mouton Charles Mouton.wav

Peak level 56.9 %
Track quality 100.0 %
Test CRC F93988E3
Copy CRC F93988E3
Accurately ripped (confidence 2) [CF6DC5E8]
Copy OK

Track 19

Filename D:\EAC Ripps\Rolf Lislevand - La Belle Homicide\Tombeau de Mezangeau Ennemond Gaultier.wav

Pre-gap length 0:00:27.32

Peak level 67.2 %
Track quality 100.0 %
Test CRC D2B225FF
Copy CRC D2B225FF
Accurately ripped (confidence 2) [BB7DC584]
Copy OK

Track 20

Filename D:\EAC Ripps\Rolf Lislevand - La Belle Homicide\Chaconne,Leperie,La douce C.Mouton,C.Mouton, D. Gaultier.wav

Peak level 98.3 %
Track quality 99.9 %
Test CRC 34FA9A7A
Copy CRC 34FA9A7A
Accurately ripped (confidence 2) [878C2546]
Copy OK

Track 21

Filename D:\EAC Ripps\Rolf Lislevand - La Belle Homicide\Depart,Double Charles Mouton.wav

Peak level 50.5 %
Track quality 100.0 %
Test CRC 56DAEDD8
Copy CRC 56DAEDD8
Accurately ripped (confidence 2) [42BD80A3]
Copy OK


All tracks accurately ripped

No errors occurred

End of status report

[CUETools log; Date: 09.03.2017 12:41:00; Version: 2.1.5]
[CTDB TOCID: OFGriJ.0wc_IJSGcEvJPYkusKgQ-] found.
Track | CTDB Status
1 | (15/15) Accurately ripped
2 | (15/15) Accurately ripped
3 | (15/15) Accurately ripped
4 | (15/15) Accurately ripped
5 | (15/15) Accurately ripped
6 | (15/15) Accurately ripped
7 | (15/15) Accurately ripped
8 | (15/15) Accurately ripped
9 | (15/15) Accurately ripped
10 | (15/15) Accurately ripped
11 | (15/15) Accurately ripped
12 | (15/15) Accurately ripped
13 | (15/15) Accurately ripped
14 | (15/15) Accurately ripped
15 | (15/15) Accurately ripped
16 | (15/15) Accurately ripped
17 | (15/15) Accurately ripped
18 | (15/15) Accurately ripped
19 | (15/15) Accurately ripped
20 | (15/15) Accurately ripped
21 | (15/15) Accurately ripped
[AccurateRip ID: 0025dbb7-02634a98-230ea115] found.
Track [ CRC | V2 ] Status
01 [e3fdb379|f6c8c065] (08+05/13) Accurately ripped
02 [817c9e90|290eed52] (08+05/13) Accurately ripped
03 [c81e6b37|d75a5da8] (08+05/13) Accurately ripped
04 [06497c33|f0b2bc8f] (08+05/13) Accurately ripped
05 [ac34fbed|d5edb80a] (08+05/13) Accurately ripped
06 [a80c4fc1|80b367ae] (08+05/13) Accurately ripped
07 [15ee61bd|c95ed54a] (08+05/13) Accurately ripped
08 [c85ca5f2|4379cff6] (08+05/13) Accurately ripped
09 [28d525c7|0fc42e87] (08+05/13) Accurately ripped
10 [f4982e1c|321f2716] (08+05/13) Accurately ripped
11 [135e83c8|6dedbc1e] (08+05/13) Accurately ripped
12 [34ec015a|1ff34e01] (08+05/13) Accurately ripped
13 [7227bf4b|2082c50b] (08+05/13) Accurately ripped
14 [b7c1d449|64ca8584] (08+05/13) Accurately ripped
15 [6df67649|b3c4b34c] (08+05/13) Accurately ripped
16 [b094ffb0|70673837] (08+05/13) Accurately ripped
17 [236f47ff|653e3f33] (08+05/13) Accurately ripped
18 [cf6dc5e8|9ad03da7] (08+05/13) Accurately ripped
19 [bb7dc584|75e1b61d] (08+05/13) Accurately ripped
20 [878c2546|fc398f34] (08+05/13) Accurately ripped
21 [42bd80a3|d55cf83c] (08+04/12) Accurately ripped

Thanks to the Original ripper (unknown)!

Download: