Subcategories

Rolling Stones - Love You Live (1977)

Posted By: v3122
Rolling Stones - Love You Live (1977)

Rolling Stones - Love You Live (1977)
2CD | Rock | EAC Rip | Flac(Tracks) + Cue + Log | MP3 CBR 320Kbps | 10 + 8 Tracks
Scans Included | 1998 | Remastered | Virgin 7243 8 45671 2 5 | ~588 + 214 Mb | FSonic, FServe, Uploaded

Recorded live in Paris, France and Toronto, Canada in 1976-1977

By the time the Rolling Stones got around to issuing the third live album of their career, 1977's LOVE YOU LIVE, the legendary band had reinvented itself from a dangerous and sleazy rock & roll group to a more polished arena rock outfit. That said, the group was going through one of the rockiest and most uncertain periods of its lengthy career; Keith Richards had just been busted for heroin possession in Canada with the threat of a long prison sentence hanging over his head, new member Ron Wood was still finding his niche in the band, and Mick Jagger appeared more concerned with jet-setting.

So it's a pretty impressive accomplishment that the Stones could present such a fun and spirited performance as the one featured on LOVE YOU LIVE (taped at a rare club appearance at Toronto's famed El Macombo). Though not exactly in league with one of rock's all-time great live sets, 1969's GET YER YA YA'S OUT, LOVE YOU LIVE contains many highlights, such as the funky "Hot Stuff," the Richards-sung "Happy," several blues covers that kick off disc two ("Mannish Boy," Chuck Berry's "Around and Around," etc.) and an awesome, album-closing triple punch of "Brown Sugar," "Jumpin' Jack Flash," and "Sympathy for the Devil."

All tracks digitally remastered.

Rolling Stones - Love You Live (1977):

Rolling Stones - Love You Live (1977)

Tracklist CD1:

1. Intro: Excerpt From 'Fanfare For The Common Man' (1:23)
2. Honky Tonk Women (3:19)
3. If You Can't Rock Me-Get Off Of My Cloud (5:00)
4. Happy (2:55)
5. Hot Stuff (4:34)
6. Star Star (4:09)
7. Tumbling Dice (4:00)
8. Fingerprint File (5:16)
9. You Gotta Move (4:19)
10. You Can't Always Get What You Want (7:42)

Exact Audio Copy V0.99 prebeta 5 from 4. May 2009

EAC extraction logfile from 31. August 2009, 22:36

The Rolling Stones / Love You Live - CD1

Used drive : ATAPI DVD A DH20A4P Adapter: 1 ID: 0

Read mode : Secure
Utilize accurate stream : Yes
Defeat audio cache : Yes
Make use of C2 pointers : No

Read offset correction : 6
Overread into Lead-In and Lead-Out : No
Fill up missing offset samples with silence : Yes
Delete leading and trailing silent blocks : No
Null samples used in CRC calculations : Yes
Used interface : Installed external ASPI interface
Gap handling : Appended to previous track

Used output format : Internal WAV Routines
Sample format : 44.100 Hz; 16 Bit; Stereo


TOC of the extracted CD

Track | Start | Length | Start sector | End sector
––––––––––––––––––––––––––––-
1 | 0:00.00 | 1:23.50 | 0 | 6274
2 | 1:23.50 | 3:19.22 | 6275 | 21221
3 | 4:42.72 | 5:00.15 | 21222 | 43736
4 | 9:43.12 | 2:55.08 | 43737 | 56869
5 | 12:38.20 | 4:34.45 | 56870 | 77464
6 | 17:12.65 | 4:09.65 | 77465 | 96204
7 | 21:22.55 | 4:00.27 | 96205 | 114231
8 | 25:23.07 | 5:16.38 | 114232 | 137969
9 | 30:39.45 | 4:19.00 | 137970 | 157394
10 | 34:58.45 | 7:42.42 | 157395 | 192086


Track 1

Filename E:\FLAC\RS\Love You Live\Disc 1\01. Excerpt From 'Fanfare For The Common Man'.wav

Pre-gap length 0:00:02.00

Peak level 98.3 %
Track quality 99.8 %
Test CRC 8394973D
Copy CRC 8394973D
Copy OK

Track 2

Filename E:\FLAC\RS\Love You Live\Disc 1\02. Honky Tonk Women.wav

Peak level 100.0 %
Track quality 100.0 %
Test CRC 3E7DEC00
Copy CRC 3E7DEC00
Copy OK

Track 3

Filename E:\FLAC\RS\Love You Live\Disc 1\03. If You Can't Rock Me-Get Off Of My Cloud.wav

Peak level 92.8 %
Track quality 99.9 %
Test CRC 49877614
Copy CRC 49877614
Copy OK

Track 4

Filename E:\FLAC\RS\Love You Live\Disc 1\04. Happy.wav

Peak level 100.0 %
Track quality 100.0 %
Test CRC 47B0EB11
Copy CRC 47B0EB11
Copy OK

Track 5

Filename E:\FLAC\RS\Love You Live\Disc 1\05. Hot Stuff.wav

Peak level 100.0 %
Track quality 99.9 %
Test CRC 02BFBE0E
Copy CRC 02BFBE0E
Copy OK

Track 6

Filename E:\FLAC\RS\Love You Live\Disc 1\06. Star Star.wav

Peak level 100.0 %
Track quality 100.0 %
Test CRC 3C6BBADA
Copy CRC 3C6BBADA
Copy OK

Track 7

Filename E:\FLAC\RS\Love You Live\Disc 1\07. Tumbling Dice.wav

Peak level 100.0 %
Track quality 100.0 %
Test CRC 2A9BB0AE
Copy CRC 2A9BB0AE
Copy OK

Track 8

Filename E:\FLAC\RS\Love You Live\Disc 1\08. Fingerprint File.wav

Peak level 97.9 %
Track quality 100.0 %
Test CRC 4B3B4D10
Copy CRC 4B3B4D10
Copy OK

Track 9

Filename E:\FLAC\RS\Love You Live\Disc 1\09. You Gotta Move.wav

Peak level 100.0 %
Track quality 99.9 %
Test CRC 79AA8DE9
Copy CRC 79AA8DE9
Copy OK

Track 10

Filename E:\FLAC\RS\Love You Live\Disc 1\10. You Can't Always Get What You Want.wav

Peak level 92.8 %
Track quality 99.9 %
Test CRC 85354EF8
Copy CRC 85354EF8
Copy OK

No errors occurred

End of status report

AUDIOCHECKER v2.0 beta (build 457) - by Dester - opdester@freemail.hu
~~~~~~~~~~~~~~~~~~~~~~~~~~~~~~~~~~
-=== DO NOT EDIT THIS FILE! ===-

Path: …\Cd1

001 -=- 01. Excerpt From 'Fanfare For The Common Man'.flac -=- CDDA (100%)
002 -=- 02. Honky Tonk Women.flac -=- CDDA (100%)
003 -=- 03. If You Can't Rock Me-Get Off Of My Cloud.flac -=- CDDA (100%)
004 -=- 04. Happy.flac -=- CDDA (100%)
005 -=- 05. Hot Stuff.flac -=- CDDA (100%)
006 -=- 06. Star Star.flac -=- CDDA (100%)
007 -=- 07. Tumbling Dice.flac -=- CDDA (100%)
008 -=- 08. Fingerprint File.flac -=- CDDA (100%)
009 -=- 09. You Gotta Move.flac -=- CDDA (100%)
010 -=- 10. You Can't Always Get What You Want.flac -=- CDDA (100%)

Summary 100,00% CDDA

177605108

[Verification date: 09.03.2011 21:14:58]
[Disc ID: 000dc922-0072b049-710a010a]
Track [ CRC ] Status
01 [27714d9b] (66/97) Accurately ripped as in pressing(s) #1
02 [4b331b1d] (68/99) Accurately ripped as in pressing(s) #1
03 [cb1a7746] (68/98) Accurately ripped as in pressing(s) #1
04 [b97294ce] (67/97) Accurately ripped as in pressing(s) #1
05 [eed0ad97] (68/99) Accurately ripped as in pressing(s) #1
06 [c14f010d] (68/99) Accurately ripped as in pressing(s) #1
07 [9340d916] (68/99) Accurately ripped as in pressing(s) #1
08 [19068543] (68/99) Accurately ripped as in pressing(s) #1
09 [46086a06] (68/99) Accurately ripped as in pressing(s) #1
10 [95b49ca1] (67/98) Accurately ripped as in pressing(s) #1
Offsetted by -828:
01 [dc70f8eb] (31/97) Accurately ripped as in pressing(s) #2
02 [7a2f345b] (31/99) Accurately ripped as in pressing(s) #2
03 [12de92f3] (30/98) Accurately ripped as in pressing(s) #2
04 [3df55478] (30/97) Accurately ripped as in pressing(s) #2
05 [ae3a8191] (31/99) Accurately ripped as in pressing(s) #2
06 [167959fe] (31/99) Accurately ripped as in pressing(s) #2
07 [7a2f3c59] (31/99) Accurately ripped as in pressing(s) #2
08 [c1088fb6] (31/99) Accurately ripped as in pressing(s) #2
09 [4f8c3401] (31/99) Accurately ripped as in pressing(s) #2
10 [8a73dc28] (31/98) Accurately ripped as in pressing(s) #2

Track [ CRC32 ] [W/O NULL] [ LOG ]
– [9EAC51E5] [2B6BAE1B]
01 [8394973D] [62F05EA5] CRC32
02 [3E7DEC00] [FFF1A487] CRC32
03 [49877614] [01D06549] CRC32
04 [47B0EB11] [6FD76F22] CRC32
05 [02BFBE0E] [CC04F330] CRC32
06 [3C6BBADA] [99569B5B] CRC32
07 [2A9BB0AE] [BDE948F4] CRC32
08 [4B3B4D10] [E2EDB23A] CRC32
09 [79AA8DE9] [F935AF93] CRC32
10 [85354EF8] [5AA3BD75] CRC32

Rolling Stones - Love You Live (1977)

Tracklist CD2:

1. Mannish Boy (6:27)
2. Crackin' Up (5:39)
3. Little Red Rooster (4:39)
4. Around And Around (4:08)
5. It's Only Rock 'n Roll (4:31)
6. Brown Sugar (3:10)
7. Jumpin' Jack Flash (4:02)
8. Sympathy For The Devil (7:51)

Exact Audio Copy V0.99 prebeta 5 from 4. May 2009

EAC extraction logfile from 31. August 2009, 23:14

The Rolling Stones / Love You Live - CD2

Used drive : ATAPI DVD A DH20A4P Adapter: 1 ID: 0

Read mode : Secure
Utilize accurate stream : Yes
Defeat audio cache : Yes
Make use of C2 pointers : No

Read offset correction : 6
Overread into Lead-In and Lead-Out : No
Fill up missing offset samples with silence : Yes
Delete leading and trailing silent blocks : No
Null samples used in CRC calculations : Yes
Used interface : Installed external ASPI interface
Gap handling : Appended to previous track

Used output format : Internal WAV Routines
Sample format : 44.100 Hz; 16 Bit; Stereo


TOC of the extracted CD

Track | Start | Length | Start sector | End sector
––––––––––––––––––––––––––––-
1 | 0:00.00 | 6:27.55 | 0 | 29079
2 | 6:27.55 | 5:39.65 | 29080 | 54569
3 | 12:07.45 | 4:39.35 | 54570 | 75529
4 | 16:47.05 | 4:08.45 | 75530 | 94174
5 | 20:55.50 | 4:31.17 | 94175 | 114516
6 | 25:26.67 | 3:10.65 | 114517 | 128831
7 | 28:37.57 | 4:02.45 | 128832 | 147026
8 | 32:40.27 | 7:51.20 | 147027 | 182371


Track 1

Filename E:\FLAC\RS\Love You Live\Disc 2\01. Mannish Boy.wav

Pre-gap length 0:00:02.00

Peak level 97.9 %
Track quality 100.0 %
Test CRC 8DB3C877
Copy CRC 8DB3C877
Copy OK

Track 2

Filename E:\FLAC\RS\Love You Live\Disc 2\02. Crackin' Up.wav

Peak level 94.5 %
Track quality 100.0 %
Test CRC DCA62C4E
Copy CRC DCA62C4E
Copy OK

Track 3

Filename E:\FLAC\RS\Love You Live\Disc 2\03. Little Red Rooster.wav

Peak level 97.7 %
Track quality 100.0 %
Test CRC 969EA2E6
Copy CRC 969EA2E6
Copy OK

Track 4

Filename E:\FLAC\RS\Love You Live\Disc 2\04. Around And Around.wav

Peak level 100.0 %
Track quality 100.0 %
Test CRC B1E38FB5
Copy CRC B1E38FB5
Copy OK

Track 5

Filename E:\FLAC\RS\Love You Live\Disc 2\05. It's Only Rock 'n Roll.wav

Peak level 94.1 %
Track quality 100.0 %
Test CRC DB8B1446
Copy CRC DB8B1446
Copy OK

Track 6

Filename E:\FLAC\RS\Love You Live\Disc 2\06. Brown Sugar.wav

Peak level 90.4 %
Track quality 100.0 %
Test CRC 9055BD34
Copy CRC 9055BD34
Copy OK

Track 7

Filename E:\FLAC\RS\Love You Live\Disc 2\07. Jumpin' Jack Flash.wav

Peak level 92.2 %
Track quality 100.0 %
Test CRC 8C944663
Copy CRC 8C944663
Copy OK

Track 8

Filename E:\FLAC\RS\Love You Live\Disc 2\08. Sympathy For The Devil.wav

Peak level 92.2 %
Track quality 100.0 %
Test CRC 81D15832
Copy CRC 81D15832
Copy OK

No errors occurred

End of status report

AUDIOCHECKER v2.0 beta (build 457) - by Dester - opdester@freemail.hu
~~~~~~~~~~~~~~~~~~~~~~~~~~~~~~~~~~
-=== DO NOT EDIT THIS FILE! ===-

Path: …\Cd2

001 -=- 01. Mannish Boy.flac -=- CDDA (100%)
002 -=- 02. Crackin' Up.flac -=- CDDA (100%)
003 -=- 03. Little Red Rooster.flac -=- CDDA (100%)
004 -=- 04. Around And Around.flac -=- CDDA (100%)
005 -=- 05. It's Only Rock 'n Roll.flac -=- CDDA (100%)
006 -=- 06. Brown Sugar.flac -=- CDDA (100%)
007 -=- 07. Jumpin' Jack Flash.flac -=- CDDA (100%)
008 -=- 08. Sympathy For The Devil.flac -=- CDDA (100%)

Summary 100,00% CDDA

196685108

Verification date: 09.03.2011 21:15:36]
[Disc ID: 000c9af7-00526b0c-75097f08]
Track [ CRC ] Status
01 [ba5e3435] (68/97) Accurately ripped as in pressing(s) #1
02 [7e269d6c] (68/98) Accurately ripped as in pressing(s) #1
03 [9972f34c] (68/98) Accurately ripped as in pressing(s) #1
04 [764cdcf5] (68/98) Accurately ripped as in pressing(s) #1
05 [18b33e2b] (67/97) Accurately ripped as in pressing(s) #1
06 [c01f5a43] (68/98) Accurately ripped as in pressing(s) #1
07 [adf5956c] (67/97) Accurately ripped as in pressing(s) #1
08 [07a0807a] (67/97) Accurately ripped as in pressing(s) #1
Offsetted by -2271:
01 [c9eefb95] (03/97) Accurately ripped as in pressing(s) #3
02 [0e503a76] (03/98) Accurately ripped as in pressing(s) #3
03 [1d5dbf12] (03/98) Accurately ripped as in pressing(s) #3
04 [ac671324] (03/98) Accurately ripped as in pressing(s) #3
05 [7e69cf04] (03/97) Accurately ripped as in pressing(s) #3
06 [3f365fbe] (03/98) Accurately ripped as in pressing(s) #3
07 [619eb969] (03/97) Accurately ripped as in pressing(s) #3
08 [f93a9dae] (03/97) Accurately ripped as in pressing(s) #3
Offsetted by -1607:
01 [2774e22a] (26/97) Accurately ripped as in pressing(s) #2
02 [915e4c36] (27/98) Accurately ripped as in pressing(s) #2
03 [ce58efd7] (27/98) Accurately ripped as in pressing(s) #2
04 [d06ece92] (27/98) Accurately ripped as in pressing(s) #2
05 [cfbb01bd] (27/97) Accurately ripped as in pressing(s) #2
06 [8b72372d] (27/98) Accurately ripped as in pressing(s) #2
07 [afe307dd] (27/97) Accurately ripped as in pressing(s) #2
08 [8f9321a2] (25/97) Accurately ripped as in pressing(s) #2

Track [ CRC32 ] [W/O NULL] [ LOG ]
– [4A57176E] [4BF66F19]
01 [8DB3C877] [29563F87] CRC32
02 [DCA62C4E] [FCEECF0E] CRC32
03 [969EA2E6] [54305C47] CRC32
04 [B1E38FB5] [01C19067] CRC32
05 [DB8B1446] [06898BEA] CRC32
06 [9055BD34] [A5AD5DBE] CRC32
07 [8C944663] [09664E9D] CRC32
08 [81D15832] [781895C0] CRC32

Rolling Stones - Love You Live (1977)


Download Rolling Stones - Love You Live (1977):

FileSonic: Lossless - part1 | Lossless - part2 | MP3
FileServe: Lossless - part1 | Lossless - part2 | MP3
Uploaded: Lossless - part1 | Lossless - part2 | MP3

In case you encounter dead links, please send me a private message.

All thanks go to the original releaser …