Subcategories

Romantic Piano Quintets - Nepomuk Fortepiano Quintet (2012)

Posted By: peotuvave
Romantic Piano Quintets - Nepomuk Fortepiano Quintet (2012)

Romantic Piano Quintets - Nepomuk Fortepiano Quintet (2012)
EAC Rip | Flac (Image + cue + log) | 4 CDs | Full Scans | 1.12 GB
Genre: Classical | Label: Brilliant Classics | Catalog Number: 94377

This four-disc set provides listeners with a fantastic introduction to the Romantic piano quintet, showcasing lesser-known gems of the genre, alongside a few more recognisable offerings.

Performed by the Nepomuk Fortepiano Quintet, who specialise in performing with the more unusual ensemble of piano, violin, viola, cello and double bass, this is a unique and fascinating project. The collection places the first half of the 19th century in the spotlight, an era that experienced a steady stream of creativity in the area of chamber music.

In the opening disc, quintets by Ries and Limmer are explored, works of impressive drama that both feature an ambitious level of virtuoso piano writing. The second disc surveys quintets by Dussek, Onslow and Hummel, whose elegant and refined style can also be heard in the Op.74 quintet on disc four. In disc three, alongside the English composer Cramer’s Quintet in B flat, Schubert’s famous ‘Trout’ quintet is featured, an inventive work, particularly in its approach to harmony. The set is concluded by George Onslow’s Op.70. These beautiful recordings by the Nepomuk Fortepiano Quintet capture the central qualities of the Romantic piano quintet, bringing to life the warm timbres, fluid melodies, challenging virtuosity and growing sense of drama.

The ensemble specialise in bringing to life repertoire that has been forgotten in the passage of time – and, as their premiere performances of the Limmer and Cramer quintets demonstrate, these works are particularly deserving of rediscovery.

Composer: Ferdinand Ries, Franz Limmer, Johann Nepomuk Hummel, Jan Ladislav Dussek, …
Performer: Pieter Smithuijsen, Elisabeth Smalt, Jan Insinger, Franc Polman, …
Orchestra/Ensemble: Nepomuk Fortepiano Quintet

Tracklisting:

1. Quintet for Piano and Strings, Op. 74 by Ferdinand Ries
Performer: Pieter Smithuijsen (Double Bass), Elisabeth Smalt (Viola), Jan Insinger (Cello),
Franc Polman (Violin), Riko Fukuda (Piano)
Orchestra/Ensemble: Nepomuk Fortepiano Quintet
Period: Romantic
Date of Recording: 05/2003
Venue: Maria Minor Church, Utrecht, Holland
Length: 21 Minutes 17 Secs.

2. Quintet for Piano and Strings in D minor, Op. 13 by Franz Limmer
Performer: Franc Polman (Violin), Elisabeth Smalt (Viola), Jan Insinger (Cello),
Pieter Smithuijsen (Double Bass), Riko Fukuda (Piano)
Orchestra/Ensemble: Nepomuk Fortepiano Quintet
Period: Romantic
Date of Recording: 05/2003
Venue: Maria Minor Church, Utrecht, Holland
Length: 46 Minutes 7 Secs.

3. Quintet for Piano, Violin, Viola, Cello and Double Bass in E flat major, Op. 87 by Johann Nepomuk Hummel
Performer: Elisabeth Smalt (Viola), Riko Fuduka (Fortepiano), Jan Insinger (Cello),
Pieter Smithuijsen (Double Bass), Franc Polman (Violin)
Orchestra/Ensemble: Nepomuk Fortepiano Quintet
Period: Romantic
Written: 1802; Vienna, Austria

4. Quintet for Piano and Strings in F minor, Op. 41/C 172 by Jan Ladislav Dussek
Performer: Riko Fuduka (Fortepiano), Franc Polman (Violin), Jan Insinger (Cello),
Pieter Smithuijsen (Double Bass), Elisabeth Smalt (Viola)
Orchestra/Ensemble: Nepomuk Fortepiano Quintet
Period: Classical
Written: 1799

5. Quintet for Piano and Strings no 2 in G major, Op. 76 by Georges Onslow
Performer: Riko Fuduka (Fortepiano), Franc Polman (Violin), Jan Insinger (Cello),
Pieter Smithuijsen (Double Bass), Elisabeth Smalt (Viola)
Orchestra/Ensemble: Nepomuk Fortepiano Quintet
Period: Romantic
Written: circa 1848; France

6. Quintet for Piano and Strings in A major, D 667/Op. 114 "Trout" by Franz Schubert
Orchestra/Ensemble: Nepomuk Fortepiano Quintet
Period: Romantic
Written: 1819; Vienna, Austria

7. Quintet for Piano and Strings in B flat major, Op 79 by Johann Baptist Cramer
Orchestra/Ensemble: Nepomuk Fortepiano Quintet
Period: Classical

Exact Audio Copy V1.0 beta 3 from 29. August 2011

EAC extraction logfile from 16. July 2012, 12:42

Nepomuk Fortepiano Quintet / Romantic Piano Quintets - Nepomuk Fortepiano Quintet (Disc 1)

Used drive : HL-DT-STDVDRAM GSA-H10A Adapter: 0 ID: 0

Read mode : Secure
Utilize accurate stream : Yes
Defeat audio cache : Yes
Make use of C2 pointers : No

Read offset correction : 667
Overread into Lead-In and Lead-Out : No
Fill up missing offset samples with silence : Yes
Delete leading and trailing silent blocks : No
Null samples used in CRC calculations : Yes
Used interface : Native Win32 interface for Win NT & 2000

Used output format : User Defined Encoder
Selected bitrate : 1024 kBit/s
Quality : High
Add ID3 tag : No
Command line compressor : C:\Program Files\Exact Audio Copy\Flac\flac.exe
Additional command line options : -8 -V -T "TITLE=%title%" -T "ARTIST=%artist%" -T "ALBUMARTIST=%albumartist%" -T "ALBUM=%albumtitle%" -T "DATE=%year%" -T "TRACKNUMBER=%tracknr%" -T "TRACKTOTAL=%numtracks%" -T "GENRE=%genre%" -T "COMMENT=%comment%" -T "PERFORMER=%albuminterpret%" -T "COMPOSER=%composer%" %source% -o %dest%


TOC of the extracted CD

Track | Start | Length | Start sector | End sector
––––––––––––––––––––––––––––-
1 | 0:00.00 | 9:24.32 | 0 | 42331
2 | 9:24.32 | 4:57.56 | 42332 | 64662
3 | 14:22.13 | 6:58.12 | 64663 | 96024
4 | 21:20.25 | 16:01.66 | 96025 | 168165
5 | 37:22.16 | 7:56.65 | 168166 | 203930
6 | 45:19.06 | 9:50.14 | 203931 | 248194
7 | 55:09.20 | 12:08.63 | 248195 | 302857


Range status and errors

Selected range

Filename F:\Ripped general\[9731] Romantic Piano Quintets - Nepomuk Fortepiano Quintet\cd1\Romantic Piano Quintets - Nepomuk Fortepiano Quintet (Disc 1).wav

Peak level 99.9 %
Extraction speed 7.6 X
Range quality 99.9 %
Test CRC 34B75931
Copy CRC 34B75931
Copy OK

No errors occurred


AccurateRip summary

Track 1 cannot be verified as accurate (confidence 4) [93343D53], AccurateRip returned [7E1EB239] (AR v2)
Track 2 cannot be verified as accurate (confidence 4) [15AC7C73], AccurateRip returned [3CFB8F3C] (AR v2)
Track 3 cannot be verified as accurate (confidence 4) [BFFA537C], AccurateRip returned [1A3AD37A] (AR v2)
Track 4 cannot be verified as accurate (confidence 4) [68C884BA], AccurateRip returned [7F982AF6] (AR v2)
Track 5 cannot be verified as accurate (confidence 4) [E03943B6], AccurateRip returned [B7C8D2E4] (AR v2)
Track 6 cannot be verified as accurate (confidence 4) [96208D18], AccurateRip returned [78B524DB] (AR v2)
Track 7 cannot be verified as accurate (confidence 3) [555F675C], AccurateRip returned [2A99C3A9] (AR v2)

No tracks could be verified as accurate
You may have a different pressing from the one(s) in the database

End of status report

Exact Audio Copy V1.0 beta 3 from 29. August 2011

EAC extraction logfile from 16. July 2012, 13:09

Nepomuk Fortepiano Quintet / Romantic Piano Quintets - Nepomuk Fortepiano Quintet (Disc 2)

Used drive : HL-DT-STDVDRAM GSA-H10A Adapter: 0 ID: 0

Read mode : Secure
Utilize accurate stream : Yes
Defeat audio cache : Yes
Make use of C2 pointers : No

Read offset correction : 667
Overread into Lead-In and Lead-Out : No
Fill up missing offset samples with silence : Yes
Delete leading and trailing silent blocks : No
Null samples used in CRC calculations : Yes
Used interface : Native Win32 interface for Win NT & 2000

Used output format : User Defined Encoder
Selected bitrate : 1024 kBit/s
Quality : High
Add ID3 tag : No
Command line compressor : C:\Program Files\Exact Audio Copy\Flac\flac.exe
Additional command line options : -8 -V -T "TITLE=%title%" -T "ARTIST=%artist%" -T "ALBUMARTIST=%albumartist%" -T "ALBUM=%albumtitle%" -T "DATE=%year%" -T "TRACKNUMBER=%tracknr%" -T "TRACKTOTAL=%numtracks%" -T "GENRE=%genre%" -T "COMMENT=%comment%" -T "PERFORMER=%albuminterpret%" -T "COMPOSER=%composer%" %source% -o %dest%


TOC of the extracted CD

Track | Start | Length | Start sector | End sector
––––––––––––––––––––––––––––-
1 | 0:00.00 | 9:47.13 | 0 | 44037
2 | 9:47.13 | 5:51.36 | 44038 | 70398
3 | 15:38.49 | 2:06.10 | 70399 | 79858
4 | 17:44.59 | 5:13.65 | 79859 | 103398
5 | 22:58.49 | 11:56.59 | 103399 | 157157
6 | 34:55.33 | 6:32.17 | 157158 | 186574
7 | 41:27.50 | 5:59.21 | 186575 | 213520
8 | 47:26.71 | 12:48.45 | 213521 | 271165
9 | 60:15.41 | 4:20.62 | 271166 | 290727
10 | 64:36.28 | 6:57.06 | 290728 | 322008
11 | 71:33.34 | 7:10.41 | 322009 | 354299


Range status and errors

Selected range

Filename F:\Ripped general\[9731] Romantic Piano Quintets - Nepomuk Fortepiano Quintet\cd2\Romantic Piano Quintets - Nepomuk Fortepiano Quintet (Disc 2).wav

Peak level 89.0 %
Extraction speed 7.7 X
Range quality 100.0 %
Test CRC 98DC2F71
Copy CRC 98DC2F71
Copy OK

No errors occurred


AccurateRip summary

Track 1 cannot be verified as accurate (confidence 6) [FEF1E431], AccurateRip returned [71E12FF6] (AR v2)
Track 2 cannot be verified as accurate (confidence 5) [01BBE62F], AccurateRip returned [DBB132E0] (AR v2)
Track 3 cannot be verified as accurate (confidence 6) [0D5D61D4], AccurateRip returned [294A7C27] (AR v2)
Track 4 cannot be verified as accurate (confidence 6) [24054EC5], AccurateRip returned [24D54006] (AR v2)
Track 5 cannot be verified as accurate (confidence 6) [5C605BE0], AccurateRip returned [1F97AABC] (AR v2)
Track 6 cannot be verified as accurate (confidence 6) [6623E486], AccurateRip returned [F6BD98F5] (AR v2)
Track 7 cannot be verified as accurate (confidence 6) [92CE29C6], AccurateRip returned [50DCF33B] (AR v2)
Track 8 cannot be verified as accurate (confidence 6) [751509E7], AccurateRip returned [128CEDF7] (AR v2)
Track 9 cannot be verified as accurate (confidence 6) [C20F98FC], AccurateRip returned [B5C8B343] (AR v2)
Track 10 cannot be verified as accurate (confidence 6) [1D57B66F], AccurateRip returned [5D19EA7D] (AR v2)
Track 11 cannot be verified as accurate (confidence 6) [669C15E4], AccurateRip returned [E5207633] (AR v2)

No tracks could be verified as accurate
You may have a different pressing from the one(s) in the database

End of status report

Exact Audio Copy V1.0 beta 3 from 29. August 2011

EAC extraction logfile from 16. July 2012, 14:03

Nepomuk Fortepiano Quintet / Romantic Piano Quintets - Nepomuk Fortepiano Quintet (Disc 3)

Used drive : HL-DT-STDVDRAM GSA-H10A Adapter: 0 ID: 0

Read mode : Secure
Utilize accurate stream : Yes
Defeat audio cache : Yes
Make use of C2 pointers : No

Read offset correction : 667
Overread into Lead-In and Lead-Out : No
Fill up missing offset samples with silence : Yes
Delete leading and trailing silent blocks : No
Null samples used in CRC calculations : Yes
Used interface : Native Win32 interface for Win NT & 2000

Used output format : User Defined Encoder
Selected bitrate : 1024 kBit/s
Quality : High
Add ID3 tag : No
Command line compressor : C:\Program Files\Exact Audio Copy\Flac\flac.exe
Additional command line options : -8 -V -T "TITLE=%title%" -T "ARTIST=%artist%" -T "ALBUMARTIST=%albumartist%" -T "ALBUM=%albumtitle%" -T "DATE=%year%" -T "TRACKNUMBER=%tracknr%" -T "TRACKTOTAL=%numtracks%" -T "GENRE=%genre%" -T "COMMENT=%comment%" -T "PERFORMER=%albuminterpret%" -T "COMPOSER=%composer%" %source% -o %dest%


TOC of the extracted CD

Track | Start | Length | Start sector | End sector
––––––––––––––––––––––––––––-
1 | 0:00.00 | 8:32.12 | 0 | 38411
2 | 8:32.12 | 5:23.08 | 38412 | 62644
3 | 13:55.20 | 6:22.54 | 62645 | 91348
4 | 20:17.74 | 13:18.04 | 91349 | 151202
5 | 33:36.03 | 6:16.08 | 151203 | 179410
6 | 39:52.11 | 4:16.28 | 179411 | 198638
7 | 44:08.39 | 7:15.29 | 198639 | 231292
8 | 51:23.68 | 6:43.64 | 231293 | 261581


Range status and errors

Selected range

Filename F:\Ripped general\[9731] Romantic Piano Quintets - Nepomuk Fortepiano Quintet\cd3\Romantic Piano Quintets - Nepomuk Fortepiano Quintet (Disc 3).wav

Peak level 100.0 %
Extraction speed 7.5 X
Range quality 100.0 %
Test CRC B7B53E9E
Copy CRC B7B53E9E
Copy OK

No errors occurred


AccurateRip summary

Track 1 cannot be verified as accurate (confidence 4) [3A5209BC], AccurateRip returned [DA28C6DA] (AR v2)
Track 2 cannot be verified as accurate (confidence 4) [4CE0AC33], AccurateRip returned [AAAA5D82] (AR v2)
Track 3 cannot be verified as accurate (confidence 4) [217BEA74], AccurateRip returned [0DED5385] (AR v2)
Track 4 cannot be verified as accurate (confidence 4) [827AE17E], AccurateRip returned [34105813] (AR v2)
Track 5 cannot be verified as accurate (confidence 4) [E3BBD2AD], AccurateRip returned [F59F620B] (AR v2)
Track 6 cannot be verified as accurate (confidence 4) [DB3F0A5A], AccurateRip returned [A3A855CA] (AR v2)
Track 7 cannot be verified as accurate (confidence 4) [91B4CCC5], AccurateRip returned [B5C6859F] (AR v2)
Track 8 cannot be verified as accurate (confidence 4) [085879F6], AccurateRip returned [7EDB0415] (AR v2)

No tracks could be verified as accurate
You may have a different pressing from the one(s) in the database

End of status report

Exact Audio Copy V1.0 beta 3 from 29. August 2011

EAC extraction logfile from 16. July 2012, 15:45

Nepomuk Fortepiano Quintet / Romantic Piano Quintets - Nepomuk Fortepiano Quintet (Disc 4)

Used drive : HL-DT-STDVDRAM GSA-H10A Adapter: 0 ID: 0

Read mode : Secure
Utilize accurate stream : Yes
Defeat audio cache : Yes
Make use of C2 pointers : No

Read offset correction : 667
Overread into Lead-In and Lead-Out : No
Fill up missing offset samples with silence : Yes
Delete leading and trailing silent blocks : No
Null samples used in CRC calculations : Yes
Used interface : Native Win32 interface for Win NT & 2000

Used output format : User Defined Encoder
Selected bitrate : 1024 kBit/s
Quality : High
Add ID3 tag : No
Command line compressor : C:\Program Files\Exact Audio Copy\Flac\flac.exe
Additional command line options : -8 -V -T "TITLE=%title%" -T "ARTIST=%artist%" -T "ALBUMARTIST=%albumartist%" -T "ALBUM=%albumtitle%" -T "DATE=%year%" -T "TRACKNUMBER=%tracknr%" -T "TRACKTOTAL=%numtracks%" -T "GENRE=%genre%" -T "COMMENT=%comment%" -T "PERFORMER=%albuminterpret%" -T "COMPOSER=%composer%" %source% -o %dest%


TOC of the extracted CD

Track | Start | Length | Start sector | End sector
––––––––––––––––––––––––––––-
1 | 0:00.00 | 14:57.04 | 0 | 67278
2 | 14:57.04 | 5:54.10 | 67279 | 93838
3 | 20:51.14 | 8:29.03 | 93839 | 132016
4 | 29:20.17 | 8:32.73 | 132017 | 170489
5 | 37:53.15 | 11:55.27 | 170490 | 224141
6 | 49:48.42 | 6:31.44 | 224142 | 253510
7 | 56:20.11 | 8:59.00 | 253511 | 293935


Range status and errors

Selected range

Filename F:\Ripped general\[9731] Romantic Piano Quintets - Nepomuk Fortepiano Quintet\cd4\Romantic Piano Quintets - Nepomuk Fortepiano Quintet (Disc 4).wav

Peak level 43.9 %
Extraction speed 7.6 X
Range quality 100.0 %
Test CRC 0CCEAB91
Copy CRC 0CCEAB91
Copy OK

No errors occurred


AccurateRip summary

Track 1 cannot be verified as accurate (confidence 3) [3721C416], AccurateRip returned [6432005E] (AR v2)
Track 2 cannot be verified as accurate (confidence 3) [FFC61CD4], AccurateRip returned [EC830C81] (AR v2)
Track 3 cannot be verified as accurate (confidence 3) [7D114811], AccurateRip returned [3AB95B1B] (AR v2)
Track 4 cannot be verified as accurate (confidence 3) [9F965252], AccurateRip returned [39248EF7] (AR v2)
Track 5 cannot be verified as accurate (confidence 3) [17E2F558], AccurateRip returned [2B610A39] (AR v2)
Track 6 cannot be verified as accurate (confidence 3) [B0324566], AccurateRip returned [E43FD25E] (AR v2)
Track 7 cannot be verified as accurate (confidence 3) [C0198577], AccurateRip returned [96E1C296] (AR v2)

No tracks could be verified as accurate
You may have a different pressing from the one(s) in the database

End of status report


Thanks to the original releaser