Subcategories

Ronnie Foster - Live: Cookin' With Blue Note At Montreux (1973) Japanese Reissue 2012

Posted By: Designol
Ronnie Foster - Live: Cookin' With Blue Note At Montreux (1973) Japanese Reissue 2012

Ronnie Foster - Live: Cookin' With Blue Note At Montreux (1973) Reissue 2012
EAC | FLAC | Image (Cue&Log) ~ 302 Mb | Mp3 (CBR320) ~ 135 Mb | Scans included
Jazz-Funk, Soul-Jazz | Label: Blue Note/Toshiba-EMI | # TOCJ-50507 | Time: 00:45:46

Ronnie Foster Live: Cookin' with Blue Note at Montreux is a live album by American jazz organist Ronnie Foster recorded at the Montreux Jazz Festival in 1973 and released on the Blue Note label.

This live recording captured Ronnie Foster at the Montreux Jazz Festival on July 5, 1973. At this point, Foster’s music was infused with mind expanding, funky rock. As a result, “Cookin' with Blue Note at Montreux” sounds great. Containing four songs that average eleven minutes, this show is all about the jam. Indeed, the release is packed with improvisational exploration. On the organ, Foster kills. He plays a mind blowing solo on ‘Boogie Juice.’ Marvin Chappell sounds great on drums and Gregory Miller makes a strong contribution on guitar. “Two Headed Freap” was released the previous year, so it's no surprise why the band performed the opening track, ‘Chunky.’ Unfortunately, the band didn’t also play ‘Mystic Brew.’ While there is funkiness in everything Foster plays, the funk really comes out to play on ‘Sameness.’ Listeners preferring succinct four minute songs are likely to find this show too jammy. Likewise, those yearning improvisation will enjoy the instrumental exploration. In any case, restraint is exchanged for live energy. While the fidelity could have been higher, the overall recording quality is still good. We should take a moment and thank Japan; this is another of those classic Jazz recordings that would probably still be out-of-print if it weren’t for the Japanese re-release. “Two-Headed Freap” remains what is probably Ronnie Foster’s strongest release to date. That said, “Cookin' with Blue Note at Montreux” can be thought of as a like-minded project that goes further.

Review by Delite Rancher, Amazon.com

Ronnie Foster at Allmusic
Ronnie Foster at Wiki

Ronnie Foster - organ
Gregory Miller - guitar
Marvin Chappell - drums

Recorded live at the Montreux Jazz Festival, Switzerland on July 5, 1973

Tracklist:

01. East of Ginger Trees (Seals-Crofts) - 11:56
02. Chunky (Foster) - 8:26
03. Boogie Juice (Foster) - 14:03
04. Sameness (Foster) - 11:20


Exact Audio Copy V1.0 beta 3 from 29. August 2011

EAC extraction logfile from 27. November 2013, 22:14

Ronnie Foster / Live at Montreux

Used drive : ASUS DRW-24B1LT Adapter: 5 ID: 1

Read mode : Secure
Utilize accurate stream : Yes
Defeat audio cache : Yes
Make use of C2 pointers : No

Read offset correction : 6
Overread into Lead-In and Lead-Out : No
Fill up missing offset samples with silence : Yes
Delete leading and trailing silent blocks : No
Null samples used in CRC calculations : Yes
Used interface : Native Win32 interface for Win NT & 2000

Used output format : User Defined Encoder
Selected bitrate : 768 kBit/s
Quality : High
Add ID3 tag : No
Command line compressor : C:\Program Files\Exact Audio Copy\Flac\flac.exe
Additional command line options : -8 -V -T "ARTIST=%artist%" -T "TITLE=%title%" -T "ALBUM=%albumtitle%" -T "DATE=%year%" -T "TRACKNUMBER=%tracknr%" -T "TOTALTRACKS=%numtracks%" -T "GENRE=%genre%" -T "ALBUMARTIST=%albumartist%" -T "ALBUM ARTIST=%albumartist%" -T "COMMENT=EAC Secure Mode, Test & Copy, AccurateRip, FLAC -8" %source%


TOC of the extracted CD

Track | Start | Length | Start sector | End sector
––––––––––––––––––––––––––––-
1 | 0:00.00 | 11:56.27 | 0 | 53726
2 | 11:56.27 | 8:26.34 | 53727 | 91710
3 | 20:22.61 | 14:02.55 | 91711 | 154915
4 | 34:25.41 | 11:20.22 | 154916 | 205937


Range status and errors

Selected range

Filename F:\audio\Ronnie Foster - Live at Montreux.wav

Peak level 99.4 %
Extraction speed 5.5 X
Range quality 100.0 %
Test CRC A08CEF39
Copy CRC A08CEF39
Copy OK

No errors occurred


AccurateRip summary

Track 1 not present in database
Track 2 not present in database
Track 3 not present in database
Track 4 not present in database

None of the tracks are present in the AccurateRip database

End of status report

–– CUETools DB Plugin V2.1.3

[CTDB TOCID: OpKN2uljJnojw8AKAdmXXhr9138-] found, Submit result: OpKN2uljJnojw8AKAdmXXhr9138- has been confirmed
[6319d380] (1/1) Accurately ripped


==== Log checksum 03BB5ABFFB4E96A17E92BF35964F49BED66D333DD7EAEA0AB08B08B59C5A4A25 ====

[CUETools log; Date: 21.07.2018 19:33:32; Version: 2.1.4]
[CTDB TOCID: OpKN2uljJnojw8AKAdmXXhr9138-] found.
Track | CTDB Status
1 | (3/3) Accurately ripped
2 | (3/3) Accurately ripped
3 | (3/3) Accurately ripped
4 | (3/3) Accurately ripped
[AccurateRip ID: 0007b9b4-001f0146-2a0ab904] found.
Track [ CRC | V2 ] Status
01 [c7c0664c|c6679853] (0+1/1) Accurately ripped
02 [2a28967c|b0a4961a] (0+1/1) Accurately ripped
03 [2443e636|8e60c582] (0+1/1) Accurately ripped
04 [f9641939|29707f44] (0+1/1) Accurately ripped

Track Peak [ CRC32 ] [W/O NULL] [ LOG ]
– 99,4 [A08CEF39] [3DD33801] CRC32
01 98,2 [ED1BB5AC] [EC4529FD]
02 98,4 [0E810709] [72F43F3B]
03 97,7 [7D7EA803] [84841628]
04 99,4 [432A23B7] [1669DE50]

foobar2000 1.2 / Dynamic Range Meter 1.1.1
log date: 2018-07-21 19:32:59

––––––––––––––––––––––––––––––––––––––––
Analyzed: Ronnie Foster / Live at Montreux
––––––––––––––––––––––––––––––––––––––––

DR Peak RMS Duration Track
––––––––––––––––––––––––––––––––––––––––
DR11 -0.16 dB -14.39 dB 11:56 01-East of Ginger Trees
DR10 -0.14 dB -12.05 dB 8:26 02-Chunky
DR12 -0.20 dB -14.63 dB 14:03 03-Boogie Juice
DR10 -0.05 dB -13.19 dB 11:20 04-Sameness
––––––––––––––––––––––––––––––––––––––––

Number of tracks: 4
Official DR value: DR11

Samplerate: 44100 Hz
Channels: 2
Bits per sample: 16
Bitrate: 830 kbps
Codec: FLAC
================================================================================

Ronnie Foster - Live: Cookin' With Blue Note At Montreux (1973) Japanese Reissue 2012

Ronnie Foster - Live: Cookin' With Blue Note At Montreux (1973) Japanese Reissue 2012