Tags
Language
Tags
June 2024
Su Mo Tu We Th Fr Sa
26 27 28 29 30 31 1
2 3 4 5 6 7 8
9 10 11 12 13 14 15
16 17 18 19 20 21 22
23 24 25 26 27 28 29
30 1 2 3 4 5 6

Roosevelt Sykes - The Honeydripper (1961) [Reissue 1993]

Posted By: gribovar
Roosevelt Sykes - The Honeydripper (1961) [Reissue 1993]

Roosevelt Sykes - The Honeydripper (1961) [Reissue 1993]
EAC Rip | FLAC (image+.cue+log) - 226 MB | MP3 CBR 320 kbps (LAME 3.93) - 87 MB | Covers (6 MB) included
Genre: Blues, Piano Blues | RAR 3% Rec. | Label: OBC/Prestige/Bluesville (00025218055727)

Roosevelt Sykes expertly fit his classic, down-home piano riffs and style into a fabric that also contained elements of soul, funk, and R&B. The nine-cut date, reissued by Original Blues Classics, included such laments as "I Hate to Be Alone," "Lonely Day," and "She Ain't for Nobody," as well as the poignant "Yes Lawd," and less weighty "Satellite Baby" and "Jailbait." Besides Sykes' alternately bemused, ironic, and inviting vocals, there's superb tenor sax support from King Curtis, Robert Banks' tasty organ, and steady, nimble bass and drum assistance by Leonard Gaskin and drummer Belton Evans.
Tracklist:
01. Miss Ida B.
02. Mislead Mother
03. Yes Lawd
04. I Hate To Be Alone
05. Jailbait
06. Lonely Day
07. Satellite Baby
08. Pocketful Of Money
09. She Ain't For Nobody

Total time: 34:48

Exact Audio Copy V0.99 prebeta 4 from 23. January 2008

EAC extraction logfile from 25. February 2009, 20:41

Roosevelt Sykes / The Honeydripper

Used drive : LITE-ON CD-RW SOHR-5238S Adapter: 0 ID: 1

Read mode : Secure
Utilize accurate stream : Yes
Defeat audio cache : Yes
Make use of C2 pointers : No

Read offset correction : 6
Overread into Lead-In and Lead-Out : No
Fill up missing offset samples with silence : Yes
Delete leading and trailing silent blocks : No
Null samples used in CRC calculations : Yes
Used interface : Installed external ASPI interface

Used output format : Internal WAV Routines
Sample format : 44.100 Hz; 16 Bit; Stereo


TOC of the extracted CD

Track | Start | Length | Start sector | End sector
––––––––––––––––––––––––––––-
1 | 0:00.00 | 4:58.65 | 0 | 22414
2 | 4:58.65 | 3:15.55 | 22415 | 37094
3 | 8:14.45 | 9:17.43 | 37095 | 78912
4 | 17:32.13 | 2:02.25 | 78913 | 88087
5 | 19:34.38 | 2:27.12 | 88088 | 99124
6 | 22:01.50 | 4:27.13 | 99125 | 119162
7 | 26:28.63 | 2:48.05 | 119163 | 131767
8 | 29:16.68 | 2:34.15 | 131768 | 143332
9 | 31:51.08 | 2:46.42 | 143333 | 155824


Range status and errors

Selected range

Filename J:\EAC\Honeydripper\Roosevelt Sykes - The Honeydripper.wav

Peak level 100.0 %
Range quality 100.0 %
Test CRC DDF0C38A
Copy CRC DDF0C38A
Copy OK

No errors occurred

End of status report

[CUETools log; Date: 09.06.2021 12:03:42; Version: 2.1.4]
[CTDB TOCID: 9MPfdShy68zIdFmv91Isj5jhSlE-] found.
Track | CTDB Status
1 | (6/6) Accurately ripped
2 | (6/6) Accurately ripped
3 | (6/6) Accurately ripped
4 | (6/6) Accurately ripped
5 | (6/6) Accurately ripped
6 | (6/6) Accurately ripped
7 | (6/6) Accurately ripped
8 | (6/6) Accurately ripped
9 | (6/6) Accurately ripped
[AccurateRip ID: 000d5ccd-005f44a2-6c081d09] found.
Track [ CRC | V2 ] Status
01 [cdb07bdc|d72312c9] (0+0/9) No match
02 [a9c77bc8|f2d99fa4] (0+0/9) No match
03 [2d2dcf92|ed764610] (0+0/9) No match
04 [0e62df46|b192b74d] (0+0/9) No match
05 [51350316|dbfc2e7c] (0+0/9) No match
06 [d35fd453|ef2fe8a8] (0+0/9) No match
07 [631d3094|eb4807d0] (0+0/9) No match
08 [13765111|af52630f] (0+0/8) No match
09 [69721411|ca989a40] (0+0/9) No match
Offsetted by 664:
01 [20562e03] (5/9) Accurately ripped
02 [90b5ad58] (5/9) Accurately ripped
03 [2d8025c2] (5/9) Accurately ripped
04 [f4bd893e] (5/9) Accurately ripped
05 [ea9efdbe] (5/9) Accurately ripped
06 [2aac483b] (5/9) Accurately ripped
07 [d6bc4d54] (5/9) Accurately ripped
08 [3247d739] (4/8) Accurately ripped
09 [4ac4d5fd] (5/9) Accurately ripped

Track Peak [ CRC32 ] [W/O NULL] [ LOG ]
– 100,0 [DDF0C38A] [0DFDEAEA] CRC32
01 100,0 [2532FBC0] [34F84CC9]
02 100,0 [821D1227] [AC70B814]
03 100,0 [37D35D9B] [88FFDED3]
04 100,0 [B43F4D6A] [18E741A8]
05 100,0 [ED0CC632] [3B7F7F70]
06 100,0 [DDD35BB7] [1A6CDAE4]
07 100,0 [493CE919] [0E28ED95]
08 100,0 [BCC48088] [16AD706F]
09 100,0 [68EF4F97] [0F49C45A]

Thanks to garet jax