Subcategories

Rory Gallagher - Kickback City (2013) 3CD Box Set [Re-Up]

Posted By: Designol
Rory Gallagher - Kickback City (2013) 3CD Box Set [Re-Up]

Rory Gallagher - Kickback City (2013) 3CD Box Set
EAC | FLAC | Image (Cue&Log) ~ 873 Mb | Mp3 (CBR320) ~ 345 Mb | Scans ~ 148 Mb
Blues, Blues-Rock | Label: Sony/Capo/Legacy | # 88883764062 | 02:30:58

Kickback City is a unique immersive album inspired by the crime noir passion and music of Rory Gallagher. Featuring a specially compiled album of Rory Gallagher’s best crime novel influenced music; the stunning package also includes an exclusive new novella by Ian Rankin fully illustrated by graphic artist Timothy Truman. This unique immersive album also includes a special narration of the story by actor Aidan Quinn. Inspired by Rory Gallagher’s passion for crime novels, ‘Kickback City’ is a creative collaboration combining the words of Ian Rankin, the illustrations of Timothy Truman and of course the music of Rory Gallagher. The result is a brand new kind of concept album – a must have for fans of Rory Gallagher, Ian Rankin, graphic novels and newcomers alike. Kickback City is a deluxe hardcover book style package including 3 CDs, the 44 page novella ‘The Lie Factory’ and 4 ‘crime’ scene postcards.

Eighteen years after the death of Rory Gallagher, the incendiary Irish blues-rock guitarist and songwriter gets one of the most unusual tribute compilation packages in music history. Kickback City was conceived by Gallagher's brother Dónal to celebrate the guitarist's lifelong love of hard-boiled noir fiction – he often cited its themes and references in his songs. Dónal recruited best-selling, award-winning crime novelist Ian Rankin (of the popular Inspector Rebus series) in a project that compiles studio and live performances by the guitarist that were directly inspired by the genre. To accompany the music, Rankin wrote a novella that liberally references Gallagher's titles and lyrics; entitled The Lie Factory, it too is enclosed. There is an audio reading of the novella by Aidan Quinn on a separate disc. The entire package was illustrated by Timothy Truman (DC Comics, the Grateful Dead, Santana, First Comics), a lifelong fan of the guitarist.

Review by Thom Jurek, Allmusic.com

When I read about this project I felt a little trepidacious.. I wasn't a particular fan of Rory, although I knew who he was and actually bought the compilation "Big Guns" a few years ago, but for some reason never really listened much to it. Having taken the plunge I was pleasantly impressed when the package arrived, a hardback book cased 3 CD package with a very well drawn and scripted graphic novel. Really though its all about the music, and that is what makes the project. Listening to the words of the songs its clear that Rory drew some graphic novels with his writing, and the idea to combine those with a story is genius. Listening to the novel part of the CD its fantastic the way that the song titles and their various characters fit into the story. The songs themselves are also fantastic, while guitarists like Clapton and his like get all the plaudits Rory remains pretty much a hidden gem - hopefully projects like this will thrust his legend into the public eye where these songs belong. The extra live disc also gives his songs a bit more "oomph" - and Im not usually a fan of live stuff (on record), but done like this - it's excellent.

Review by Jamie Crampton, Amazon.co.uk

Rory Gallagher - Kickback City (2013) 3CD Box Set [Re-Up]



Tracklist:

CD1 (01:03:50) Kickback City - Studio

01. Kickback City - 4:48
02. Continental Op - 4:37
03. Kid Gloves - 5:39
04. Big Guns - 3:29
05. Loneshark Blues - 4:27
06. Secret Agent - 5:45
07. B Girl - 4:44
08. Slumming Angel - 3:39
09. Barley And Grape Rag - 3:38
10. Doing Time - 4:07
11. In Your Town - 5:45
12. Sinner Boy - 5:04
13. The Devil Made Me Do It - 2:55
14. Seven Days - 5:14

CD2 (00:44:17) Kickback City - Live

01. Continental Op - 5:09
02. Tattoo'd Lady - 6:29
03. I Ain't No Saint - 6:26
04. Off The Handle - 9:25
05. The Loop - 3:03
06. Messin' With The Kid - 7:27
07. Loneshark Blues - 6:18

CD3 (00:42:51) - The Lie Factory
01. The Lie Factory - 42:51
Narrator – Aidan Quinn, Written-By – Ian Rankin


Exact Audio Copy V1.0 beta 3 from 29. August 2011

EAC extraction logfile from 12. November 2013, 7:42

Rory Gallagher / Kickback City CD1

Used drive : ATAPI iHAS124 B Adapter: 2 ID: 0

Read mode : Secure
Utilize accurate stream : Yes
Defeat audio cache : Yes
Make use of C2 pointers : No

Read offset correction : 6
Overread into Lead-In and Lead-Out : No
Fill up missing offset samples with silence : Yes
Delete leading and trailing silent blocks : No
Null samples used in CRC calculations : Yes
Used interface : Native Win32 interface for Win NT & 2000

Used output format : User Defined Encoder
Selected bitrate : 1024 kBit/s
Quality : High
Add ID3 tag : No
Command line compressor : C:\Program Files (x86)\Exact Audio Copy\FLAC\FLAC.EXE
Additional command line options : -8 -V -T "ARTIST=%artist%" -T "TITLE=%title%" -T "ALBUM=%albumtitle%" -T "DATE=%year%" -T "TRACKNUMBER=%tracknr%" -T "GENRE=%genre%" -T "PERFORMER=%albuminterpret%" -T "COMPOSER=%composer%" %haslyrics%–tag-from-file=LYRICS="%lyricsfile%"%haslyrics% -T "ALBUMARTIST=%albumartist%" -T "DISCNUMBER=%cdnumber%" -T "TOTALDISCS=%totalcds%" -T "TOTALTRACKS=%numtracks%" -T "COMMENT=%comment%" %source% -o %dest%


TOC of the extracted CD

Track | Start | Length | Start sector | End sector
––––––––––––––––––––––––––––-
1 | 0:00.00 | 4:47.52 | 0 | 21576
2 | 4:47.52 | 4:37.23 | 21577 | 42374
3 | 9:25.00 | 5:38.58 | 42375 | 67782
4 | 15:03.58 | 3:28.38 | 67783 | 83420
5 | 18:32.21 | 4:26.54 | 83421 | 103424
6 | 22:59.00 | 5:44.44 | 103425 | 129268
7 | 28:43.44 | 4:44.33 | 129269 | 150601
8 | 33:28.02 | 3:38.74 | 150602 | 167025
9 | 37:07.01 | 3:38.32 | 167026 | 183407
10 | 40:45.33 | 4:06.42 | 183408 | 201899
11 | 44:52.00 | 5:45.07 | 201900 | 227781
12 | 50:37.07 | 5:03.63 | 227782 | 250569
13 | 55:40.70 | 2:55.28 | 250570 | 263722
14 | 58:36.23 | 5:13.67 | 263723 | 287264


Range status and errors

Selected range

Filename G:\CD\Rory Gallagher - Kickback City CD1.wav

Peak level 96.6 %
Extraction speed 6.2 X
Range quality 100.0 %
Test CRC 4C44C91F
Copy CRC 4C44C91F
Copy OK

No errors occurred


AccurateRip summary

Track 1 not present in database
Track 2 not present in database
Track 3 not present in database
Track 4 not present in database
Track 5 not present in database
Track 6 not present in database
Track 7 not present in database
Track 8 not present in database
Track 9 not present in database
Track 10 not present in database
Track 11 not present in database
Track 12 not present in database
Track 13 not present in database
Track 14 not present in database

None of the tracks are present in the AccurateRip database

End of status report

==== Log checksum 7FF56E8DF00994BA20772291CCB09EA63D2CE81B46EA7AB2ADD7564C3B976494 ====

[CUETools log; Date: 24.07.2018 23:42:13; Version: 2.1.4]
[CTDB TOCID: 4lMzrL6hiM77R_0GO8KQRcmRyFs-] found.
Track | CTDB Status
1 | (14/15) Accurately ripped
2 | (14/15) Accurately ripped
3 | (14/15) Accurately ripped
4 | (14/15) Accurately ripped
5 | (14/15) Accurately ripped
6 | (14/15) Accurately ripped
7 | (14/15) Accurately ripped
8 | (14/15) Accurately ripped
9 | (14/15) Accurately ripped
10 | (14/15) Accurately ripped
11 | (14/15) Accurately ripped
12 | (14/15) Accurately ripped
13 | (14/15) Accurately ripped
14 | (14/15) Accurately ripped
[AccurateRip ID: 0021441e-01611237-bc0ef60e] found.
Track [ CRC | V2 ] Status
01 [4f20cca6|5dcbdf61] (02+12/14) Accurately ripped
02 [fb5d5928|c4893668] (02+12/14) Accurately ripped
03 [97885db3|ef0f4e39] (02+12/14) Accurately ripped
04 [f20edee1|ce8985df] (02+12/14) Accurately ripped
05 [394585c4|4b2d7959] (02+12/14) Accurately ripped
06 [2dac1d54|87efca85] (02+12/14) Accurately ripped
07 [2a0fc20e|1ed5273f] (02+12/14) Accurately ripped
08 [06b4dd69|28490120] (02+12/14) Accurately ripped
09 [baae2e79|266c5bbc] (02+12/14) Accurately ripped
10 [2bfcaefc|e04647a9] (02+12/14) Accurately ripped
11 [a4a44ffe|99d08b25] (02+12/14) Accurately ripped
12 [6af4ab38|423f848a] (02+12/14) Accurately ripped
13 [ad784c15|3dc1e322] (02+12/14) Accurately ripped
14 [9f870269|853f140d] (02+11/13) Accurately ripped

Track Peak [ CRC32 ] [W/O NULL] [ LOG ]
– 96,5 [4C44C91F] [C63A5790] CRC32
01 96,5 [9006E395] [FB7F8FF1]
02 96,5 [66C266B7] [190ABFCE]
03 96,5 [5A0914D8] [02F6F549]
04 96,5 [50BC9CA7] [F794D55D]
05 96,5 [01DACFC7] [325CDA1A]
06 96,5 [39467321] [48BD0D01]
07 96,5 [432F52B7] [9673D096]
08 96,5 [6F6094DF] [684036B5]
09 94,2 [B66359BD] [4AF67221]
10 96,5 [0FB71454] [E1A59941]
11 96,5 [58BDBB14] [A19D15AD]
12 96,5 [1F169FCC] [E4FF5918]
13 96,5 [93ECC3FF] [2F90184F]
14 94,6 [ECCB0D61] [6AB5618F]

foobar2000 1.2 / Dynamic Range Meter 1.1.1
log date: 2018-09-21 00:45:56

––––––––––––––––––––––––––––––––––––––––
Analyzed: Rory Gallagher / Kickback City CD1
––––––––––––––––––––––––––––––––––––––––

DR Peak RMS Duration Track
––––––––––––––––––––––––––––––––––––––––
DR9 -0.30 dB -10.33 dB 4:48 01-Kickback City
DR8 -0.30 dB -9.99 dB 4:37 02-Continental Op
DR9 -0.30 dB -10.34 dB 5:39 03-Kid Gloves
DR9 -0.30 dB -10.24 dB 3:29 04-Big Guns
DR10 -0.30 dB -12.28 dB 4:27 05-Loneshark Blues
DR10 -0.30 dB -12.12 dB 5:45 06-Secret Agent
DR10 -0.30 dB -11.17 dB 4:44 07-B Girl
DR9 -0.30 dB -10.47 dB 3:39 08-Slumming Angel
DR11 -0.51 dB -13.20 dB 3:38 09-Barley And Grape Rag
DR9 -0.30 dB -10.56 dB 4:07 10-Doing Time
DR10 -0.30 dB -11.62 dB 5:45 11-In Your Town
DR11 -0.30 dB -13.60 dB 5:04 12-Sinner Boy
DR10 -0.30 dB -10.96 dB 2:55 13-The Devil Made Me Do It
DR14 -0.48 dB -18.63 dB 5:14 14-Seven Days
––––––––––––––––––––––––––––––––––––––––

Number of tracks: 14
Official DR value: DR10

Samplerate: 44100 Hz
Channels: 2
Bits per sample: 16
Bitrate: 966 kbps
Codec: FLAC
================================================================================


Exact Audio Copy V1.0 beta 3 from 29. August 2011

EAC extraction logfile from 12. November 2013, 8:02

Rory Gallagher / Kickback City CD2

Used drive : ATAPI iHAS124 B Adapter: 2 ID: 0

Read mode : Secure
Utilize accurate stream : Yes
Defeat audio cache : Yes
Make use of C2 pointers : No

Read offset correction : 6
Overread into Lead-In and Lead-Out : No
Fill up missing offset samples with silence : Yes
Delete leading and trailing silent blocks : No
Null samples used in CRC calculations : Yes
Used interface : Native Win32 interface for Win NT & 2000

Used output format : User Defined Encoder
Selected bitrate : 1024 kBit/s
Quality : High
Add ID3 tag : No
Command line compressor : C:\Program Files (x86)\Exact Audio Copy\FLAC\FLAC.EXE
Additional command line options : -8 -V -T "ARTIST=%artist%" -T "TITLE=%title%" -T "ALBUM=%albumtitle%" -T "DATE=%year%" -T "TRACKNUMBER=%tracknr%" -T "GENRE=%genre%" -T "PERFORMER=%albuminterpret%" -T "COMPOSER=%composer%" %haslyrics%–tag-from-file=LYRICS="%lyricsfile%"%haslyrics% -T "ALBUMARTIST=%albumartist%" -T "DISCNUMBER=%cdnumber%" -T "TOTALDISCS=%totalcds%" -T "TOTALTRACKS=%numtracks%" -T "COMMENT=%comment%" %source% -o %dest%


TOC of the extracted CD

Track | Start | Length | Start sector | End sector
––––––––––––––––––––––––––––-
1 | 0:00.00 | 5:08.46 | 0 | 23145
2 | 5:08.46 | 6:29.32 | 23146 | 52352
3 | 11:38.03 | 6:25.62 | 52353 | 81289
4 | 18:03.65 | 9:24.62 | 81290 | 123651
5 | 27:28.52 | 3:03.23 | 123652 | 137399
6 | 30:32.00 | 7:27.05 | 137400 | 170929
7 | 37:59.05 | 6:17.63 | 170930 | 199267


Range status and errors

Selected range

Filename G:\CD\Rory Gallagher - Kickback City CD2.wav

Peak level 96.5 %
Extraction speed 5.4 X
Range quality 100.0 %
Test CRC A3B16472
Copy CRC A3B16472
Copy OK

No errors occurred


AccurateRip summary

Track 1 not present in database
Track 2 not present in database
Track 3 not present in database
Track 4 not present in database
Track 5 not present in database
Track 6 not present in database
Track 7 not present in database

None of the tracks are present in the AccurateRip database

End of status report

==== Log checksum 08803195CD32A871DB834FB2A4D014A7ED4282CC6A9603A2DAC5305B34468CEF ====

[CUETools log; Date: 24.07.2018 23:42:32; Version: 2.1.4]
[CTDB TOCID: ckzGKxIbN5F90uWrOktpKf23oWg-] found.
Track | CTDB Status
1 | (15/17) Accurately ripped
2 | (16/17) Accurately ripped
3 | (16/17) Accurately ripped
4 | (16/17) Accurately ripped
5 | (16/17) Accurately ripped
6 | (16/17) Accurately ripped
7 | (17/17) Accurately ripped
[AccurateRip ID: 000c0647-0048a8e2-440a6007] found.
Track [ CRC | V2 ] Status
01 [182c997a|047aecdf] (00+12/12) Accurately ripped
02 [a1a8c82a|6f0e07ef] (00+12/12) Accurately ripped
03 [a856a94c|d5608947] (00+12/12) Accurately ripped
04 [5f28928d|3971b1d7] (00+12/12) Accurately ripped
05 [088eaa2e|47574011] (00+12/12) Accurately ripped
06 [9d712ff0|7b803901] (00+12/12) Accurately ripped
07 [a23a83e8|03431eb4] (00+12/12) Accurately ripped

Track Peak [ CRC32 ] [W/O NULL] [ LOG ]
– 96,5 [A3B16472] [E4AFBC28] CRC32
01 96,5 [155167BE] [D694642F]
02 96,5 [61E726D0] [BEB7A2B3]
03 96,5 [0C9A9A8F] [C6A2C317]
04 96,5 [7EB93E6A] [F9B7EA95]
05 96,5 [5D01743E] [F8535914]
06 96,5 [5E158ED0] [356682E2]
07 96,5 [534BB4CF] [F1294261]

foobar2000 1.2 / Dynamic Range Meter 1.1.1
log date: 2018-09-21 00:46:16

––––––––––––––––––––––––––––––––––––––––
Analyzed: Rory Gallagher / Kickback City CD2
––––––––––––––––––––––––––––––––––––––––

DR Peak RMS Duration Track
––––––––––––––––––––––––––––––––––––––––
DR9 -0.30 dB -9.96 dB 5:09 01-Continental Op
DR9 -0.30 dB -10.71 dB 6:29 02-Tattoo'd Lady
DR8 -0.30 dB -10.12 dB 6:26 03-I Ain't No Saint
DR8 -0.30 dB -11.36 dB 9:25 04-Off The Handle
DR9 -0.30 dB -9.92 dB 3:03 05-The Loop
DR8 -0.30 dB -9.25 dB 7:27 06-Messin' With The Kid
DR8 -0.30 dB -9.58 dB 6:18 07-Loneshark Blues
––––––––––––––––––––––––––––––––––––––––

Number of tracks: 7
Official DR value: DR8

Samplerate: 44100 Hz
Channels: 2
Bits per sample: 16
Bitrate: 916 kbps
Codec: FLAC
================================================================================


Exact Audio Copy V1.0 beta 3 from 29. August 2011

EAC extraction logfile from 12. November 2013, 8:47

Rory Gallagher / Kickback City CD3

Used drive : ATAPI iHAS124 B Adapter: 2 ID: 0

Read mode : Secure
Utilize accurate stream : Yes
Defeat audio cache : Yes
Make use of C2 pointers : No

Read offset correction : 6
Overread into Lead-In and Lead-Out : No
Fill up missing offset samples with silence : Yes
Delete leading and trailing silent blocks : No
Null samples used in CRC calculations : Yes
Used interface : Native Win32 interface for Win NT & 2000

Used output format : User Defined Encoder
Selected bitrate : 1024 kBit/s
Quality : High
Add ID3 tag : No
Command line compressor : C:\Program Files (x86)\Exact Audio Copy\FLAC\FLAC.EXE
Additional command line options : -8 -V -T "ARTIST=%artist%" -T "TITLE=%title%" -T "ALBUM=%albumtitle%" -T "DATE=%year%" -T "TRACKNUMBER=%tracknr%" -T "GENRE=%genre%" -T "PERFORMER=%albuminterpret%" -T "COMPOSER=%composer%" %haslyrics%–tag-from-file=LYRICS="%lyricsfile%"%haslyrics% -T "ALBUMARTIST=%albumartist%" -T "DISCNUMBER=%cdnumber%" -T "TOTALDISCS=%totalcds%" -T "TOTALTRACKS=%numtracks%" -T "COMMENT=%comment%" %source% -o %dest%


TOC of the extracted CD

Track | Start | Length | Start sector | End sector
––––––––––––––––––––––––––––-
1 | 0:00.00 | 42:50.40 | 0 | 192789


Range status and errors

Selected range

Filename G:\CD\Rory Gallagher - Kickback City CD3.wav

Peak level 96.6 %
Extraction speed 5.5 X
Range quality 100.0 %
Test CRC 1B90B4FB
Copy CRC 1B90B4FB
Copy OK

No errors occurred


AccurateRip summary

Track 1 not present in database

None of the tracks are present in the AccurateRip database

End of status report

==== Log checksum BBBE88D1C7423A007107CFE1B2EE2CF483B7CE9F52A1050CF67425948D34D472 ====

[CUETools log; Date: 24.07.2018 23:42:44; Version: 2.1.4]
[CTDB TOCID: iZ.uh1ym6ESp_3MrFJeGNvkFo.4-] found.
Track | CTDB Status
1 | (10/14) Accurately ripped
[AccurateRip ID: 0002f116-0005e22d-020a0a01] found.
Track [ CRC | V2 ] Status
01 [4b1b9ba8|dadc9f63] (0+9/9) Accurately ripped

Track Peak [ CRC32 ] [W/O NULL] [ LOG ]
– 96,5 [1B90B4FB] [EBDFB2B4] CRC32
01 96,5 [1B90B4FB] [EBDFB2B4] CRC32

foobar2000 1.2 / Dynamic Range Meter 1.1.1
log date: 2018-09-21 00:46:31

––––––––––––––––––––––––––––––––––––––––
Statistics for: 01-The Lie Factory
Number of samples: 113360520
Duration: 42:51
––––––––––––––––––––––––––––––––––––––––

Left Right

Peak Value: -0.30 dB –- -0.30 dB
Avg RMS: -16.45 dB –- -16.45 dB
DR channel: 13.47 dB –- 13.47 dB
––––––––––––––––––––––––––––––––––––––––

Official DR Value: DR13

Samplerate: 44100 Hz
Channels: 2
Bits per sample: 16
Bitrate: 463 kbps
Codec: FLAC
================================================================================

Rory Gallagher - Kickback City (2013) 3CD Box Set [Re-Up]